&title=デッドマンズバラッド
&wholebpm=300
&artist=cosMo@暴走P
&des=サファ太
&shortid=11328
&genre=niconicoボーカロイド
&cabinet=DX
&version=maimai DX UNiVERSE
&chartconverter=Neskol
&lv_2=5
&des_2=
&lv_3=8
&des_3=
&lv_4=12
&des_4=シチミヘルツ
&lv_5=14
&des_5=サファ太
&des_6=
&inote_2=
(300){1},
{1},
{1},
{1},
{1},
{1},
{1},
{1},
{1},
{1},
{1}8,
{1},
{1}1,
{1},
{1}8h[1:2],
{1},
{1},
{1},
{2}1x,1,
{1}1,
{1}2,
{1}2,
{2}3,3,
{1}3,
{1}4,
{1}4/5,
{1}4h[1:2]/5h[1:2],
{1},
{1},
{1},
{1}5,
{1}5,
{1}5,
{1},
{1}6,
{1}6,
{1}6,
{1},
{1}7,
{1}7,
{1}7,
{1},
{1}8,
{1}8,
{1}1x/8x,
{1},
{1}B8,
{1},
{1}B1,
{1},
{1}B7,
{1},
{1}C1,
{1},
{1}8h[1:2],
{1},
{1},
{1},
{1}7h[1:2],
{1},
{1},
{1},
{1}6h[1:2],
{1},
{1},
{1},
{1}4h[1:2]/5h[1:2],
{1},
{1},
{1},
{1}4,
{1}4,
{1}3,
{1}3,
{1}2,
{1}2,
{1}1,
{1}1/8,
{1}1,
{1}2,
{1}3,
{1}4/5,
{1}5,
{1}6,
{1}7,
{1}1x/8x,
{1}8,
{1}8,
{2}7,7,
{1}7,
{1}6,
{1}6,
{2}5,5,
{1}4/5,
{2}4,4,
{1}4,
{2}3,3,
{1}3,
{2}2,2,
{1}2,
{2}1,1,
{1}1,
{1}1b/8b,
{1},
{1}1-4[4:7],
{1},
{1},
{1},
{1}8-5[4:7],
{1},
{1},
{1},
{1}1-5[4:7],
{1},
{1},
{1},
{1}8,
{1}8,
{1}1x/8x,
{1},
{2}1,1,
{2}2,2,
{2}3,3,
{1}4/5,
{2}5,5,
{2}6,6,
{2}7,7,
{1}1/8,
{2}8,8,
{2}7,7,
{2}6,6,
{1}5/6,
{2}4,4,
{2}3,3,
{2}2,2,
{1}1/2,
{2}1,1,
{2}2,2,
{2}3,3,
{2}4,4,
{2}5,5,
{2}6,6,
{2}7,7,
{1}7/8,
{2}8,8,
{2}7,7,
{2}6,6,
{1}4b/5b,
{2}4,4,
{2}3,3,
{2}2,2,
{1}1x/8x,
{1}1h[1:2]/2h[1:2],
{1},
{1},
{1},
{1}7h[1:2]/8h[1:2],
{1},
{1},
{1},
{2}1,1,
{4}2,2,2,,
{2}3,3,
{1}4/5,
{2}5,5,
{4}6,6,6,,
{2}7,7,
{1}1/8,
{2}8,8,
{4}7,7,7,,
{2}6,6,
{4}5,5,5,,
{2}4,4,
{4}3,3,3,,
{1}1x/2x,
{1},
{4}1,1,1,,
{2}1/2,1/2,
{4}8,8,8,,
{2}7/8,7/8,
{1}1h[1:1]/8h[1:1],
{1},
{1}C1hf[8:21],
{1},
{1},
{1},
{1},
E
&inote_3=
(300){1},
{1},
{1}6xh[1:1],
{1}5h[1:1],
{1}4h[1:1],
{1}3,
{1}2h[1:1],
{1}1h[1:1],
{1}8h[1:1],
{1}7,
{1}6-1[2:1],
{2},2,
{1}2-5[2:1],
{2},6,
{2}5/6,5/6,
{1}4/7,
{2}3x,2x,
{2}1x,1b/8b,
{4}2,2,1/2,,
{4}7,7,7/8,,
{4}2,2,1/2,,
{1}3xh[2:1]/4xh[2:1],
{4}6,6,5/6,,
{4}3,3,3/4,,
{4}5,5,4,4,
{4}4/5,4/5,3b/6b,,
{1}8<3[8:11],
{1},
{2}2,3,
{1}4b/5b,
{2}6h[2:1],5,
{2}3h[2:1],4,
{2}6h[2:1],5,
{2}3h[4:1]/4h[4:1],3/4,
{2}2h[2:1],1,
{2}7h[2:1],8,
{2}2h[2:1],1,
{2}7h[4:1]/8h[4:1],7/8,
{2}6,5/6,
{2}3,3/4,
{2}6,5/6,
{2}3/4,3/4,
{2}2,1/2,
{2}7,7/8,
{2}1x/8x,2x/7x,
{1}3b/6b,
{1}2>6[8:11],
{1},
{2}7,7,
{1}7/8,
{2}6,6,
{2}5,4h[4:3]/5h[4:3],
{1},
{1},
{2}3,3,
{2}3/4,2/5,
{2}6,6,
{2}5/6,4/7,
{2}3,3,
{2}3/4,2/5,
{1}3h[2:1]/4h[2:1],
{1}5h[2:1]/6h[2:1],
{2}7,7,
{2}7/8,1/6,
{2}2,2,
{2}1/2,3/8,
{2}7,7,
{2}7/8,1/6,
{1}7h[2:1]/8h[2:1],
{1}1b/6b,
{2}E7,B7,
{1}B8,
{2}E3,B2,
{1}B1,
{4}7x,7x,8,8,
{4}1,1,2/8,,
{4}3,3,4,4,
{4}5,5,4b/5b,,
{2}B2,B3,
{1}E4,
{2}B7,B6,
{1}E6,
{4}3,3,4,4,
{4}5,5,4/6,,
{4}7,7,8,8,
{4}1,1,2b/8b,,
{1}7-4[2:1],
{1}3-8[2:1],
{4}7x,7,7,,
{4}6,6,5/6,,
{1}3-8[2:1],
{1}7-4[2:1],
{4}3x,3,3,,
{4}2,2,1/2,,
{1}7-4[2:1],
{1}3-8[2:1],
{4}7x,7,7,,
{4}6,6,5/6,,
{1}3-8[2:1],
{1}7-4[2:1],
{4}3,3,2,2,
{1}1h[2:1]/8h[2:1],
{1}C1f,
{1},
{1}7<3[4:5],
{1},
{1}2>6[4:5],
{1},
{1}7z3[2:3],
{1},
{1}2,
{1}3,
{1}4-1[2:1],
{1}8,
{1}8-5[2:1],
{1}4,
{1}3>6[16:21],
{1},
{1}C1f,
{1},
{4}7,7,7/8,,
{4}2,2,1/2,,
{4}7,7,8,8,
{4}1x,1x,2x/8x,,
{4}3,3,3/4,,
{4}6,6,5/6,,
{4}3,3,4,4,
{2}4h[4:1]/5h[4:1],3/6,
{4}2,2,1/2,,
{4}7,7,7/8,,
{4}2,2,1,1,
{4}8,8,1/7,,
{4}6,6,5/6,,
{4}3,3,3/4,,
{4}5,5,4,4,
{2}4h[4:1]/5h[4:1],3/6,
{1}7-4[2:1],
{1}3-8[2:1],
{1}7-4[2:1],
{2}3,2,
{1}1>4[2:1],
{2}5,4/5,
{2}3/6,2/7,
{1}1b/8b,
{1}2>5[2:1],
{1}6<1[2:1],
{1}2>5[2:1],
{2}6x,7x,
{2}7h[4:1]/8h[4:1],7/8,
{2}1h[4:1]/2h[4:1],1/2,
{4}8,8,1,1,
{1}2b/7b,
{1}B6,
{1}B7,
{1}B8,
{1}B1,
{1}B2,
{1}B3,
{1}B4,
{1}B5,
{4}3x,3,4,4,
{4}5,5,4/6,,
{4}7,7,8,8,
{4}1,1,2/8,,
{4}3,3,4,4,
{4}5,5,4/6,,
{4}7,7,8,8,
{4}1,1,2/8,,
{4}3,3,3/4,,
{4}6,6,5/6,,
{4}3,3,4,4,
{4}5,5,4/6,,
{4}7,7,7/8,,
{4}2,2,1/2,,
{1},
{1},
{4}7b/8b,7/8,7/8,,
{4}1/2,1/2,1/2,,
{4}7,7,8,8,
{4}7/8,7/8,1/6,,
{4}2,2,1,1,
{1}2qq5[4:9],
{1},
{1},
{8},,,,,3x/6x,,,
{1},
{1},
{1},
E
&inote_4=
(300){1},
{1},
{1}4h[2:1]/6h[2:1],
{1}3h[2:1]/5h[2:1],
{1}4h[2:1]/7h[2:1],
{1}2h[2:1]/5h[2:1],
{2}7h[2:1],5h[2:1],
{2}3h[2:1],1h[2:1],
{2}8,1/7,
{4}1/8,1/8,2b/7b,,
{4}E7,E6,E5,E4,
{1}B1/B2/B3/B4/B5/B6,
{4}E3,E4,E5,E6,
{1}B1/B2/B3/B4/B6/B7/B8,
{4}E7,E6,E5,E4,
{1}B1/B2/B3/B4/B5/B6/B7/B8,
{2}3b,2b,
{2}1b,C1f,
{4}2/8,2/8,4/5,4/5,
{4}2/8,2/8,4/5,4/5,
{4}2/8,2/8,4/5,4/5,
{4}2/8,2/8,3/7,,
{4}1/7,1/7,4/5,4/5,
{4}1/7,1/7,4/5,4/5,
{4}6,5,4,3,
{4}2,1,8,7>6[1:2],
{1}1b,
{1},
{1},
{4}3/6,4/5,3/6,,
{4}2,2-4[4:1],1,1-5[4:1],
{4}2,2,8,8,
{4}7,7-5[4:1],8,8-4[4:1],
{4}7,7,1,1,
{4}2,2-4[4:1],1,1-5[4:1],
{4}2,2,8,8,
{4}4,4,3/5,3/5,
{4}2b/6b,,,8,
{4}3,3-1[4:1],4,4-8[4:1],
{4}3,3,5,5,
{4}6,6-8[4:1],5,5-1[4:1],
{4}6,6,4,4,
{4}3,3-1[4:1],4,4-8[4:1],
{4}3,3,5,5,
{2}1/6,4/5,
{1}3b/7b,
{1}6h[1:1],
{1}5h[1:1],
{1}4h[1:1],
{1}3h[1:1],
{1}1h[1:1],
{1}7h[1:2],
{1}2h[1:1],
{1},
{4}6,6,5/6,5/6,
{4}6,6,6/7,6/7,
{4}6,6,5/6,5/6,
{4}4/7,4/7,3,3,
{4}3/4,3/4,3,3,
{4}2/3,2/3,3,3,
{4}3/4,2/5,1/6,,
{4}4/8,3/7,2/6,,
{4}7,7,5/6,7,
{4}7,7,5/6,7,
{4}7,7,5/6,7,
{4}7,7,3/6,3/6,
{4}2,2,3/4,2,
{4}2,2,3/4,2,
{4}2,1/5,2/6,,
{1}C1f,
{4}1/2,3,1/2,8,
{4}1/2,3,1/2,8,
{4}7/8,6,7/8,1,
{4}7/8,6,1h[2:5]/5,,
{4}2b,2b,2b,2b,
{4}2b,2b,2b,2b,
{4}3,3,4,4,
{4}5,5,C1f,,
{4}7/8,6,7/8,1,
{4}7/8,6,7/8,1,
{4}1/2,3,1/2,8,
{4}1/2,3,4/8h[2:5],,
{4}7b,7b,7b,7b,
{4}7b,7b,7b,7b,
{4}6,6,5,5,
{1}C1f,
{2}7-4[4:1],8-3[4:1],
{2}7-4[4:1],1,
{4}1/2,1/2,1/8,1/8,
{4}7/8,7/8,1/6,,
{2}2-5[4:1],1-6[4:1],
{2}2-5[4:1],8,
{1}3p6[4:3],
{4},,1x/8x,1x/8x,
{2}7-4[4:1],8-3[4:1],
{2}7-4[4:1],1,
{4}1/2,1/2,1/8,1/8,
{4}7/8,7/8,1/6,,
{2}4-1[4:1],5-8[4:1],
{2}4-1[4:1],5,
{4}E1,E8,E7,E6,
{4}E5,E4,E3,E2,
{1}C1f/E1,
{1},
{1}3v6[2:3],
{1},
{1}2v7[2:3],
{1},
{1}3v6[2:3],
{1},
{1}4-1[4:3],
{1}8b,
{4}7,7,7,7,
{4}5,5,5,5,
{4}4,4,4,4,
{4}2,2,2,2,
{8}8,1,8,1,8,1,8,1,
{8}8,1,8,1,8,,,,
{1}2b/7b,
{4},,1/8,2/7,
{4}6,6-1[4:1],2,2-5[4:1],
{4}6,6-1[4:1],4,4,
{4}5/6,5/6,3/5,3/5,
{4}5/6,7/8,5/6,7/8,
{4}2,2q7[2:1],1,1,
{4}8x,8x,7,7p2[2:1],
{4}8,8,1x,1x,
{4}1/8,1/8,2b/7b,,
{4}4/5,3-1[4:1],8,8-4[4:1],
{4}3,3-1[4:1],5,5,
{4}3/4,3/4,4/6,4/6,
{4}3/4,1/2,3/4,1/2,
{4}7h[4:1],5h[4:1],4h[4:1],2h[4:1],
{4}7h[4:1],5h[4:1],4h[4:1],2h[4:1],
{4}8h[4:1],5h[4:1],4h[4:1],1h[4:1],
{4}8,8,2b/7b,,
{4}5/6,4/5,3/4,2,
{4}3/4,4/5,5/6,7,
{4}8,1,2,3,
{4}4/5,5/6,4/7,,
{8}4,5,4,5,3,6,3,6,
{8}4,5,4,5,3b,,1,,
{4}8,8-4[4:1],1,1>7[2:1],
{1}C1f,
{4}8,5/7,4/6,3/5,
{4}1,2/4,3/5,4/6,
{4}8,1/7,2/6,2/6,
{6}3x,4x,3x,6x,5x,6x,
{4}1b,8,2,2-7[4:1],
{4}6,6-3[4:1],2,2<3[4:3],
{1}5b,
{4}8,8-4[4:1],1b,,
{1}C1f/E3/E7,
{1},
{1},
{1},
{1},
{1},
{4}4,4,5,5,
{2}4,3b/6b,
{4}2/8,4/5,2/8,4/5,
{4}2/8,4/5,2/8,4/5,
{4}2/8,4/5,2/8,4/5,
{4}2/8,4/5,3/7,,
{4}1/7,4/5,1/7,4/5,
{4}1/7,4/5,1/7,4/5,
{4}1/7,4/5,1/7,4/5,
{4}1/7,4/5,2/6,,
{4}1/2,1-5[4:1]/2-4[4:1],,,
{4}7/8,7-5[4:1]/8-4[4:1],,,
{4}1/8,1>4[4:1]/8<5[4:1],,,
{4}1/8,2/7,3/6,,
{4}1/2,3/4,5/6,7/8,
{4}1/2,3/4,5/6,7-3[8:1]/8,
{1},
{1},
{8}2,1,2,1,2,1,2b,,
{8}7,8,7,8,7,8,7b,,
{8}2h[8:3],,,3h[8:3],,,4,,
{8}6,5,7,4,8b,,,,
{8}2,1,2,,7,8,7,,
{16}4,,5,,4,,5,,3,,,3,,,3,,
{4}4/7,3/6,2/5,1/4,
{16},2h[8:3],,,,,,4h[16:5],,,,,6h[8:3],,,,
{8},7,8,1,2,3b,,,
{1},
{1},
{1},
E
&inote_5=
(300){1},
{1},
{4}2h[1:1]/4x,,,4,
{4}4h[1:1],,,5,
{4}5h[1:1],,,6,
{4}6h[2:3],,,5,
{8}5h[2:1],,,,,,,4h[8:5],
{8}5h[2:1],,,,,,,3h[8:5],
{4}4h[2:1],,,3/4,
{8}5,4,5,4,5,,,,
{4}4h[8:1],4h[8:1],4h[8:1],4h[8:1],
{4}4h[8:1]/5h[8:1],4h[8:1]/5h[8:1],4h[8:1]/5h[8:1],4h[8:1]/5h[8:1],
{4}5h[8:1],5h[8:1],5h[8:1],5h[8:1],
{4}4h[8:1]/5h[8:1],4h[8:1]/5h[8:1],4h[8:1]/5h[8:1],4h[8:1]/5h[8:1],
{4}3h[8:1]/5h[8:1],3h[8:1]/5h[8:1],3h[8:1]/5h[8:1],3h[8:1]/5h[8:1],
{4}4h[8:1]/6h[8:1],4h[8:1]/6h[8:1],4h[8:1]/6h[8:1],4h[8:1]/6h[8:1],
{2}3,2,
{32}1h[2:1]/5,,,,,,,,,,,,,,,,E5,C1f,,E1,,,,,,,,,,,,,
{4}1h[16:1]/2h[8:1],4h[8:1]/6h[8:1],1h[8:1]/2h[8:1],3h[8:1]/5h[16:1],
{4}2h[8:1]/8h[16:1],4h[16:1]/6h[8:1],1h[8:1]/2h[16:1],3h[16:1]/5h[8:1],
{4}2h[8:1]/8h[16:1],5h[16:1]/7h[8:1],1h[8:1]/2h[16:1],4h[16:1]/6h[8:1],
{1}C1xh[2:1],
{4}7h[8:1]/8h[16:1],3h[16:1]/5h[8:1],1h[8:1]/7h[16:1],3h[16:1]/5h[8:1],
{12}4x,5x,4x,5x,4x,5x,3x,6x,3x,6x,3x,6x,
{4}4x/5x,4x/5x,2b/7b,2b/7b,
{16}E4,E5,E6,E7,E8,E1,E2,E3,E4,E5,E6,E7,E8,E1,E2,E3,
{1}C1xh[1:2]/E4,
{1},
{1},
{4}3/6,3/6,4/5,,
{8}3,4,3,4,3,,3/4,,
{4}2/5,2/5,4/5,4/5,
{4}2-4[8:1]/5,5,1-4[8:1]/5,5,
{4}3/5,3/5,4h[8:1]/5h[8:1],4h[8:1]/5h[8:1],
{8}3,4,3,4,3,,3/4,,
{4}2/5,4/5,3/5,2/5,
{4}1b/6b,,B4/B5/E5,B1/E1/B8,
{4}C1f/B3/B6,,,7x/8x,
{8}6,5,6,5,6,,5/6,,
{4}4/7,4/7,4/6,4/5,
{4}4/7-5[8:1],4,4/8-5[8:1],4,
{4}4/7,4/7,4h[8:1]/5h[8:1],4h[8:1]/5h[8:1],
{8}6,5,7,5,6,5h[4:1],,6,
{8},4,6,3,5,2,4,1,
{2}C1f/B2/E2/B3/E4,C1f/B6/E6/B7/E8,
{1}B1/C1f/E1/B4/B5/E5/B8,
{1}7<2[4:5],
{1}E1,
{1}2>6[4:5],
{1}C1,
{1}6>3[4:5],
{1}E5,
{1}C1xh[1:1],
{2}B2/B7,B4/B5,
{4}6,6,5/6,5/6,
{8}6,,6,,4/7,,6,5,
{4}6,5/6,4/7,8-6[8:1],
{4}2-4[8:1],5,5/6,7-5[8:1],
{4}1-3[8:1],4,4,3/4,
{8}4/5,,5/6,,5/6,,6,5,
{4}7>3[4:1],3v5[4:1],4,4,
{4}2<6[4:1],6v4[4:1],5,5,
{4}3,3,3/4,3/4,
{8}3/5,,3/4,,3/5,,3,4,
{4}3,3/6,3/5,1-3[8:1],
{4}6-4[8:1],1-5[8:1],7-3[8:1],1,
{4}2,2/4,3/4,2/4,
{8}3/4,,3/4,,2/4,,3,4,
{4}2<6[4:1],6v4[4:1],5,5w1[8:1],
{1}C1f,
{4}5h[8:1]/7,5h[8:1]/7,5h[8:1]/7,5h[8:1]/7,
{4}5h[8:1]/6,5h[8:1]/6,5h[8:1]/6,5h[8:1]/6,
{4}5h[8:1]/7,5h[8:1]/6,4/5h[8:1],3/5h[8:1],
{4}4/5h[8:1],4/5h[8:1],3/4,3/5,
{4}2-4[8:1]/6h[8:1],6h[8:1],1-5[8:1]/6h[8:1],6h[8:1],
{4}2-4[8:1]/6h[8:1],6h[8:1],1h[16:1]/6h[8:1],5h[16:1]/6h[8:1],
{4}6h[8:1]/8h[16:1],4h[16:1]/6h[8:1],5h[16:1]/6h[8:1],5h[16:1]/6h[8:1],
{16}4x,3x,2x,1x,8x,7x,6x,5x,4x/8b,,,,,,,,
{4}2/4h[8:1],2/4h[8:1],2/4h[8:1],2/4h[8:1],
{4}4h[8:1]/5,4h[8:1]/5,4h[8:1]/5,4h[8:1]/5,
{4}2/4h[8:1],3/4h[8:1],4h[8:1]/5,4h[8:1]/6,
{4}4h[8:1]/5,4h[8:1]/5,5/6,4/6,
{4}3h[8:1]/6h[16:1],3h[8:1]/4h[8:1],2h[8:1]/3h[8:1],3h[8:1]/8h[8:1],
{4}3h[8:1]/5h[8:1],3h[8:1]/7h[8:1],5h[12:1]/6h[6:1],3h[6:1]/4h[12:1],
{12}5x,4x,5x,4x,5x,4x,6x,3x,6x,2x,7x,2x,
{4}C1f,,,3/6,
{8}4h[8:1],5,4h[8:1],5,4h[8:1],5,4h[8:1],5,
{8}3h[8:1],5,3h[8:1],5,3h[8:1],5,3h[8:1],5,
{4}2-4[8:1],1-5[8:1],2-4[8:1],1-5[8:1],
{4}2-4[8:1],1-5[8:1],2b,4b/6b,
{8}7h[8:1],4,7h[8:1],4,7h[8:1],4,7h[8:1],4,
{8}5h[8:1],4,5h[8:1],4,5h[8:1],4,3p7[2:1]/6h[4:3],,
{1},
{4}7/8,7/8,B1/E1/E2,B3/E3/E4,
{8}6xh[8:1],4,6h[8:1],4,5h[8:1],3,5h[8:1],3,
{8}5h[8:1],4,5h[8:1],4,6h[8:1],3,6h[8:1],3,
{4}5xh[8:1]/7xh[16:1],4h[16:1]/5h[8:1],2h[8:1]/4h[16:1],2h[16:1]/4h[8:1],
{24}2x,3x,4x,5x,6x,7x,8x,1x,2x,3x,4x,5x,6x,7x,8x,1x,2x,3x,4x,,,,,,
{4}6xh[8:1]/7xh[8:1],6h[8:1]/7h[8:1],6h[8:1]/7h[8:1],6h[8:1]/7h[8:1],
{4}5h[8:1]/6h[8:1],6h[8:1]/7h[8:1],7h[8:1]/8h[8:1],1s5[2:1]/8z4[2:1],
{1},
{12}6x,5x,4x,3x,4x,5x,6x,5x,4x,3x,4x,5x,
{1}C1f/6x,
{1},
{1}3bq6[4:5]*s7[4:5],
{1},
{1}3bz7[4:5]*qq6[4:5],
{1},
{1}3bs7[4:5]*pp6[4:5],
{1},
{1}3bq6[4:5]*z7[4:5],
{1},
{4}8h[8:1],8h[8:1],8h[8:1],8h[8:1],
{4}7h[8:1],7h[8:1],7h[8:1],7h[8:1],
{4}6h[8:1],6h[8:1],5h[8:1],5h[8:1],
{4}4h[8:1],3h[8:1],2h[8:1],1h[8:1],
{16}1x/8x,2x,3x,4x,7x,6x,5x,4x,2x,3x,4x,5x,7x,6x,5x,4x,
{48}E2,,,,E3,,,,E4,,,,E8,,,,E7,,,,E6,,,,B1,,,B2,,,B3,,,B4,,,B8,,,B7,,,B6,,,B5,,,
{1}C1f,
{4},,,3-8[8:1]/8,
{4}7b-4[8:1],2-5[8:1],6-1[8:1],3-8[8:1],
{4}7-4[8:1],3-7[8:1],8-3[8:1],4-8[8:1],
{4}7-4[8:1],3-8[8:1],6-1[8:1],3,
{4}8b,2b/4b,5b/7b,1b/8b,
{4}3b/7b,5/6,1/3,6/8,
{4}2b/4b,5/7,1/2,3-8[8:1]/8,
{4}7-4[8:1],2-6[8:1],5-1[8:1],4>6[2:1],
{2}8x,4x,
{4}2-7[8:1]/7,6b-3[8:1],1-4[8:1],5-8[8:1],
{4}2-6[8:1],7-2[8:1],3-7[8:1],8-4[8:1],
{4}2-5[8:1],6-2[8:1],1-6[8:1],8,
{4}5b/7b,2b/4b,1b/3b,6b/8b,
{4}1x-5[8:1],1x<6[8:1],1x>4[8:1],1x-6[8:1],
{4}1x-4[8:1],1x-5[8:1],1x>4[8:1],1x<6[8:1],
{4}1x-5[8:1],1x-6[8:1],1x-4[8:1],1x>8[8:3],
{2}1x,C1f/B4/B5/E5,
{8}1,8,1,8,2/7,,4/5,,
{8}3h[4:1]/6,,4,2/5,,6,6,5,
{4}7-5[8:1],1-3[8:1],8-4[8:1],1,
{4}1x/2x,3x/4x,5x/6x,7x/8x,
{8}7,8,5,4,1,2,5,4,
{8}7,1,5,3,6x,,4/7,,
{4}5-7[8:1],3-1[8:1],4-8[8:1],3,
{4}1b>6[8:3],6b,,,
{4}7h[4:1],5h[4:1],4h[4:1],3h[4:1],
{8}4,,1/2,3/8,,6,5,7,
{4}4/7,2/5,1/8,1/8,
{6}1x,2/4x,3x/5,4/6x,5x/7,8x,
{8}1b/8b,,2,5,3,4,1,8,
{8}5,6,3,4,1,8,1,8,
{16}1,2,3,4,6h[4:1],,,,2,3,4,5,7h[4:1],,,,
{16}3x,4,5,6,7,8,1,2,3x/7x,6,5,4,3,2,1,8,
{1}C1xh[1:3]/7x,
{1},
{1},
{1},
{1}C1f,
{1},
{4}E6,E4,E7,E3,
{8}C1,,,,7,1,7,1,
{16}7,6,5,,2,,1,,4,,5,,2,,1,,
{16}2,3,4,,7,,8,,5,,4,,7,,8,,
{16}7,6,5,,2,,1,,2,3,4,,7,,8,,
{8}5,4,6,3,8x,1x,8x,1x,
{16}7,6,5,,2,,1,,2,3,4,,7,,8,,
{16}6,5,4,,2,,1,,3,4,5,,8,,1,,
{16}8,7,6,5,2,3,4,5,7,6,5,4,1,2,3,4,
{4}5b/7b,1b/8b,2b/4b,5b/7b,
{16}1xh[4:1],,,,6,5,4,3,2,1,8,7,2b/6,,,,
{16}8xh[4:1],,,,3,4,5,6,7,8,1,2,3/7b,,,,
{16}1xh[4:1],,,,7,6,5,4,3,2,1,8,3b/7,,,,
{4}4/8,2/6,1b/8b,1b/8b,
{8}2x-4[8:1],2x,1x-5[8:1],1x,2x-4[8:1],2x,1x-5[8:1],1x,
{8}2x-4[8:1],2x,1x-5[8:1],1x,2x-4[8:1],2x,1x-5[8:1],1x,
{1}C1f,
{1},
{12}1b,8x,1x,8x,1x,8x,2x,7x,2x,7x,2x,7x,
{12}3x,6x,3x,6x,3x,6x,3x,5x,4x,5x,4x,5x,
{16}4x,5x,6x,7x,8x,1x,2x/5x,4x,3x,2x,1x,8x,7x,6x,5x,4x,
{1}C1xh[2:1]/3x,
{48}1x,,,8x,,,1x,,,8x,,,1x,,,8x,,,1x,,,8x,,,2x,,,7x,,,2x,,,7x,,,2x,,,,7x,,,,2x,,,,
{24}3x,,,4x,,,5x,,,6x,,,2x/7x,,,,2x/7x,,,,,2x/7x,,,
{24},,,1b/3x,,,,,2x/4b,,,,,6b/8x,,,,,,5x/7b,,,,,
{24},,,,2b/4x,,,,,,,5b/6x,,,,,,,4b/5x,,,,,,
{32},,,,,3b,,,,6b,,,,3b,,,,6b,,,,B1/C1f/B2/B3/B4/B5/B6/B7/B8,,,,,,,,,,,
{1},
{1},
{1},
E
