&title=スーパーシンメトリー
&wholebpm=210
&artist=Sta feat. b
&des=ロシェ@ペンギン
&shortid=11331
&genre=ゲームバラエティ
&cabinet=DX
&version=maimai DX UNiVERSE
&chartconverter=Neskol
&lv_2=5
&des_2=
&lv_3=8
&des_3=
&lv_4=12
&des_4=はっぴー
&lv_5=13+
&des_5=ロシェ@ペンギン
&des_6=
&inote_2=
(210){1},
{1},
{1},
{1},
{1},
{1},
{1},
{1},
{1}1,
{1}1,
{1}1,
{1}1,
{1}8,
{1}8,
{1}8,
{1}8,
{1}1/8,
{1}1/8,
{1}1h[1:1]/8h[1:1],
{1},
{1}1x/8x,
{1},
{2}1,1,
{1}1,
{2}2,2,
{1}2,
{2}3,3,
{1}3,
{2}4,4,
{1}4/5,
{2}5,5,
{1}5,
{2}6,6,
{1}6,
{2}7,7,
{1}7,
{2}8,8,
{1}1/8,
{2}8,8,
{2}8,8,
{2}7,7,
{1}7,
{2}6,6,
{2}6,6,
{2}5,5,
{1}4/5,
{2}3,3,
{2}3,3,
{2}2,2,
{1}2,
{1}1b/8b,
{1},
{1}B8,
{1}B1,
{1}B7,
{1}B2,
{1}B6,
{1}C1,
{1}7xh[1:1]/8xh[1:1],
{1},
{1}7x/8x,
{1},
{1}1h[1:1]/2h[1:1],
{1},
{1}1x/2x,
{1},
{2}8,8,
{4}7,7,7,,
{2}6,6,
{1}4/5,
{2}4,4,
{4}3,3,3,,
{2}2,2,
{1}1/8,
{2}1,1,
{4}2,2,2,,
{2}3,3,
{2}4/5,4/5,
{2}6,6,
{4}7,7,7,,
{2}1/8,1/8,
{1}1x/8x,
{2}1/8,1/8,
{1}2b/7b,
{2}1/8,1/8,
{1}2x/7x,
{2}8,8,
{4}7,7,7,,
{2}6,6,
{4}5,5,4/5,,
{2}4,4,
{4}3,3,3,,
{2}2,2,
{1}1/8,
{4}7,7,7,,
{1}7/8,
{4}2,2,2,,
{1}1h[1:1]/8h[1:1],
{1},
{1},
{1},
{1},
{1}8-4[4:5],
{1},
{1},
{1}1,
{2}1,1,
{4}2,2,2,,
{2}3,3,
{4}4,4,4/5,,
{2}5,5,
{4}6,6,6,,
{2}7,7,
{1}1/8,
{4}8,8,8,,
{4}7,7,7,,
{4}6,6,6,,
{2}4/5,4/5,
{4}4,4,4,,
{4}3,3,3,,
{4}2,2,2,,
{1}1/8,
{4}1,1,1,1,
{4}2,2,2,,
{4}3,3,3,,
{2}3/4,3/4,
{4}5,5,5,5,
{4}6,6,6,,
{4}7,7,7,,
{2}7/8,7/8,
{4}8,8,7,7,
{4}6,6,4/5,,
{4}4,4,3,3,
{4}2,2,1/8,,
{4}2,2,3,3,
{4}4,4,5,5,
{4}6,6,7,7,
{1}1xh[8:7]/8xh[4:3],
{1},
{1},
{1},
E
&inote_3=
(210){1},
{1},
{1},
{1},
{1},
{1},
{1}4h[1:1]/5h[1:1],
{1},
{4}6b,6,5/6,,
{4}3,3,3/4,,
{4}6,6,5,5,
{4}4,4,3/5,,
{4}2,2,1/2,,
{4}7,7,7/8,,
{4}2,2,1,1,
{4}8,8,1/7,,
{4}6,6,5,5,
{4}4/5,4/5,3b/6b,,
{1}2s6[1:1],
{1},
{1}7z3[1:1],
{1},
{1}2h[1:1],
{1}1h[1:1],
{1}8h[1:1],
{1}7,
{1}6<1[2:1],
{2}2,1/2,
{1}3>8[2:1],
{2}7,7/8,
{1}6h[1:1],
{1}5h[1:1],
{1}4h[1:1],
{1}3,
{1}2>5[2:1],
{2}6,5/6,
{1}7<4[2:1],
{2}3,3/4,
{1}2-6[2:1],
{1}7-3[2:1],
{1}2-5[2:1],
{2}6,5/7,
{2}7h[2:1],8h[2:1],
{2}1h[2:1],2,
{2}3h[2:1],4h[2:1],
{2}5h[2:1],6,
{4}7,8,1,2,
{4}3,4,5,6,
{8}7,7,7,,8,8,8,,
{8}1,1,1,,2,2,2,,
{1}1b/8b,
{1}B7,
{1}B6,
{1}B5,
{1}B4,
{1}B3,
{1}B2,
{1}B1,
{2}7h[2:1],8,
{2}7h[4:1]/8h[4:1],1/6,
{2}2h[2:1],1,
{2}1h[4:1]/2h[4:1],3/8,
{2}7h[2:1],8,
{2}7h[4:1]/8h[4:1],1/6,
{4}2,2,1,1,
{4}1x/8x,2x/7x,3x/6x,,
{4}7b,7,7/8,7/8,
{4}2,2,1/2,1/2,
{4}3,3,3/4,3/4,
{4}6,6,5/6,5/6,
{4}7,7,8,8,
{4}1,1,2,2,
{4}3,3,4,4,
{4}5,5,4/6,,
{4}3h[4:1],4,3/4,,
{4}6h[4:1],5,5/6,,
{4}7,7,8,8,
{4}1,1,2/8,,
{4}7h[4:1],8,7/8,,
{4}2h[4:1],1,1/2,,
{4}3,3,4,4,
{4}5,5,4/6,,
{4}3,4,5,6,
{1}4b>1[2:1]/5b<8[2:1],
{4}7,8,1,2,
{1}1>4[2:1]/8<5[2:1],
{4}3,3,3/4,3/4,
{4}6,6,5/6,5/6,
{4}7,7,8,8,
{4}1,1,2/8,,
{4}3,3,3/4,,
{4}5,5,6,6,
{1}7h[2:1]/8h[2:1],
{4}1,1,2,2,
{1}3h[2:1]/4h[2:1],
{4}5/6,5/6,4/7,,
{4}3,2,1,8,
{4}7,6,5,4,
{1}5<4[4:9],
{1},
{1},
{1},
{1}E4/E6,
{1}B3/B6,
{1}B2/B7,
{1}C1f,
{4}8x,8x,1x/8x,,
{4}2,2,1/2,,
{4}7,7,8,8,
{4}1,1,2/8,,
{4}3,3,3/4,,
{4}6,6,5/6,,
{4}3,3,4,4,
{4}5,5,4/5,,
{4}E7,B6,B5,,
{4}E3,B3,B4,,
{4}B7,B6,E6,,
{4}B2,B3,E4,,
{4}E7,B7,B8,,
{4}E3,B2,B1,,
{4}E6,B6,B7,,
{4}E4,B3,B2,,
{4}8x,8x,7,7,
{4}5/6,5/6,4/7,,
{4}3,3,2,2,
{4}1/8,1/8,2/7,,
{4}1,1,2,2,
{4}3/4,3/4,2/5,,
{4}6,6,7,7,
{4}1/8,2/7,3b/6b,,
{4}2,1/2,3,3/4,
{4}6,5/6,7,7/8,
{4}6,5/6,3,3/4,
{4}2,1/8,2/7,,
{8}5/6,5/6,5/6,,4/7,,,,
{8}3/4,3/4,3/4,,2/5,,,,
{8}4/5,4/5,4/5,,3/6,,,,
{8}2xh[2:1]/7xh[2:1],,,,,,1x/8x,1x/8x,
{1},
{1},
{1},
E
&inote_4=
(210){1},
{1},
{1},
{1},
{1},
{1},
{1}4h[4:7]/5-8[4:5],
{1},
{4}3h[4:3]/8b,5,5,5,
{4}2h[4:3]/6,5,5,5,
{4}1h[4:7]/7,4,4,4,
{4}6x,5,5,5,
{4}4h[4:7]/6,5,5,5,
{4}7,6,5,5,
{4}2h[4:7]/6,4,4,4,
{4}6x,5,5,5,
{4}4h[4:3]/6,5,5,5,
{16}3/6,,,,4,5,4,5,4,,,,2b/7b,,,,
{4}8,7,6,5,
{4}4,3,2,1,
{4}1,2,3,4,
{4}5,4/6,3/7,2/8,
{4}2h[2:1]/8,7,6,5,
{4}4/6h[2:1],3,2,1/5,
{4}1/5,2/6,3/7,4/8,
{4}5,6,2/7,1/8,
{4}1/8,7h[4:1],6h[4:1],5h[4:1],
{4}4h[4:1],3h[4:1],2,1,
{4}1,2h[4:1],3h[4:1],4h[4:1],
{4}5h[4:1],6h[4:1],7,8b,
{4}8,8,5h[4:1]/7,7,
{4}4h[4:1]/6,6,3h[4:1]/5,5,
{4}4,4,3,3,
{4}2/6,2/6,1/5,1/5,
{4}4,3,2,1,
{4}8,7,2/6,3h[2:1]/5,
{4}5,6,1/7,2/8,
{4}1/3,2/8,3/7,4/6,
{4}4,3,2,1,
{4}2h[2:1]/8,7,6,1/5,
{4}1/5,2/6,3/7,4/8,
{4}1,2/7,3/6,4/5,
{4}4,3h[4:1],2h[4:1],1h[4:1],
{4}8h[4:1],7h[4:1],6,5,
{4}5,6h[4:1],7h[4:1],8h[4:1],
{4}1h[4:1],2h[4:1],3,4,
{4}4,4,3/6h[4:1],3,
{4}2/5h[4:1],2,1/4h[4:1],1,
{4}8,8,4/7,4/7,
{4}3/6,3/6,4/5,4-1[4:1]/5-8[4:1],
{1},
{2},E5,
{2}8<5[1:1],E4,
{2},E5,
{2}1>4[1:1],E6,
{2},E5,
{2}6,4/5,
{16}2/7,,,,1,8,1,8,1,,,,3x/6x,,,,
{8}7h[1:1],,5,5,,,4,,
{8}2h[1:1],,4,4,,,5,,
{8}6h[1:1],,8,8,,,1,,
{8}3h[1:1],,1,1,,,8,,
{8}7h[1:1],,5,5,,,4,,
{8}2h[1:1],,4,4,,,5,,
{1}6<3[8:3],
{16}4,5,4,5,4,,,,3x/6x,,,,,,,,
{4}2h[4:1],4h[4:1],5h[4:1],7h[4:1],
{4}1,2/4,8,5/7,
{4}6h[4:1],8h[4:1],1h[4:1],3h[4:1],
{4}4,2/8,5,1/7,
{4}1/2,5,7/8,4,
{4}2/6,5,3/7,4>5[2:1],
{4}C1f,,,2/7,
{4}3/6,4-8[4:1]/5-1[4:1],,,
{4}7h[4:1],5h[4:1],4h[4:1],2h[4:1],
{4}8,5/7,1,2/4,
{4}3h[4:1],1h[4:1],8h[4:1],6h[4:1],
{4}5,1/7,4,2/8,
{4}7/8,4,1/2,5,
{4}3/7,4,2/6,5,
{4}3/7,3-6[4:1]/7-2[4:1],,,
{4}4/8,3/7,2h[4:1]/6h[4:1],,
{4}7b,8b,1b,2b<3[4:3],
{1}C1f,
{4}8,7,6,6pp5[4:3],
{1}C1f,
{4}4,3,3h[4:1],1h[4:1],
{4}8h[4:1],6h[4:1],3,4>1[4:1]/5<8[4:1],
{4},,,2/7,
{4}6,5/7,3,2/4,
{4}6h[4:1],5,7/8,1/2,
{4}3/4,3/4,1/2,7q6[2:1]/8>5[2:1],
{1},
{4}5/6,5/6,7/8,1/2,
{4}3/4,2h[2:1]/5,4,4q5[2:1],
{1},
{4}1/8,1-4[4:1]/8-5[4:1],,,
{8}4/6,4/6,,3/5,3/5,,1b/7b,1bV75[8:15]*V35[8:15]/7b,
{1},
{1},
{1},
{1},
{1}7-3[4:3],
{1}1-4[4:3],
{1}5-8[4:3],
{8}2,,1,1,8,,2/7,,
{4}6>3[4:1],2,2,1h[4:1],
{4}8-6[8:1],2-4[8:1],1-5[8:1],,
{4}3<6[4:1],7,7,8h[4:1],
{4}1-3[8:1],7-5[8:1],8-4[8:1],,
{4}6>3[4:1],2,2,1h[4:1],
{4}8-6[8:1],2-4[8:1],1-5[8:1],,
{4}3<6[4:1],7,7,8h[4:1],
{4}1-3[8:1],7-5[8:1],8b,,
{4}1-4[8:1],5-8[8:1],2,2,
{4}3-5[8:1],7-1[8:1],2-6[8:1],,
{4}8-5[8:1],4-1[8:1],7,7,
{4}6-4[8:1],2-8[8:1],7-3[8:1],,
{4}1-4[8:1],5-8[8:1],2,2,
{4}3-5[8:1],7-1[8:1],2-6[8:1],,
{4}8-5[8:1],4-1[8:1],7,7,
{2}2-8[8:1]/6-4[8:1],1x/5x,
{16}8h[1:1],,,,E1,E2,E3,E4,E5,,,,1,,,,
{16}1h[1:1],,,,E1,E8,E7,E6,E5,,,,8,,,,
{16}8h[1:1],,,,E1,E2,E3,E4,E5,,,,1,,,,
{16}1h[1:1],,,,E1,E8,E7,E6,E5,,,,7,,,,
{16}7h[1:1],,,,E2,E3,E4,E5,E6,,,,2,,,,
{16}2h[1:1],,,,E8,E7,E6,E5,E4,,,,7,,,,
{16}7h[1:1],,,,E2,E3,E4,E5,E6,,,,2,,,,
{16}2h[1:1],,,,E8,E7,E6,E5,E4,,,,6,,,,
{16}6h[1:1],,,,E5,E6,E7,E8,E1,,,,3,,,,
{16}3h[1:1],,,,E5,E4,E3,E2,E1,,,,6,,,,
{16}6h[1:1],,,,E5,E6,E7,E8,E1,,,,3,,,,
{16}3h[1:1],,,,E5,E4,E3,E2,E1,,,,5,,,,
{16}5h[1:1],,,,E7,E8,E1,E2,E3,,,,4,,,,
{16}4h[4:3],,,,E3,E2,E1,E8,E7,,,,5,,,,
{8}7,7,4,4,5,5,2,2,
{8}3/6,3/6,,4/5,4/5,,1b/8b,2b/7b,
{1},
{1},
{1},
E
&inote_5=
(210){1},
{1},
{1},
{1},
{1},
{1},
{1},
{1},
{4}3b/8b<4[2:1],3,3,3,
{4}2/4,2/5,2/6,2/7,
{8}1/8,,1,6,1,5,1,4,
{8}2/3pp5[4:1],,1,1,,8,8,,
{4}1>5[2:1]/6,6,6,6,
{8}5qq1[2:1]/8,,7,7,,6,6,,
{4}1-3[8:1],8,7-5[8:1],8,
{4}2-4[8:1],1,8-6[8:1],1,
{16}2h[4:1],,,,8x,7x,6x,,2h[4:1],,,,4x,5x,6x,,
{12}2,4,3,7,5,6,1,2,3,4,5,6,
{4}C1,B3/B8,B1/B6,B2/B7,
{4}3h[4:1],5h[4:1],3,4/6,
{4}C1,B1/B6,B3/B8,B2/B7,
{4}5,4/6V48[8:3],1-3[8:1],,
{4}5s1[2:1]/7h[2:1],,,6,
{4}5h[2:1]/8z4[2:1],,,8>3[4:1],
{4}3<6[4:1],6<1[4:1],1>7[2:1],4h[2:1],
{2},5-1[8:1],
{8}2/8qq4[2:1],,3,3,,1,1h[8:5],,
{8}4,,7V52[4:1]*V58[4:1],7,,,,,
{8}1pp5[2:1]/7,,6,6,,8,8h[8:5],,
{8}5,,2V41[4:1]*V47[4:1],2,,,,,
{4}5h[2:3]/8,C1,7,C1,
{4}6,C1,4,E3/E7,
{8}2,2,5,5,4,4,7,7,
{16}E4,B3,B2,E2,E6,B6,B7,E8,E4,B4,B5,E6,E2,B1,B8,E8,
{8}3,,3,4,2,4,1,4,
{4}4/8-3[8:1],7<2[4:1],5h[4:1],,
{4}1>5[4:1]/8,7,6,7/8,
{8}1/6,,2,3/4,5,6,4/7,,
{8}8,7,6,5,3/4h[2:1],,6<3[2:1],,
{4},5,6,7,
{8}1/7,8,2,3,4h[2:1]/6,,2,,
{16}E8,B7,B6,E6,E4,B3,B2,E2,8x,,,,3/6,,,,
{8}4h[4:1],,2,1-5[8:1],,8,7<2[8:3],,
{8}8,,1,1h[4:1],,8,7,,
{8}5h[4:1],,7,8-4[8:1],,1,2>7[8:3],,
{8}1,,8,8h[4:1],,1,2,,
{8}8,7,5-1[8:1]/6,,1,,2/8,,
{8}3,3,5,5,4,4,6,6,
{24}4/5,,,4/5,,,3/6,,,3/6,,,2/7,,,2/7,,,1x,2x,3x,8x,7x,6x,
{16}4x>1[8:1],,,,5,,,,8,7,6,5,4,3,2,1,
{1}4b-8[2:9]/8b,
{1}6h[4:3],
{1}5h[4:3],
{1}4h[4:3],
{1}3p5[2:1],
{4}7p1[2:1],,,8h[4:1],
{8}7,,,3,,,5,,
{16}4/5,,,,3,6,3,6,2,7,2,7,1b,,,,
{1}2xv5[2:1]/8xv5[2:1],
{8}2h[8:3],,4,4h[8:3],,,B7/B8,,
{8}5h[4:3],,,1,,,2,,
{8}3,,4/5,4h[8:3]/5,,,B1/B2,,
{8}4-1[4:1],,5,5h[8:3],,,1,,
{8}4-8[4:1],,5,5h[8:3],,,8,,
{8}4-7[4:1],,5,5h[8:3],,,7,,
{16}1,8,2,7,1,8,2,7,1b,,,,,,,,
{8}5-1[8:1]/8,7,6,,2/5-1[8:1],3,4>7[4:1],,
{8}7pp3[2:1],,6,6,,5,5,,
{8}1/4-8[8:1],2,3,,4-8[8:1]/7,6,5<2[4:1],,
{8}2qq6[2:1],,3,3,,4,4,,
{8}5-1[8:1]/8,7,6-1[8:1],,3-1[8:1],,4-1[8:1],,
{8}2>6[4:1],,1,7h[8:9],,8,2<4[2:1],,
{8},,,,,,8,7,
{16}1,2,3,4,1,8,7,6,1,2,3,4,5,6,7,8,
{4}1/5-2[8:1],5-8[8:1]/7,3/5,1,
{4}8<5[4:1],5>2[4:1],2<7[4:1],7<7[4:3],
{1}4h[4:3],
{4}6z2[4:1],8,1w5[8:1],,
{16}7,,7,,4,,4,,E1,B8,B7,E7,4,,3,,
{8},8,1<6[4:1],2h[8:3],,,,,
{4}4/5,2/3,1/8,6/7,
{16}1x,2,3,4,5,6,7,8,1x/5x,4,3,2,1,8,7,6,
{4}4x/5xh[2:1],7,4h[2:1],2,
{16}E8,B8,B1,E2,E6,B5,B4,E4,E8,B8,B1,E2,E6,B5,B4,E4,
{8}6h[4:1],,5,,4/7,4-1[8:1]/7,,,
{16}E1,E8,E7,E6,E5,E4,E3,E2,C1xh[4:1],,,,8b,,,,
{4}2-6[8:1],8-4[8:1],1-4[8:1]*-6[8:1],1,
{8}5h[4:1],,4-8[4:1],4h[8:3],,,,,
{8}2pp6[2:1]/5,,1,,8,,7,7,
{16}1x,2,3,4,5,6,7,8,1w5[8:1],,,,,,,,
{8}3,8,3,7,3,6,3,5,
{4}4-8[8:1],3-8[8:1],5-8[8:1],,
{8}4,3,1/2,8,7,6,4/5,3,
{2}1-3[8:1]*-5[8:1]/2,7/8-4[8:1]*-6[8:1],
{8}1/3,,4,4h[4:1],,6,5,6,
{8},4/7,4h[4:1]/7-2[8:1],,,,C1,,
{16}1,8,1,8,2,7,2,7,3,6,3,6,4,5,4,5,
{8}3x,1x/2x,,6x,7x/8x,,1b/8b,2b/7b,
{1},
{1},
{1},
{1},
{1}2h[1:1],
{1}7h[1:1],
{1}C1hf[2:1],
{12}7,8,6,2,1,3,7,6,5,4,3,2,
{8}5b-8[8:1],4,3,,1-4[8:1],8,7,,
{16}6,5,6,5,7,4,7,4,8-4[8:1],,8,,1,,,,
{8}2-5[8:1],1,8,,7-4[8:1],8,1,,
{16}3,4,3,4,2,5,2,5,1-5[8:1],,1,,8,,,,
{8}4-1[8:1],5,6,,8-3[8:1],7,6,,
{8}4-1[8:1],5,6,,8-3[8:1],7,6,,
{16}4,,5,,6/8,,1,,2/7,,2,,8,1,8,1,
{12}7b,5,6,2,4,3,8,7,6,5,4,3,
{8}8-5[8:1],1,2h[4:1],,4-1[8:1],5,6h[4:1],,
{8}8-3[8:1],7,6h[4:1],,4-7[8:1],3,2h[4:1],,
{8}1-4[8:1],8,7,6,5-8[8:1],4,3,2,
{48}1/3,,,,,,1/3,,,,,,8,,,7,,,6,,,5,,,1x,,2x,,3x,,4x,,5x,,6x,,7x,,8x,,1x,,2x,,3x,,4x,,
{4}8x-4[8:1],3-1[8:1]/8,3/7-5[8:1],4/7,
{16}4x,5,3,6,2,7,1,8,1,2,3,4,8,7,6,5,
{16}1,,1,,2/8,,7,,5/6,,4,,5,6,7,8,
{24}1x/2x,,,,,,7x/8x,,,,,,1b/8b,2x/7x,3x/6x,4x/5x,,,,,,,,,
{16}7<4[8:1],8,7,,1-5[8:1],,1,,6-8[8:1],,6,,3,,3,,
{16}2>5[8:1],1,2,,8-4[8:1],,8,,1-3[8:1],,1,,6,,6,,
{16}7<4[8:1],8,7,,1-5[8:1],,1,,6-8[8:1],,6,,3,,3,,
{16}2>5[8:1],1,2,,8-4[8:1],,8,,1-3[8:1],,1,,6,,6,,
{16}7>2[8:1],4,7,,5-1[8:1],,5,,8-6[8:1],,8,,3,,3,,
{16}2<7[8:1],5,2,,4-8[8:1],,4,,1-3[8:1],,1,,6,,6,,
{16}7>2[8:1],4,7,,5-1[8:1],,5,,8-6[8:1],,8,,3,,3,,
{16}2,5,2,,8,,7,,1x-5[8:1],2x,3x,4x,1b,,,,
{16}3,4,3,4,3-6[8:1],,3,,8-4[8:1],,8,,1,,2,,
{16}5,3,5,3,6-3[8:1],,6,,1-5[8:1],,1,,8,,7,,
{16}4,6,4,6,3-6[8:1],,3,,8-4[8:1],,8,,1,,2,,
{16}5,3,5,3,6-3[8:1],,6,,1-5[8:1],,1,,8,,7,,
{16}4x,6,4,6,3,5,3,5,2-5[8:1],,1,,8,,7,,
{16}4x,6,4,6,3,5,3,5,2-5[8:1],,1,,8,,7,,
{16}4x,6,4,6,3,5,3,5,2x,1x,8x,7x,6x,5x,4x,3x,
{8}1,2/8,,5,4/6,,1b/8b,2b/7b,
{1},
{1},
{1},
E
