&title=グッバイ宣言
&wholebpm=170
&artist=Chinozo
&des=はっぴー
&shortid=11353
&genre=niconicoボーカロイド
&cabinet=DX
&version=maimai DX UNiVERSE
&chartconverter=Neskol
&lv_2=2
&des_2=
&lv_3=7
&des_3=
&lv_4=9+
&des_4=Jack
&lv_5=12+
&des_5=はっぴー
&des_6=
&inote_2=
(170){1},
{1},
{1}1,
{1}1,
{1}1,
{1},
{1}8,
{1}8,
{1}8,
{1},
{1}1h[4:3],
{1},
{1}2h[4:3],
{1},
{1}3h[4:3],
{1},
{1}4h[4:3]/5h[4:3],
{1},
{1}5,
{1}5,
{1}6,
{1}6,
{1}7,
{1}7,
{1}1xh[8:7]/8xh[8:7],
{1},
{2}8b,8,
{1}8,
{2}7,7,
{1}7,
{2}6,6,
{1}6,
{2}5,5,
{1}4/5,
{2}4,4,
{1}4,
{2}3,3,
{1}3,
{2}2,2,
{1}2,
{2}1,1,
{1}1x/8x,
{2}1,1,
{1}1/2,
{2}8,8,
{1}7/8,
{2}1,1,
{1}1/8,
{1}1h[1:1]/8h[1:1],
{1},
{1}1-4[4:3],
{1},
{1}8-5[4:3],
{1},
{1}1-5[4:3],
{1},
{1}8-4[4:3],
{1},
{1}B2,
{1}B3,
{1}B4,
{1}B5,
{1}B6,
{1}C1hf[1:1],
{1},
{1}1x/8x,
{2}8b,8,
{2}7,7,
{2}6,6,
{1}4/5,
{2}4,4,
{2}3,3,
{2}2,2,
{1}1/8,
{2}1,1,
{2}2,2,
{2}3,3,
{2}4/5,4/5,
{2}5,5,
{2}6,6,
{2}7,7,
{1}1b/8b,
{2}7,7,
{1}7/8,
{2}6,6,
{1}5/6,
{2}3,3,
{1}3/4,
{1}4h[1:1]/5h[1:1],
{1},
{1},
{1},
E
&inote_3=
(170){1},
{1},
{4}3,3,4,4,
{4}5,5,4/6,,
{4}7,7,8,8,
{4}1,1,1/8,,
{4}2,2,1,1,
{4}8,8,1/7,,
{4}6,6,5,5,
{4}4,4,3/5,,
{2}6h[2:1],5,
{2}3h[2:1],4,
{2}6h[2:1],5,
{2}3h[4:1]/4h[4:1],3/4,
{4}6,6,5/6,,
{4}3,3,3/4,,
{4}5,5,4,4,
{4}5,4,3/6,,
{1}2>5[2:1],
{4}6,6,5/6,,
{1}7<4[2:1],
{4}3,3,3/4,,
{4}6,6,5/6,,
{4}3,3,3/4,,
{4}6,6,5,5,
{4}4x/5x,4x/5x,3x/6x,,
{4}2,2,1/2,1/2,
{4}7,7,7/8,7/8,
{4}6,6,5,5,
{4}4,4,3/5,,
{4}6,6,5/6,5/6,
{4}3,3,3/4,3/4,
{4}2,2,1,1,
{4}8,8,1/7,,
{4}7,7,7/8,7/8,
{4}2,2,1/2,1/2,
{4}3,3,4,4,
{4}5,5,4/6,,
{4}3,3,3/4,3/4,
{4}6,6,5/6,5/6,
{4}7,7,8,8,
{4}1/8,1/8,2b/7b,,
{1}3-8[2:1],
{4}7,7,7/8,,
{1}6-1[2:1],
{4}2,2,1/2,,
{1}2-5[2:1],
{4}6,6,5/6,,
{2}7x/8x,1x/2x,
{1}C1f/B3/B6,
{1}7h[1:1],
{1}8h[1:1],
{1}1h[1:1],
{1}2,
{1}3h[1:1],
{1}4h[1:1],
{1}5h[1:1],
{1}6,
{1}7p3[2:1],
{1}2>5[2:1],
{1}6<1[2:1],
{4}2,2,1,1,
{8}1/8h[8:5],,,,,1x,,1>4[2:1]/8<5[2:1],
{8},,,,,,,C1f,
{1},
{1},
{4}7,7/8,7,7/8,
{4}2,1/2,2,1/2,
{4}3,3,4,4,
{4}5,5,4/6,,
{4}3,3/4,3,3/4,
{4}6,5/6,6,5/6,
{4}7,7,8,8,
{4}1,1,2/8,,
{4}2,1/2,2,1/2,
{4}7,7/8,7,7/8,
{4}6,6,5,5,
{4}4,4,3/5,,
{4}6,5/6,6,5/6,
{4}3,3/4,3,3/4,
{4}2,2,1,1,
{4}1/8,1/8,2b/7b,,
{1}6<1[2:1],
{4}2,2,1/2,,
{1}3>8[2:1],
{4}7,7,7/8,,
{4}1,2,3,4,
{4}5,6,7,8,
{2}1x/2x,7x/8x,
{1}C1,
{1},
{1},
{1},
E
&inote_4=
(170){1},
{4}C1,E3/E7,,,
{8}3/4,,2,2,,,5/6,,
{8}7,7,,,3/4,,4/5,,
{8}5/6,,7,7,,,3/4,,
{8}2,2,,,5/6,,4/5,,
{8}3/4,,1,1,,,5/6,,
{8}8,8,,,4/5,,3/6,,
{8}2/7,,1/8,1/8,,,4qq4[2:1]/5pp5[2:1],,
{1},
{4}3/6h[2:1],3,3,3/5h[2:1],
{4}3,3,3/4,5/6,
{4}3/4h[2:1],3,3>8[4:1],,
{4},5/6,4/5,3/4,
{2}2>5[4:1],6<1[4:1],
{4}2h[2:1],,4,5,
{4}6h[4:1],5h[4:1],4h[4:1],3h[4:1],
{8}4,,5,5,4,,2x/7x,,
{8}1h[4:1],,,2h[4:1]/8h[4:1],,,3/7,,
{8}6,,B5,,3,3,B4,,
{8}8h[4:1],,,1h[4:1]/7h[4:1],,,2/6,,
{8}3,,B4,,6,6,B5,,
{4}1h[4:1],8,7h[4:1],5,
{8}2h[4:1],,4,,5h[4:1],,4,4x/5x,
{8},2h[4:1],,1h[4:1],,8h[4:1],,7x,
{8},1x/2x,,1/8,1b/8b,,,,
{8}2x/7x,,3/8,,1/6,,7,7,
{8},5/6,,2,,3/4,,5/7,
{8}5h[4:1]/7h[4:1],,,2/4,2h[4:1]/4h[4:1],,,5/7,
{8}5h[4:1]/7,,4h[4:1],,2,2x,1x,,
{8}7x/8x,,5/6,,3/4,,2,2,
{8},3/4,,7,,5/6,,2/4,
{8}2h[4:1]/4h[4:1],,,5/7,5/7-3[8:1],,,,
{8}2,,8,8,1x,,2b/7b,,
{8}4x/5x,,1/6,,3/8,,1,1,
{8},3/4,,8,,5/6,,2/4,
{8}2h[4:1]/4h[4:1],,,5/7,5h[4:1]/7h[4:1],,,2/4,
{8}2/4h[4:1],,5h[4:1],,7,7x,8x,,
{8}1x/2x,,3/4,,5/6,,8,8,
{8},5/6,,1,,3/4,,5/7,
{8}5h[4:1]/7h[4:1],,,2/4,2-6[8:1]/4,,,,
{8}7,,1,1,8-4[8:1],,1b,,
{8}2h[4:1],,3,3h[4:1],,4,4,,
{8}5/6,,4/7,,3,4,2/5,,
{8}7h[4:1],,6,6h[4:1],,5,5,,
{8}3/4,,2/5,,6,5,4/7,,
{8}8h[4:1],,1,1h[4:1],,8,8,,
{8}4/5,,3/6,,1,8,2/7,,
{4}E4/E6,C1,B7/E8,B2/E2,
{8}C1,,,,4,4,5,5,
{1}4q5[4:3],
{4},,4/5,3/6,
{8}2h[8:3]/7,,,4h[8:3],,,5h[8:3],,
{8},7h[8:3],,,3,,2qq2[4:3]/6qq6[4:3],,
{1},
{16}7h[16:3],,,6h[16:3],,,5,,2h[16:3],,,3h[16:3],,,4,,
{8}5h[8:3],,,4h[8:3],,,5,,
{8}4,4,6,6,2,2,8b,,
{4}1,1,1-3[8:1],8,
{4}7,7,7-5[8:1],4,
{4}3,3,3-5[8:1],6,
{8}7,,8,,1h[4:1],,8,1/8,
{8},2/7,,3/6,,4/5,,1/2,
{8},7/8,,4/5,4/5,,,E3,
{8},E7,,B4,B5,,,,
{8}4x,,6x,,2x,2x,8x,8x,
{8}1b,,5/7,,2/4,,8,8h[4:1],
{8},6h[4:1],,4h[4:1],,2,,1/3,
{8}1h[4:1]/3h[4:1],,,6/8,6h[4:1]/8h[4:1],,,1/3,
{8}1/3,,3/5,,5/7,8x,8x,,
{8}1x/6x,,3/8,,5/6,,2,2h[4:1],
{8},1h[4:1],,8h[4:1],,7,,1/6,
{8}1h[4:1]/6h[4:1],,,3/8,3/8-4[8:1],,,,
{8}3,,1,1,3x/7x,,2b/6b,,
{8}3x/5x,,4/7,,1/5,,2,2h[4:1],
{8},1,,7/8,6x,5x,4x,3x,
{4}2xh[4:1],8xh[4:1],6xh[4:1],4x>5[8:5],
{4},,,1b,
{8}2x/7x,,3/8,,1/6,,7,7h[4:1],
{8},8h[4:1],,1h[4:1],,2,,3/8,
{8}3h[4:1]/8h[4:1],,,1/6,1/6>3[8:1],,,,
{8}2,,8,8,1-5[8:1],,8b,,
{8}6h[4:1],,7,7h[4:1],,8,8,,
{8}1/2,,3/8,,7,8,1/6,,
{8}3h[4:1],,2,2h[4:1],,1,1,,
{8}7/8,,1/6,,2,1,3/8,,
{4}7-5[8:1],2,2-4[8:1],8,
{4}8-6[8:1],1,1-3[8:1],8,
{4}4xh[4:1]/5x,E7,4x/5xh[4:1],E3,
{1}1/8,
{1},
{1},
{1},
E
&inote_5=
(170){1},
{8}1b,,2b>5[8:1],,6,6,7,8,
{8}1,1,4,2h[4:1]/5,,7,8,8,
{8}5,4/7h[4:1],,2,2>5[8:1],8,8h[4:1],,
{8}5,5,4/6,3/7,2,1,2/8,3/7,
{8}6,5,4/6,3/7,2>5[8:1]/8<5[8:1],,,,
{8}6,6,5,4/7h[4:1],,2,1,1,
{8}4,2h[4:1]/5,,7,7<4[8:1],1,1h[4:1],,
{8}4,4,3/5,2/6,7,8,1/7,2/6,
{8}3,4,5,4h[4:1]/5,,6,7V53[4:1],,
{8}2,,1,1,8,,1-4[8:1]/7,,
{8}7,6,6,,5h[8:1]/7h[8:1],,5h[8:1]/7h[8:1],,
{8}4/8V64[4:1],,3,3,2-6[8:1],,7,,
{8}8,8,1-4[8:1]/7-4[8:1],,,,2qq7[2:1],,
{4},6xqq3[2:1],,1,
{4}1h[2:3],,5,5,
{4}4,2,8,4/7h[4:1],
{4}6h[4:1],2h[2:1],8h[4:1],,
{8}2>5[8:1],,,7>2[8:1],,,4h[4:1],,
{8}6,6,5,,4-1[8:1],,5,,
{8}7<4[8:1],,,2<7[8:1],,,5h[4:1],,
{8}2,2,3qq4[8:3]/4,,6,7x,7x,,
{16}8h[16:3],,,6h[16:3],,,5,,1h[16:3],,,3h[16:3],,,4,,
{8}2/5,,1x,8x,7x-3[8:1],,4,4-1[8:1],
{8},5h[4:1],,1x,1x,,3/7,2<7[8:1],
{8},6q3[8:1],,5,5,8x,8x,,
{8}1V75[8:1]*V35[8:1],,,,3-8[8:1]/7h[4:1],,3,6>3[8:1],
{8},1,1<6[8:1],,1>4[8:1],,1-5[8:1],,
{8}1,,4/6,3/7,3/7,,2-4[8:1],,
{8}2/8-6[8:1],,1-5[8:1]/8,,1/7,8x,8x,,
{8}1<6[8:1]/6-4[8:1],,1/6pp2[8:3],,2x,,4,4h[4:1],
{8},3,3-7[8:1],,5-1[8:1],,4-8[8:1],,
{8}6,,1,1,2/8,,4/7h[4:1],,
{4}6h[4:1],2h[2:1],8h[4:1],,
{8}8V64[8:1]*V24[8:1],,,,2h[4:1]/6-1[8:1],,6,3<6[8:1],
{8},8,8>3[8:1],,8<5[8:1],,8-4[8:1],,
{8}8,,3/5,2/6,2/6,,7-5[8:1],,
{8}1-3[8:1]/7,,1/8-4[8:1],,2/8,1x,1x,,
{8}3-5[8:1]/8>3[8:1],,3qq7[8:3]/8,,7x,,5,5h[4:1],
{8},6,6-2[8:1],,4-8[8:1],,5-1[8:1],,
{8}3,,8,8,1/7,,4/6,,
{8}2>5[8:1]/8<5[8:1],1,,,3b/7b,8x,1x,,
{8}2<7[8:1],,4,5>2[8:1],,7,8-4[8:1],,
{8}1,1,5,5,4-1[8:1],4,6,6,
{8}7>2[8:1],,5,4<7[8:1],,2,1-5[8:1],,
{8}8,8,4-1[8:1],4-7[8:1],,,1,,
{8}2<7[8:1],,4,5>2[8:1],,7,8-4[8:1],,
{8}1,1,5,5,3,3,3/4,,
{4}2/5,4/7h[4:1],6h[4:1],2h[4:1],
{8}8,,,,6x,5x,4x,3x,
{4}2>7[4:3],8h[1:1],,,
{16},,,,5,,,,7h[16:3],,,6h[16:3],,,5,,
{8}5<8[8:1],,3,3h[4:1],,4,2/5,,
{16}2/5,,3,4,3,4,2,,6,5,6,5,7<2[4:3],4,7,,
{1}1h[4:3],
{16}4,,,2/8,,,4/6,,8,,,1/7,,,3/5,,
{16}6,,,5/7,,,4/8,,4/8-4[8:1],,,,3xh[4:1],,,,
{16}6,,4,5,4,,3/6,,3/6,,2/7,,1-4[8:1]/8-5[8:1],,,,
{4},3/6h[4:1],8h[4:1],2h[4:1],
{8}4,4,6,6h[4:1],,5-1[8:1],,8<5[8:1],
{8},1,1,2,3/6,4V61[4:1]/5V38[4:1],,,
{8},,,1x/8x,1x/8x,,2/6,3<6[8:1]/7>2[8:1],
{8},,,1<6[8:1]/5>2[8:1],,,,3-6[8:1]/7-2[8:1],
{8},3/7,,4/8,4/8h[4:5],,,5-1[8:1],
{8},,,1x,1xh[4:1],,,,
{8}B3/E3/E4,,B6/E6/E7,,4x,3x/5x,2x/6x,1x/7x,
{8}8V64[8:1]*V24[8:1],,,,2h[4:1]/6-1[8:1],,6,3<6[8:1],
{8},8,8>3[8:1],,8<5[8:1],,8-4[8:1],,
{8}8,,3/5,2/6,2/6,,7-5[8:1],,
{8}1-3[8:1]/7,,1/8-4[8:1],,2/8,1x,1x,,
{8}3-5[8:1]/8>3[8:1],,3qq7[8:3]/8,,7x,,5,5h[4:1],
{8},6,6-2[8:1],,4-8[8:1],,5-1[8:1],,
{8}3,,8,1/7,2/6,,4/7h[4:1],,
{4}6h[4:1],2h[2:1],8h[4:1],,
{8}1V75[8:1]*V35[8:1],,,,3-8[8:1]/7h[4:1],,3,6-2[8:1],
{8},4,4>1[8:1],,4b<7[8:1],,4b-8[8:1],,
{8}4b,,3/5,2/6,2/6,,1-3[8:1],,
{8}1/5qq8[2:1],,C1f/5,,,1x,1x,,
{8}1<6[8:1]/6-4[8:1],,1/6pp2[8:3],,2x,,4,4h[4:1],
{8},3,3-7[8:1],,5-1[8:1],,4-8[8:1],,
{8}6,,1,1,2/8,,3/5,,
{8}1>4[8:1]/7<4[8:1],8,,,2b/6b,1x,8x,,
{8}7>2[8:1],,5,4<7[8:1],,2,1-5[8:1],,
{8}8,8,4,4,5-8[8:1],5,3,3,
{8}2<7[8:1],,4,5>2[8:1],,7,8h[4:1],,
{8}3,3,5-7[8:1],4-2[8:1],5-8[8:1],4-1[8:1],5,4,
{4}7-2[8:1],3-6[8:1]/7,3/8-5[8:1],4-1[8:1]/8,
{8}4/5-8[8:1],,4v5[4:1]/5,3,8,8,7,,
{4}3/6,4/7h[4:1],6h[4:1],2h[4:1],
{1}8b,
{1},
{1},
{1},
E
