&title=アイドル新鋭隊
&wholebpm=176
&artist=Mitchie M / 初音ミク / MORE MORE JUMP!「プロジェクトセカイ カラフルステージ! feat. 初音ミク」
&des=シチミヘルツ
&shortid=11371
&genre=niconicoボーカロイド
&cabinet=DX
&version=maimai DX UNiVERSE
&chartconverter=Neskol
&lv_2=2
&des_2=
&lv_3=7
&des_3=
&lv_4=9+
&des_4=隅田川星人
&lv_5=12
&des_5=シチミヘルツ
&des_6=
&inote_2=
(176){1},
{1},
{1},
{1}1,
{1}1,
{1}8,
{1}8,
{4}1x,1x,,,
{1}2,
{1}2,
{1}2,
{4}3x,3x,,,
{1}4,
{1}4,
{1}4/5,
{1}5,
{1}5,
{1}6,
{1}6,
{1}7,
{1}7,
{1}1x/8x,
{1}1b/8b,
{1}7h[1:1]/8h[1:1],
{1},
{1}1h[1:1]/2h[1:1],
{1},
{1}8,
{1}7,
{1}6,
{1}4/5,
{1}4,
{1}3,
{1}2,
{1}1/8,
{1}1-4[4:3],
{1},
{1}8-5[4:3],
{1},
{1}1-5[4:3],
{1},
{1}8x,
{1}8b,
{2}1,1,
{1}1,
{2}2,2,
{1}2,
{2}3,3,
{1}3,
{2}4,4,
{1}4/5,
{1}B5,
{1}B4,
{1}B6,
{1}B3,
{1}B7,
{1}B2,
{1}C1hf[1:1],
{1},
{4}8x,8x,,,
{1}7,
{2}6,6,
{1}4/5,
{4}4x,4x,,,
{1}3,
{2}2,2,
{1}1/8,
{2}1,1,
{1}1/2,
{2}3,3,
{1}3/4,
{2}5,5,
{2}6,6,
{2}7,7,
{4}8,,1x/8x,1x/8x,
{1},
{1},
{1},
E
&inote_3=
(176){1},
{1},
{1},
{4}4/5,4/5,,,
{4}3/6,3/6,,,
{4}2/7,2/7,,,
{4}1/8,1/8,,,
{4}2/7,1b/8b,,,
{4}8x,8x,1x/8x,,
{4}2,1/2,7,7/8,
{4}2,1/8,2/7,,
{4}1/8,1b/8b,,,
{4}2,2,1x/2x,,
{4}7,7/8,2,1/2,
{4}7,1/8,2/7,,
{1}6<1[8:3],
{1}2>5[8:3],
{1}6<1[8:3],
{4}2,1,8,7,
{4}1/8,2/7,3/6,4-1[2:1]/5-8[2:1],
{1},
{4}8x,7x,6x,5x,
{4}4/5,3/6,2/7,1b/8b,
{4}2,2,1,1,
{4}8,8,1/7,,
{4}6,6,5,5,
{4}4x/5x,4x/5x,3x/6x,,
{2}7h[2:1],8,
{2}2h[2:1],1,
{2}7h[2:1],8h[2:1],
{2}1h[2:1],2x,
{2}3h[2:1],4,
{2}6h[2:1],5,
{2}3h[2:1],4h[2:1],
{2}5h[2:1],6,
{1}B7/B8,
{1}B1/B2,
{1}B3/B4,
{1}B5/B6,
{4}3,3,3/4,,
{4}6,6,5/6,,
{4}4,4,5,4-1[2:1]/5-8[2:1],
{1},
{2}2h[2:1],1h[2:1],
{2}8h[2:1],7,
{4}2,2,1,,
{4}7,7,8,,
{2}6h[2:1],5h[2:1],
{2}4h[2:1],3,
{4}6,6,5,,
{4}4,4,3/5,,
{1}6<1[8:3],
{1}2q6[8:3],
{1}7p3[8:3],
{1}2>5[8:3],
{4}6,6,5/6,,
{4}3,3,3/4,,
{1}4-1[8:3]/5-8[8:3],
{1}1b/8b,
{4},C1f,,,
{4}1x,1x,1x/8x,,
{4}7,7/8,2,1/2,
{4}7,1/8,2/7,,
{4}1/8,1b/8b,,,
{4}7,7,7x/8x,,
{4}2,1/2,7,7/8,
{4}2,1/8,2/7,,
{1}3>8[8:3],
{1}7<4[8:3],
{1}3>8[8:3],
{4}7,8,1,2,
{4}1/8,2/7,3/6,4-1[2:1]/5-8[2:1],
{1},
{4}1x,2x,3x,4x,
{4}4/5,3/6,2/7,1b/8b,
{1},
{1},
{1},
E
&inote_4=
(176){1},
{1},
{1},
{8}1/7,,2/8h[8:3],,,1x,1x,,
{8}2/8,,1h[8:3]/7,,,8x,8x,,
{8}1/7,,2/8h[8:3],,,1x,1x,,
{4}2/8,1h[4:1]/7h[4:1],,2/6,
{1}4-1[8:1]/5-8[8:1],
{4}4/6,3q7[16:3]/5,,,
{4}8x,5/7,1,2/4>7[16:5],
{8},,,,,1,1,,
{1}4-8[8:1]/5-1[8:1],
{4}4/5,3qq2[16:5]/6pp7[16:5],,,
{4}3x,2/4,5/7,6,
{8}1h[8:3]/4h[8:3],,,,,2/5,2/5,,
{8}3xh[1:1],,4,4,,6,6,,
{8}7xh[4:3],,5,5,,3,3,,
{8}1xh[4:3],,4,4,,6,6,,
{8}2/7,,3/6,,4/5,,1/8,1xh[4:1]/8xh[4:1],
{8},,5/7,,2/4,,1/8,1/8,
{8},3/6,3/6,,2/7,,3/6,3qq5[16:9]/6pp4[16:9],
{1},
{4}4/6,3h[4:1]/5h[4:1],,1b/8b,
{4}6h[2:1],8x,5h[2:1],8x,
{4}6h[2:1],8x,5h[2:1],8x,
{4}4h[2:1],1x,3h[4:1],1x,
{8}2/8,2/8,,3b/7b,,,4/5,,
{4}6,5/7,4,3/5,
{4}6,5/7,4,3/5,
{4}B6/E6,B8/E8,B3/E4,B1/E2,
{4}B4/B5,E3/E7,E2/E8,,
{4}3x,2/4,5,4/6,
{4}3,2/4,5,4/6,
{2}3<6[16:3],7p3[16:3],
{4}2<7[16:3],,,4x/5x,
{4}3>8[4:1],,,7x,
{4}7<4[4:1],,,3x,
{4}3>8[4:1],,,7x,
{4}7<4[4:1],,,3x,
{4}3/4,5-8[4:1]/6,,,
{4}5/6,3/4-1[4:1],,,
{4}7,4/6,2,3/5,
{4}2b/6b,,,1/8,
{4}6,5/7,4,3/5,
{4}6,5/7,4,3/5,
{4}6h[4:1],7h[4:1],8h[4:1],1,
{4}3h[4:1],2h[4:1],1,,
{4}3,2/4,5,4/6,
{4}3,2/4,5,4/6,
{4}E7,E8,E1,E2,
{4}E3,E4,E5,,
{4}7>2[4:1],,,3x,
{4}3<6[4:1],,,7x,
{4}7>2[4:1],,,3x,
{4}3<6[4:1],,,7x,
{4}6h[4:1],5h[4:1],4h[4:1],3h[4:1],
{4}2h[4:1],1h[4:1],8h[4:1],5>2[4:1]*<8[4:1],
{4},,,1,
{1}C1f/B3/B7,
{1}4-1[8:1]/5-8[8:1],
{4}4/6,3q7[16:3]/5,,,
{4}8x,5/7,1,2/4>7[16:5],
{8},,,,,3/7,3/7,,
{1}4-8[8:1]/5-1[8:1],
{4}4/5,3qq2[16:5]/6pp7[16:5],,,
{4}3x,2/4,6,5p1[4:1]/7,
{8},,,,,2/6,2/6,,
{8}3xh[1:1],,4,4,,6,6,,
{8}7xh[4:3],,5,5,,3,3,,
{8}1xh[4:3],,4,4,,6,6,,
{8}2/7,,3/6,,4/5,,1/8,1xh[4:1]/8xh[4:1],
{8},,5/7,,2/4,,1/8,1/8,
{8},3/6,3/6,,2/7,,3/6,3qq5[16:9]/6pp4[16:9],
{1},
{4}2h[8:1]/6h[8:1],3h[8:1]/7h[8:1],4/6,1b/5b,
{1},
{1},
{1},
E
&inote_5=
(176){1},
{1},
{1},
{8}4h[8:1]/6h[8:1],,3h[8:1]/5h[8:1],,,1b,1b,,
{8}4h[8:1]/6h[8:1],,3h[8:1]/5h[8:1],,,1b,1b,,
{8}4h[8:1]/6h[8:1],,3h[8:1]/5h[8:1],,,1b,1b,,
{4}4/6<3[8:3],1b,,,
{8}4-1[8:1]/5-8[8:1],,4b/5b,,,2x/7x,2x/7x,,
{8}3q8[8:1]/4<7[8:1],,,,1x,1x,2/8,,
{2}5>2[8:1]/6p1[8:1],3q8[8:1]/4<7[8:1],
{4}6-3[8:1],2-7[8:1],6-3[8:1],1,
{8}4-1[8:1]/5-8[8:1],,4b/5b,,,2x/7x,2x/7x,,
{8}3q8[8:1]/4<7[8:1],,,,1x,1x,2/8,,
{2}5>2[8:1]/6p1[8:1],3q8[8:1]/4<7[8:1],
{4}1-4[8:1],7-3[8:1],5-8[8:1],1b,
{4}4V25[8:3]/6V85[8:3],,,1/8,
{4}3V14[8:3]/5V74[8:3],,,1/8,
{4}1-4[4:1]/6>4[4:1],,,1/8,
{8}2/7,,1-6[8:1]/6-4[8:1],,1x/6x,,3x/8x,3x/8-4[8:1],
{8},2,2-5[8:1],,1h[4:1],,8b,,
{4}2-5[8:1],7-4[8:1],8h[4:1],1b,
{4}3h[8:1]/8h[8:1],1h[8:1]/8h[8:1],2h[8:1]/7h[8:1],1h[8:1]/3h[8:1],
{8}3/6,3/6,2/7,2/7,4-1[8:1]/5-8[8:1],,4b/5b,,
{4},2h[4:1]/7,4h[2:1],1,
{4}5h[2:1],8,6h[2:1],8,
{4}5h[2:1],8,4h[4:1],1,
{8}2/8,3/7,,1/5,,,,,
{4}4b/6b,1b,3b/5b,8b,
{4}4b/6b,1b,3b/5b,8b,
{4}4/6-8[8:1],5,4/6-8[8:1],5,
{8}5/6,5q4[4:1]/6<3[4:1],,,,,,,
{4}7-4[8:1],2-7[8:1],4-1[8:1],,
{4}7-4[8:1],2-7[8:1],4-1[8:1],,
{4}6-3[8:1],3<6[8:1],1,8,
{8}3/4,3>6[4:1]/4p5[4:1],,,,,,,
{8}3q5[4:1],,,8x,8x-4[8:1],,8b,,
{8}3q5[4:1],,,8x,8x-4[8:1],,8b,,
{8}3q5[4:1],,,8x,8x-4[8:1],,8b,,
{8}3q5[4:1],,,8x,8x-4[8:1],,8b,,
{4}5-7[8:1],4-2[8:1],5-8[8:1],4-1[8:1],
{4}5-7[8:1],4-2[8:1],5-8[8:1],1,
{8}1/7,2/8,1h[8:1]/7h[8:1],,2/8,1/7,2/8,,
{8}C1f/B5/1b,,,,,8,1,,
{8}3,3h[8:3],1,,6,6h[8:3],8,,
{8}1,1h[8:3],3,,8,8h[8:3],6,,
{4}2-7[8:1],6,2-7[8:1]/5,6,
{8}3/4,3>6[4:1]/4p5[4:1],,,,,,,
{4}3<6[8:1],E5,7>2[8:1],E1,
{4}3<6[8:1],E5,7>2[8:1],E1,
{4}3h[8:1],1h[8:1]/7h[8:1],3h[8:1]/4h[8:1],1h[8:1]/7h[8:1],
{8}5/6,5q4[4:1]/6<3[4:1],,,,,,,
{8}6p4[4:1],,,1x,1x-5[8:1],,1b,,
{8}6p4[4:1],,,1x,1x-5[8:1],,1b,,
{8}6p4[4:1],,,1x,1x-5[8:1],,1b,,
{8}6p4[4:1],,,1x,1x-5[8:1],,1b,,
{4}7<4[8:1],8v3[8:1],7<4[8:1],8v3[8:1],
{4}7<4[8:1],8v3[8:1],7,5w1[8:3],
{4},,,1/6,
{8}4/8b,,,2/7,,1/8,2/7,3/6,
{8}4-1[8:1]/5-8[8:1],,4b/5b,,,2x/7x,2x/7x,,
{8}3>8[8:1]/6q4[8:1],,,,1x,1x,2/8,,
{2}3p5[8:1]/6<1[8:1],3>8[8:1]/6q4[8:1],
{4}6-3[8:1],2-7[8:1],6-3[8:1],1,
{8}4-1[8:1]/5-8[8:1],,4b/5b,,,2x/7x,2x/7x,,
{8}2q8[8:1]/7<4[8:1],,,,1x,1x,2/8,,
{2}2>5[8:1]/7p1[8:1],2q8[8:1]/7<4[8:1],
{4}1x-4[8:1],7-3[8:1],5-8[8:1],1b,
{4}4V25[8:3]/6V85[8:3],,,1/8,
{4}3V14[8:3]/5V74[8:3],,,1/8,
{4}1-4[4:1]/6>4[4:1],,,1/8,
{8}2/7,,1-6[8:1]/6-4[8:1],,1x/6x,,3x/8x,3x/8-4[8:1],
{8},2,2-5[8:1],,1h[4:1],,8b,,
{4}2-5[8:1],7-4[8:1],8h[4:1],1b,
{4}3h[8:1]/8h[8:1],1h[8:1]/8h[8:1],2h[8:1]/7h[8:1],1h[8:1]/3h[8:1],
{16}2/6,,2/6,,3/7,,3/7,,2-5[8:1]/6-1[8:1],,,,2b/6b,C1f,,,
{1},
{1},
{1},
E
