&title=さんさーら!
&wholebpm=140
&artist=ARuFa
&des=サファ太
&shortid=11370
&genre=ゲームバラエティ
&cabinet=DX
&version=maimai DX UNiVERSE
&chartconverter=Neskol
&lv_2=3
&des_2=
&lv_3=6
&des_3=
&lv_4=8+
&des_4=はっぴー
&lv_5=12+
&des_5=サファ太
&des_6=
&inote_2=
(140){1},
{1},
{1}4,
{1}4,
{1}5,
{1}5,
{1}4h[1:1],
{1},
{1}5h[1:1],
{1},
{1}4b/5b,
{1},
{2}5,5,
{1}6,
{2}7,7,
{1}8,
{2}1,1,
{1}2,
{2}3,3,
{1}4/5,
{1}B5,
{1}B4,
{1}B6,
{1}B3,
{1}B7,
{1}B2,
{1}B8,
{1}C1xh[1:1],
{1},
{2}8x,8,
{2}7,7,
{2}6,6,
{1}4/5,
{2}4,4,
{2}3,3,
{2}2,2,
{1}1x/8x,
{2}1,1,
{2}2,2,
{2}3,3,
{2}4/5,4/5,
{2}5,5,
{2}6,6,
{2}7,7,
{2}1x/8x,1x/8x,
{1}8-5[4:3],
{1},
{1}1-4[4:3],
{1},
{1}8-5[4:3],
{1},
{1}4-1[4:3],
{1},
{2}8,8,
{1}8b,
{1},
{1}1h[1:1]/8h[1:1],
{1},
{4}8,8,8,,
{2}7,7,
{4}6,6,6,,
{2}5,5,
{4}4,4,4,,
{2}4/5,4/5,
{4}3,3,3,,
{4}2,2,2,,
{4}1,1,1,,
{4}8,8,1/8,,
{4}2,2,1/2,,
{4}7,7,7/8,,
{4}1,1,1/8,,
{4}1/8,1/8,1x/8x,,
{1}2h[2:1],
{2}2,3,
{1}4h[2:1],
{2}4,4/5,
{1}6h[2:1],
{2}6,7,
{1}8h[2:1],
{4}8,8,8,,
{4}1,1,1,,
{1}1xh[4:3]/8xh[4:3],
{2},2xh[4:3]/7xh[4:3],
{1},
{1}C1f,
{1},
{1},
{1},
E
&inote_3=
(140){1},
{1},
{4}6,6,5/6,,
{4}3,3,3/4,,
{4}6,6,5/6,,
{4}4,4,3/5,,
{4}2,2,1/2,,
{4}7,7,7/8,,
{4}2,2,1/2,,
{4}7,7,8,1,
{1}2>1[4:5],
{1},
{4}2h[2:1],,1,8,
{4}7h[2:1],,8,1,
{4}2h[2:1],,1,1,
{4}8,8,1/7,,
{4}6h[2:1],,5,4,
{4}3h[2:1],,4,5,
{4}6h[2:1],,5,5,
{4}4,4/5,3/6,,
{1}7<4[8:3],
{1}3>8[8:3],
{1}7p3[8:3],
{1}2q6[8:3],
{4}7,7,7/8,,
{4}2,2,1/2,,
{4}7,8,1,2,
{4}3,4,5,6,
{1}4b>1[8:3]/5b<8[8:3],
{4}7,7,7/8,7/8,
{4}6,6,5/6,5/6,
{4}7,7,8,8,
{4}1,1,2,2,
{4}3,3,3/4,3/4,
{4}2,2,1/2,1/2,
{4}3,3,4,4,
{4}5,4/5,3/6,,
{4}2x,2,1/2,1/2,
{4}3,3,3/4,3/4,
{4}2,2,1,1,
{4}8,8,7,7,
{4}6,5/6,3,3/4,
{4}2,1/2,7,7/8,
{4}1/6,2/5,3h[4:1]/4h[4:1],,
{4}6,5,4,3,
{1}2-5[8:3],
{1}6-1[8:3],
{4}E3,B3,B4,,
{4}E7,B6,B5,,
{1}3x-8[8:3],
{1}7-4[8:3],
{4}E3,B2,B1,,
{4}E7,B7,B8,,
{4}E2/E8,B2/B7,B3/B6,E4/E6,
{1}C1hf[2:1],
{1},
{2}7x/8x,1x/2x,
{4}1x/8x,1x/8x,2x/7x,,
{4}6,6,5,5,
{4}4/5,4/5,3/6,,
{4}2,1/2,2,1/2,
{4}7,7/8,7,7/8,
{4}6,6,5,5,
{4}4/5,4/5,3/6,,
{4}2,1/2,2,1/2,
{4}3,3/4,3,3/4,
{4}2,1,8,7,
{4}6,5,4,3,
{4}2,1/2,7,7/8,
{4}6,5/6,3,3/4,
{4}2/5,1/6,7h[4:1]/8h[4:1],,
{4}2,1,8,7,
{1}6-1[8:3],
{1}2-5[8:3],
{4}6,6,5/6,,
{4}3,3,3/4,,
{1}2>5[8:3],
{1}6<1[8:3],
{4}2,2,1/2,,
{4}7,7,7/8,,
{4}6,5,4,3,
{8}2xh[8:3],,,1xh[8:3],,,8xh[8:3],,
{8},7x,,,6xh[8:3],,,5xh[8:3],
{4},6x,5x/6x,,
{1}4b/7b,
{1},
{1},
{1},
E
&inote_4=
(140){1},
{1},
{4}4h[2:1]/6h[1:2],,,5,
{4},5,,5,
{4}3h[4:5],4,,4,
{4},4,5,7,
{4}2h[1:2]/8h[2:1],,,1,
{4},1,,1,
{4}7h[2:3],8,,8,
{4},8,8,1/6,
{8}2h[16:3]/5h[16:3],,,3h[16:3]/6h[16:3],,,4h[16:3]/7h[16:3],,
{8},3h[16:3]/6h[16:3],,,2/5,,2/5,,
{4}1,1,2/8,2/8,
{4}3/7,4/6,5,5,
{4}4,3,3h[4:1],4,
{4}6h[4:1],5,4/7,4/7,
{4}8,8,1/7,1/7,
{4}2/6,3/5,4,4,
{4}5,6,6h[4:1],5,
{4}3h[4:1],4,C1,,
{4}7,7<4[4:1],,,
{4}2,2>5[4:1],,,
{4}5,5<8[4:1],,,
{4}8,8<5[4:1]*>3[4:1],,,
{4}3h[1:1],5,5,5,
{4}6h[1:1],4,4,4,
{8}2,,2,,8,8,1>8[8:5],,
{1},
{16}1x/8x,,,1x/8x,,,2x/7x,,2x/7x,,,,1b,,,,
{8}2x/8x,,3,3,4/5,,6,6h[4:1],
{8},8h[4:1],,1h[4:1],,3h[4:1],,5,
{8},7,7h[4:1],,5h[4:1],,4h[4:1],,
{8}2h[4:1],,8h[4:1],,,1x/7x,1x/7x,1xh[4:1]/7xh[4:1],
{8},,,4/6,4/6,,3,3h[4:1],
{8},1h[4:1],,8h[4:1],,6,,1/5,
{8},2,2h[4:1],,4,,5,,
{4}E5,E4/E6,C1hf[4:1]/B3/B6,,
{8},,,1x,1xh[4:1],,8,8,
{8},3/6,,2/7,,3,3,3/4,
{8},7,7,7/8,,6,6,5/6,
{8},1/2,1/2,3/8,,4/6h[4:1],,1,
{8},3h[4:1]/5,,8,,5h[4:1]/6,,8b,
{8},3h[4:1]/4,,5x,,6,6,5/6,
{8},4w8[8:3],4,,,,,7x,
{4}7xh[4:1],5h[4:1],4h[4:1],2h[4:1],
{2}8b,5h[4:1]/7h[4:1],
{2}2h[4:1]/4h[4:1],5h[4:1]/7h[4:1],
{2}3h[4:1]/5h[4:1],4h[4:1]/6h[4:1],
{4}3/5,3/5,4/6,4/6,
{4}2h[4:1]/4,4,5/7h[4:1],5,
{4}2h[4:1]/4,4,5/7h[4:1],5,
{4}2h[4:1]/8,8,1/7h[4:1],1,
{4}4/6,4/6,3/5,3/5,
{4}4/6,4/6,3/7,3/7,
{16}4x/5x,,,4x/5x,,,3x/6x,,3xh[1:1]/6xh[1:1],,,,,,,,
{4},,,C1f/B4/B5,
{8},,,2/7,2/7,,3,3h[4:1],
{8},1h[4:1],,8h[4:1],,6,,1/5,
{8},2,2h[4:1],,4h[4:1],,5h[4:1],,
{8}7h[4:1],,1h[4:1],,,2x/8x,2x/8x,2xh[4:1]/8xh[4:1],
{8},,,3/5,3/5,,6,6h[4:1],
{8},8h[4:1],,1h[4:1],,3,,4/8,
{8},7,7,,2h[8:1]/6h[8:1],,3h[8:1]/7h[8:1],,
{8}2h[8:1]/6h[8:1],,3/7,,2/8,1b,1b,1b,
{8},3/7,,8x,8xh[4:1],,1,1,
{8},3/4,,2/5,,6,6,5/7,
{8},3,3,2/4,,1/2,1/2,3/8,
{8},7/8,7/8,1/6,,3h[4:1]/5,,8b,
{8},4/6h[4:1],,1b,,3/4h[4:1],,1b,
{8},5h[4:1]/6,,8b,,3,3,3/4,
{8},5w1[8:3],5,,,,,2x,
{4}2xh[4:1],4h[4:1],5h[4:1],7h[4:1],
{4}1b,,3xh[2:3]/5x,5,
{4}4,4,5,4,
{4}6h[4:5],5,5,4,
{4}4,5,3/5,2/6,
{4}1h[4:1]/7h[4:7],,1,1,
{4}8,8,1,2-7[4:1],
{4},6>3[4:1],,2-7[4:1],
{4},6>3[4:1],,2-7[4:1],
{4},6>3[4:1],,1b,
{8}3h[16:3]/8h[16:3],,,2h[16:3]/7h[16:3],,,1h[16:3]/6h[16:3],,
{8},2h[16:3]/7h[16:3],,,3h[16:3]/8h[16:3],,,2h[16:3]/7h[16:3],
{4},1/6,1-5[4:1]/6,,
{1}8b,
{1},
{1},
{1},
E
&inote_5=
(140){1},
{1},
{16}1>4[8:1],,,,6,,7,,8-4[16:1],,,,4x,,,2xh[16:7],
{16},,6xh[4:1],,,,,,1/6,,2/5,,3,4,,2/5h[16:3],
{16},,3v5[8:1],,5,,6,,7h[4:1],,,,5,6,,4h[16:3]/7,
{8},6,6-4[8:1],4,3h[4:1],,E5/E6,,
{16}8<5[8:1],,,,3,,2,,1-5[16:1],,,,5x,,,7xh[16:7],
{16},,3xh[4:1],,,,,,3/8,,4/7,,6,5,,3xh[16:3]/8,
{16},,5,,6,,4/7,,3h[4:1]/8,,,,4,3,,2/5h[16:7],
{8},4,3,2,1xs5[8:1],,1x/8x,,
{16}7xh[16:3],,,5,,,3xh[16:3],,,4,,,7xh[16:3],,,6,
{16},,2xh[16:3],,,3,,,1x-5[8:1],,,,8x,,,,
{4}6h[1:1],5,4,5,
{4}4>2[4:1],5,4,2/5,
{4}3h[1:1]/6,4,5,4,
{4}5<7[4:1],4,5,4/7,
{4}2xh[1:1]/5,4,5,3,
{4}5<7[4:1],4,5>3[4:1],6,
{4}5h[2:1],3,4,2q4[2:1],
{8}4x,4x,5x,5x,5x,,4/6,,
{8}3p6[4:3]/5,,,6,6,,,8,
{8}8p3[4:3],,,2,2,,,1,
{8}1p4[4:3],,,6,6,,,7,
{8}7q4[4:3],,,3,3,,,2,
{4}2h[4:1],3h[4:1],4h[4:1],5,
{4}6h[4:1],5h[4:1],4h[4:1],3h[4:1],
{8}6,6,5,5,4,4,3,3,
{8}3/4,4,2/5,2,1/6,6,7/8,8,
{16}5x/7x,,,2x/4x,,,3x/6x,,2/7,,1b-5[16:1]/8b-4[16:1],,2b/7b,,B1/C1f/B2/B3/B4/B5/B6/B7/B8/1b/8b,,
{8},,2x/7x,1/8,3/4,2/5,5/6,4/7,
{8}3/8-4[8:1],7-3[8:1],8,7,2,1,2/8,3,
{8}3/4,3/4,5-7[8:1],5-3[8:1],5x-8[8:1],5x-1[8:1],5x,5xV73[4:1],
{8},4x,4x,,2,1b-5[16:1]/2b-6[16:1],3b/8b,B1/C1f/B2/B5/B6/1b/2b,
{8},,3x/8x,3/8,4/7,5/6,2/5,3/4,
{8}2/5-1[8:1],6-2[8:1],5,6,3,4,5/6,4/7-3[8:1],
{8},2,1V75[8:1]*V35[8:1],1,1b,,3x/7x,,
{16}2/6,,1,7,2,6,3,5,4,,4b-8[16:1]/5b-1[16:1],,3b/6b,,B1/C1f/B4/B5/B8/4b/5b,,
{8},,2x/7x,3,2/4,6,5/7,3,
{8}5-1[8:1],2>5[8:1],5,2,8,7-4[8:1],6/8,7,
{8}1,2-6[8:1],1/3,2,8-4[8:1],1/7,8,2xh[4:1],
{8},3>8[8:1],4,3x/5x,,7x/8x-4[8:1],1x,2b/8b,
{8},1xpp1[8:1]/5xpp5[8:1],1x/5x,1b/5b,,3xv5[8:1]/7x>3[8:1],3x/7x,3b/7b,
{8},1x-5[8:1]/7x-3[8:1],1x/7x,1b/7b,,2x/6x,2x/6x,1x/7xh[4:1],
{8},8w4[16:1],1/7,C1f,,2/6,2/6,7,
{4}7-2[8:1]/8-5[8:1],7/8>7[8:3],8,,
{4}1b-4[2:1],,8,7,
{4}6-1[2:1],,5,4,
{4}3-6[2:1],,2,1,
{4}8-3[2:1],,7,6,
{4}5-2[2:1],,6,7,
{4}8-5[2:1],,1,2,
{4}3-8[2:1],,4,5,
{8}5,5,6,6,5/7,5/7,4/8,4/8,
{8}3/7,3/7,2/6,2/6,1-4[8:1]/5-8[8:1],,1x/5x,,
{16}3b/7b,,,5b/6b,,,3b/4b,,1h[4:5]/6bp4[4:3],,,,,,,,
{4},,,8b,
{16}3x/6x,,3x/6x,,,,3,4,2,,6,5,7,,5xh[8:1]/6xh[8:1],,
{32},,,,2xh[8:1]/3xh[8:1],,,,,,,,4x/8xh[4:1],,,,,,,,E5,E6,E7,E8,E1,E2,E3,E4,E5,,,,
{8}5x/6x,5x/6x,4-2[8:1],4-6[8:1],4x-1[8:1],4x-8[8:1],4x,4xV26[4:1],
{8},5x,5x,,7,7b-3[16:1]/8b-4[16:1],1b/6b,C1f/B3/B4/B7/B8/7b/8b,
{8},,2x/5x,1x/6x,7,6/8,2,1/3,
{8}4-8[8:1]/8,7<4[8:1],4,7,1,2,3,4/5,
{8},B1/C1/B4/B5/B6/B7/B8,E2/B3/E4,,2xp5[8:1],6x-3[8:1],2x,6x,
{16}1b,,1b,,2,4,3,5,4,,4b-8[16:1]/5b-1[16:1],,2b/7b,,B1/C1f/B4/B5/B8/4b/5b,,
{8},,2x/7x,3,2/4,6,5/7,3,
{8}5-1[8:1],2>5[8:1],5,2,7,6-1[8:1],5/7,6,
{8}2,3-7[8:1],2/4,3,5-1[8:1],4/6,5,2xh[4:1],
{8},3>8[8:1],4,3x/5x,,7x/8x-4[8:1],1x,2b/8b,
{8},1xpp1[8:1]/5xpp5[8:1],1x/5x,1b/5b,,2x>5[8:1]/6x<1[8:1],2x/6x,2b/6b,
{8},2x>5[8:1]/6x<1[8:1],2x/6x,2b/6b,,4x/8x,3x/7x,2x/6xh[4:1],
{8},1w5[16:1],2/8,C1f,,3/7,8,1,
{4}1-4[8:1]/2-7[8:1],1/2>2[16:5]*q4[16:5],2b,,
{16}1b/6b,,,,1/2,,3/8,,4-8[16:1]/7,,,,8x,,,6h[16:5],
{16},,2h[8:1],,,,2/6,,6,,2,8-4[16:1],1,7,,6xh[16:5]/8x,
{16},,5,,4,,3,,1-5[16:1]/2,,,,1,8,,4/6h[16:5],
{8},5,4,3,2>5[16:1]/5-2[16:1],,2/5,,
{16}3b/8b,,,,7/8,,1/6,,2/5-1[16:1],,,,1x,,,3h[16:5],
{16},,7h[8:1],,,,3/7,,7,,2,4-7[16:1],3,5,,4/7,
{16},,1-6[8:1],,2-5[8:1],,1,,2,,,,7/8,7/8,,2h[16:3]/5,
{16},,1-6[8:1],,8-4[8:1],,1,,8,,,,3/5,3/5,,2/6h[16:3],
{8},4,3/5,2/4,1bs5[8:1]/3b,,1b/8b,,
{16}7xh[16:3],,,5,,,3xh[16:3],,,4,,,7xh[16:3],,,6,
{16},,1/8,,3,4,,7,8,,2,1,,7,5,6,
{16}2,4,3,5,4-8[8:1],,,,4/7<1[4:1],,,,,,,,
{1}7b,
{1},
{1},
{1},
E
