&title=Xenovcipher
&wholebpm=210
&artist=Juggernaut.
&des=サファ太
&shortid=11227
&genre=maimai
&cabinet=DX
&version=maimai DX Splash PLUS
&chartconverter=Neskol
&lv_2=6
&des_2=
&lv_3=8
&des_3=
&lv_4=12
&des_4=小鳥遊さん
&lv_5=14
&des_5=サファ太
&des_6=
&inote_2=
(210){1},
{1},
{1},
{1},
{1},
{1},
{1},
{1},
{1},
{1},
{1}1,
{1},
{1}1,
{1},
{1}8,
{1},
{1}8,
{1},
{1}1,
{1}2,
{1}3,
{1}4,
{1}5,
{1}6,
{1}7,
{1}1x/8x,
{2}8,8,
{1}8,
{2}7,7,
{1}7,
{2}6,6,
{1}6,
{2}5,5,
{1}4x/5x,
{1}4h[1:1],
{1},
{1}3h[1:1],
{1},
{1}2h[1:1],
{1},
{1}1h[1:1]/8h[1:1],
{1},
{2}1,1,
{2}2,2,
{2}3,3,
{1}3/4,
{2}5,5,
{2}6,6,
{2}7,7,
{1}7/8,
{1}8h[2:1],
{1}8,
{1}7h[2:1],
{1}7,
{1}6h[2:1],
{1}6,
{1}5h[2:1],
{1}5,
{1}4b/5b,
{1},
{1},
{1},
{1}B4,
{1},
{1}B5,
{1},
{1}E4,
{1}E3,
{1}E2,
{1}E1,
{1}E8,
{1}E7,
{1}E6,
{1}C1f,
{4}1x,1,1,,
{4}2,2,2,,
{4}3,3,3,,
{4}4,4,4/5,,
{4}5,5,5,,
{4}6,6,6,,
{4}7,7,7,,
{1}1b/8b,
{4}8,8,8,,
{4}7,7,7,,
{4}6,6,6,,
{4}5,5,4/5,,
{4}4,4,4,,
{4}3,3,3,,
{4}2,2,2,,
{4}1/8,1/8,1b/8b,,
{1}8-5[4:3],
{1},
{1}1-4[4:3],
{1},
{1}8-4[4:3],
{1},
{1}1-5[4:3],
{1},
{1}7-4[4:3],
{1},
{1}2-5[4:3],
{1},
{1}7-3[4:3],
{1},
{1}2-6[4:3],
{1},
{1}8b,
{1}1h[1:1]/8h[1:1],
{1},
{4}1,1,1,,
{4}8,8,8,,
{4}1,1,2,2,
{4}3,3,3/4,,
{4}5,5,6,6,
{1}7b/8b,
{4}8,8,7,7,
{4}6,6,5/6,,
{4}4,4,3,3,
{4}2,2,1/2,,
{4}7/8,7/8,7/8,,
{4}1/2,1/2,1/2,,
{4}3,3,4,4,
{4}5,5,6,6,
{1}4b/5b,
{1},
{1},
{1},
E
&inote_3=
(210){1},
{1},
{1}1pp4[4:11]/8qq5[4:11],
{1},
{1},
{1},
{1}4qq1[4:11]/5pp8[4:11],
{1},
{1},
{1},
{1}2h[1:1],
{1}1h[1:1],
{1}8h[1:1],
{1}7,
{1}6h[1:1],
{1}5h[1:1],
{1}4h[1:1],
{1}3,
{1}2h[1:1],
{2}1,1/8,
{1}7h[1:1],
{2}8,1/8,
{2}1/2,1/2,
{2}7/8,7/8,
{4}1,1,8,8,
{1}2b/7b,
{2}3h[2:1],4,
{1}3v8[2:1],
{2}7h[2:1],8,
{1}6v1[2:1],
{2}2h[2:1],1,
{1}2v5[2:1],
{2}6h[2:1],5,
{1}7v4[2:1],
{4}3,3,3/4,,
{2}B2,E4,
{4}6,6,5/6,,
{2}B7,E6,
{4}3x,3,3/4,,
{4}6,6,5/6,,
{4}4,4,5,5,
{4}4/5,4/5,3x/6x,,
{4}2,2,1/2,1/2,
{4}3,4,3/5,,
{4}6,6,5/6,5/6,
{4}7,8,1x/7x,,
{4}7,7,7/8,7/8,
{4}6,5,4/6,,
{4}3,3,3/4,3/4,
{4}2x,1x/8x,2x/7x,,
{2}5h[4:1]/6h[4:1],4/7,
{2}3h[4:1]/4h[4:1],2/5,
{2}1h[4:1]/2h[4:1],3/8,
{2}1h[4:1]/8h[4:1],2/7,
{4}6,6,5,5,
{4}4,4,3,3,
{8}2,2,2,,1,1,1,,
{8}8,8,8,,1/8,,1/8,,
{1}1bpp4[4:11]/8bqq5[4:11],
{1},
{1},
{1},
{1}E2/E8,
{1}B2/B7,
{1}B3/B6,
{1}E4/E6,
{2}2h[2:1],1,
{2}7h[2:1],8,
{2}2h[2:1],1,
{2}7h[4:1]/8h[4:1],7/8,
{4}2,2,1,1,
{4}8,8,7,7,
{1}1x>4[2:1]/8x<5[2:1],
{1}C1f,
{4}2x,2,1/2,1/2,
{4}7,7,7/8,7/8,
{4}6,6,5,5,
{4}4,4,3/5,,
{4}6,6,5/6,5/6,
{4}3,3,3/4,3/4,
{4}2,2,1,1,
{4}1x/8x,1x/8x,2x/7x,,
{4}7,7b/8b,7,7/8,
{4}2,1/2,2,1/2,
{4}3,3,4,4,
{4}5,5,4/6,,
{4}3,3/4,3,3/4,
{4}6,5/6,6,5/6,
{4}7,7,8,8,
{4}1x/8x,1x/8x,2x/7x,,
{1}B3/B4,
{1}B5/B6,
{1}B7/B8,
{1}B1/B2,
{1}B4/B5,
{1}B6/B7,
{1}B1/B8,
{1}B2/B3,
{1}5-8[2:1],
{1}1-4[2:1],
{1}5-8[2:1],
{2}1,2/7,
{1}3-6[2:1],
{1}7-2[2:1],
{1}3-6[2:1],
{2}7,8z4[1:1],
{1},
{2}3,3/4,
{2}6,5/6,
{4}4,4,5,5,
{4}4/5,4/5,3b/6b,,
{4}7,7,7/8,1/6,
{4}2,2,1/2,3/8,
{4}4,3,3/4,3/4,
{4}2x/5x,1x/6x,7x/8x,,
{4}2,2,1/2,3/8,
{4}7,7,7/8,1/6,
{4}5,6,5/6,5/6,
{4}4x/7x,3x/8x,1x/2x,,
{4}8,8,7,7,
{4}6,6,5,5,
{8}4,4,4,,3,3,3,,
{8}2,2,2,,1,1,1,,
{1}2xh[1:4]/7xh[1:4],
{1},
{1},
{1},
{1},
{1},
{1},
E
&inote_4=
(210){1},
{1},
{2}3/6h[2:1],5h[2:1],
{2}4h[2:1],3h[2:1],
{1}2<7[4:3],
{2}4h[2:1],5h[2:1],
{1}6>3[4:3],
{2}5h[2:1],4h[2:1],
{1}3<6[4:3],
{1}C1xh[1:1],
{2}E3/E7,2h[2:1],
{2}1h[2:1],8h[2:1],
{8}7h[8:7],,,,,,,6,
{8}6h[8:3],,,5,5h[8:3],,,4,
{8}4>8[4:3],,,,,,,4,
{8}4h[8:3],,,5,5h[8:3],,,6,
{8}6h[4:3],,,,,,4,5,
{1}4w8[2:1],
{8}2b/6b,,,7,4/7,,,3,
{8}3/5,,,4/7,,,1/2,,
{8},6,5/6,,4/7,,3,3,
{8}4,,,2/4,,,5/7,,
{8}3b/6b,,,2,2/5,,,6,
{8}4/6,,,2/5,,,4/7,,
{16}6x,5x,6x,5x,6x,,,,3x,4x,3x,4x,3xs7[4:3],,,,
{1},
{8}1b/8b,,3,4,2/5h[4:1],,4,,
{8}6,6,5,,4h[4:1]/7h[4:1],,,,
{8}7/8,,6,5,4h[4:1]/7,,5,,
{8}3,3,4,,2h[4:1]/5h[4:1],,,,
{8}1/2,,3,4,2/5h[4:1],,4,,
{8}6,6,5,,4h[4:1]/7h[4:1],,,,
{8}7-4[4:1],7,8-3[4:1],,,,,,
{8}2-5[4:1],2,1-6[4:1],,,,,,
{8}3h[4:1],,4,3,2/5h[4:1],,4,,
{4}6h[4:1],B5/E6,3h[4:1],B4/E4,
{4}7h[4:1],B5/B6,2h[4:1],B3/B4,
{4}8h[4:1],B6/B7,1h[4:1],B2/B3,
{8}7/8,,6,5,4h[4:1]/7,,5,,
{8}3,3,4,,2h[4:1]/5h[4:1],,,,
{4}1>4[4:1],6,8<5[4:1],2,
{2}C1hf[2:1],E3/E7,
{16}7/8,,,6,5,,7,,7-4[8:1],,,,3,,,,
{16}1/2,,,3,4,,2,,2-5[8:1],,,,6,,,,
{16}7/8,,,6,5,,7,,7-3[8:1],,,,2,,,,
{16}1x/2x,,,3x/4x,,,5x/6x,,,7x/8x,,,1b/6b,,,,
{16}7h[16:3]/8,,,5h[16:3],,,4h[16:3],,,2,,,3x/8x,,,,
{16}1/2h[16:3],,,4h[16:3],,,5h[16:3],,,7,,,1x/6x,,,,
{16}3h[16:3]/4,,,1h[16:3],,,8h[16:3],,,6,,,4x/7x,,,,
{16}5/6h[16:3],,,8h[16:3],,,1h[16:3],,,3,,,2b/7b,,,,
{2}4>1[2:1]/5,B3/B4,
{2}5<8[2:1],B5/B6,
{2}4>1[2:1],B2/B3,
{4}5<8[2:1],,B6/B7,1b,
{16}2h[16:3]/8,,,4h[16:3],,,6h[16:3],,,8,,,2x/5x,,,,
{16}1/7h[16:3],,,5h[16:3],,,3h[16:3],,,1,,,4x/7x,,,,
{8}3x/4x,3/4,2/5,,5x/6x,5/6,4/7,,
{16}7h[16:3]/8,,,6h[16:3],,,5,,3/4,,,,1/8,,,,
{1}2b>8[4:11]/7b<1[4:11],
{1},
{1},
{1},
{2}B1/E1,B2/E2,
{2}B3/E3,B4/E4,
{2}B5/E5,B6/E6,
{2}B7/E7,B8/E8,
{8}2h[4:3],,4,,5,,6,6h[8:7],
{8},3,,4,,5,5h[4:5],,
{8}7,,6,6,,4,4,,
{4}6h[4:3],5,4,3,
{8}2/4,,3/5,,4/6,,5/7,5/7h[2:1],
{8},8,,1,,2/5,,4/7,
{16}3,,3,,6,,6,,4,5,4,5,4>8[2:1]*<8[2:1],,,,
{4},,,2b/6b,
{8}1x/8x,2,3/4,,5/7,,2/8,1/7-3[8:1],
{8},8-4[8:1],,1-5[8:1],,3,3,,
{8}5/6-1[8:1],,2,2-5[8:1],,7,7,,
{4}1/8,2/3,4/5,6/7,
{8}1/8-6[8:1],,2-4[8:1],,5-1[8:1],,2,2,
{16},,1/3,,,,6/8,,,,5,4,5,,3,,
{8}2h[4:1]/4,,6,5/7h[4:1],,8,8,,
{16}3x/7x,,,2x/5x,,,4x/6x,,,3x/5x,,,3x/6x,,3x/6x,,
{8}4x/5x,,2b/7b,,3/4,,1/7,2-6[8:1]/8,
{8},1-5[8:1],,8-4[8:1],,6,6,,
{8}3-8[8:1]/4,,7,7-4[8:1],,2,2,,
{4}1/8,6/7,4/5,2/3,
{8}1-3[8:1]/8,,7-5[8:1],,4-8[8:1],,7,7,
{16},,6/8,,,,1/3,,,,4,5,4,,6,,
{8}7/8,,2/3,,5/6,,4x/7x,4x/7x-4[8:1],
{8},5x-2[8:1],,3x-8[8:1],,1x,1b,,
{8}2xh[4:1]/7xh[4:1],,,1h[4:1]/5h[4:1],,,4h[4:1]/7h[4:1],,
{8},3h[4:1]/5h[4:1],,,2/6,,4/8,,
{8}3h[4:1]/7h[4:1],,,4h[4:1]/8h[4:1],,,2h[4:1]/5h[4:1],,
{8},4h[4:1]/6h[4:1],,,3/5,2,1/8,,
{8}1/7-4[8:1],,3,,2/5,,1/6,1/6,
{16},,5/7,,,,2/4,,,,4,5,4,,6,,
{16}5/7,,,,3,,2/4,,,,8,1,8,,,,
{16}3/7h[16:3],,,5h[16:3],,,4h[16:3],,,2,,,1b/8b,,,,
{8}3x/6xh[4:1],,2,1xh[4:1]/5x,,7,2x/8xh[4:1],,
{8}4,3xh[4:1]/5x,,6,2/7,,4/8,,
{8}3xh[4:1]/6x,,7,4x/8xh[4:1],,2,1xh[4:1]/7x,,
{8}5,4x/6xh[4:1],,3,2/5,,1/8,,
{8}2-5[8:1]/8,,6,,4/7,,3/8,3/8,
{16},,2/4,,,,5/7,,,,5,4,5,,3,,
{16}2/4,,,,6,,5/7,,,,1,8,1,,,,
{16}6h[16:3],,,8h[16:3],,,1h[16:3],,,4,,,3/6,,2/7,,
{24}1-5[8:1]/8,,,,,,,,,,,,E7,B6,,E3,B3,,C1f,,,,,,
{1}1/8<1[2:3],
{1},
{8}1x/8x,,5x/6x,4x/7x-4[8:1],,1x-5[8:1],,8,
{4}8x-4[8:1],2x-6[8:1],5x-1[8:1],4,
{8}3x/8x,,2b/6b,,4/5,,1/7,2-6[8:1]/8,
{16},,1-5[8:1],,,,8-4[8:1],,,,E7,B6,B5,,,,
{8}3>8[8:1]/4,,7,7<4[8:1],,2,2,,
{16}3x/8x,,,1x/5x,,,4x/7x,,,2x/6x,,,1x-5[8:1]/8x-4[8:1],,1x/8x,,
{8},,2b/7b,,3/6,,2/8,1/7-3[8:1],
{16},,8-4[8:1],,,,1-5[8:1],,,,E3,B3,B4,,,,
{8}5/6<1[8:1],,2,2>5[8:1],,7,7,,
{8}1/8,,3/6,4/5,,1b/8b,,,
{8}2x/7x,2,1/2,2,2/3,2,2/5,2,
{8}2x/7x,7,7/8,7,6/7,7,4/7,7,
{16}2x,1x,2x,1x,2x,1x,2x,,7x,8x,7x,8x,7x,8x,7x,,
{16},,4x-2[8:1]/5x-7[8:1],,,,,,,,1,8,1,,7,,
{1}3b>5[4:13]/6b<4[4:13],
{1},
{1},
{1},
{16}B3,B4,B5,,,,,,,,,,,,,,
{1},
{1},
{1},
E
&inote_5=
(210){1},
{1},
{2}4h[2:1]/5b,5h[2:1],
{2}6h[2:1],7V53[1:1],
{1}5,
{2}2h[2:1],4,
{1}3/4V68[1:1],
{1}2V46[1:1],
{1}8V24[1:1],
{2}5,5,
{2}4/5h[1:2],B4,
{2}B6,B8,
{2}2h[1:2],B3,
{2}B1,B7,
{2}6V82[1:1],3,
{2}4V28[1:1],7,
{2}6h[2:3],5,
{1}4h[2:1],
{2}2h[1:1]/7b,4,
{8}4,,,3/5,,,4/6h[1:1],,
{8},5,5,,4,,5,,
{8}5/6,,,4/5,,,3/4,,
{8}2,2,4,4,5,5,6,6,
{8}3,3,4,4,5,5,6,6,
{16}4,5,4,5,3,6,3,6,2,7,2,7,1<3[2:1],8,1,8,
{2}1,8-4[8:1],
{16}2b/6b,,,,1,2,3,4,5-1[8:1]/6,,,,7-3[8:1],,7,,
{8}2-5[8:1],2,6-1[8:1],6,1w5[8:1],,,,
{16}3x/7x,,,,8,7,6,5,3/4-8[8:1],,,,2-6[8:1],,2,,
{8}7-4[8:1],7,3-8[8:1],3,8w4[8:1],,,,
{4}2z6[4:1]/6x,7,8-4[8:1],4,
{4}2s6[4:1]/6,7,8-4[8:1],4,
{8}2V46[4:1],,6V82[4:1],,2,,6,6,
{16}5,,4/7,,8,,3,4,3,,3/4,,2-6[8:1]/5,,,,
{8}2b/6b,,8,8,1/7h[4:1],,B6/E6,B1/B8,
{8}B3/E4,B4/B5,B2/E2,B7/E8,1x,1x,8x,8x,
{8}B4/B5,B7/E8,B2/E2,B1/B8,B4/E4,B5/E6,1x,1x,
{8}B7/E8,B1/E2,B5/E6,B3/E4,8x-4[8:1],,8b,,
{8}2b/6b,,3/5,2,4,3,2/5,6,
{8}3,5,4/6,7,5,6,4/7<1[3:1],,
{24}3h[2:1],,,,,,,,,8,7,6,5-1[8:1],,,,,,2>8[32:11],,,,,,
{32}6h[2:1],,,,,,,,,,,,1,2,3,4,5,,,,,,,,3b/7b,,,,,,,,
{16}2h[16:3],,,4,3,,2/4,,1,,1,,5,,3,,
{16}7h[16:3],,,5,6,,5/7,,8,,8,,4,,6,,
{16}3h[16:3],,,1,2,,3/8,,4,,4,,8,,2,,
{16}6h[16:3],,,8,7,,1/6,,5,,5,,2x/4x,,2x/4x,,
{16}2xh[16:3]/4x,,,3h[16:3],,,4h[16:3],,,5,,,4/6,,4,,
{16}6h[16:3],,,5h[16:3],,,4h[16:3],,,3,,,2/4,,4,,
{16}2h[16:3],,,4h[16:3],,,5h[16:3],,,6,,,4/7,,7,,
{16}2b,,,5b/6b,,,8b,,,2b/4b,,,1b/7b,,2b/6b,,
{4}3b/5b<1[4:1],4,3x>7[4:1],6,
{4}5V71[4:1],3,4xV28[4:1],6,
{4}5<2[4:1],3,4x>7[4:1],7,
{16}6,,,,5/6,,,,3xh[16:3],,,4x,,,2x/5,,
{8}1-5[8:1]/6x,,1b/8b,,4x/6,4/6x,2x/8,,
{16}3x/4,,,6x/8,,,5/7x,,,1x/2,,,3x/4,,2/5x,,
{8}1/6,1,1/7,7,5/7,5,4/5,4,
{16}2/4,,,4/5,,,5/7,,5/7b-3[8:1],,,,1bs5[1:3]/7b,,,,
{1}C1f,
{1},
{1},
{1},
{1}C1xh[1:3]/B6/B7,
{1}B1/B8,
{1}B2/B3,
{2}B4/B5,C1,
{1}1>5[1:1],
{1}5s1[1:1],
{1}1<5[1:1],
{1}5z1[1:1],
{4}8,7,6,5,
{8}4,4,3,3,2,2,1,1,
{16}8,2,8,2,7,3,7,3,6,4,6,4,5,3,5,3,
{2}4h[2:1],5w1[8:1],
{16}3b/7b,,,,4/5,,3,4,2>5[8:1],,1,,2/8,,8,,
{16}7<4[8:1],,8,,1/7,,2,,3,,3,4,2,,1/6,,
{8}7-4[8:1],8,7,2-6[8:1],1,2,8>3[8:1],4,
{8}8<5[8:1],4,8-4[8:1],4,8,3,2/6,,
{16}4/5,,3,4,2,,6,5,7<4[8:1],,8,,1/7,,1,,
{16}2>5[8:1],,1,,2/8,,7,,6,,6,5,7,,3/8,,
{16}1/2,,3,4,2,,1/5,,6,5,7,,4/8,,1/3,,
{16}2xh[8:1]/4h[8:1],,,5h[8:1]/7xh[8:1],,,1h[8:1]/2xh[8:1],,,7h[8:1]/8xh[8:1],,,7/8x,,1x/6,,
{16}2-6[8:1]/5x,,,,2b/8b,,,,1/7,,6,5,7,,3,4,
{16}2>5[8:1],,1,,2/8,,7,,6,,6,5,7,,3/8,,
{8}2-5[8:1],4,2,7-3[8:1],8,7,1-5[8:1],5,
{4}1-3[8:1]*-4[8:1],1-6[8:1]*-7[8:1],1,1b/5b,
{8}3-7[8:1]/7-3[8:1],,3/7,,1-5[8:1]/5,,1/8,7-3[8:1],
{16},,2-6[8:1]/7,,,,2/6,,,,7,7,8,,1/7,,
{8}2-6[8:1]/6-2[8:1],,2/6,,4-8[8:1]/8,,4/7,6-2[8:1],
{16},,3-7[8:1]/6,,,,3/7,,,,6,6,5,,4/6,,
{8}3h[4:1]/7,,7,3h[4:1]/6,,6,3h[4:1]/5,,
{8}5,3h[4:1]/4,,4,3/4x-8[8:1],,2x,,
{8}2/6h[4:1],,2,3/6h[4:1],,3,4/6h[4:1],,
{8}4,5/6h[4:1],,5,5x-1[8:1]/6,,7x,,
{8}3/7h[4:1],,3,2/7h[4:1],,2,1/7h[4:1],,
{8}1,7h[4:1]/8,,8,7x-3[8:1]/8,,3x,,
{8}2h[4:1]/4,,4,5/7h[4:1],,5,4/6,3,
{16}2h[8:1],,,1h[8:1]/3h[8:1],,,4h[8:1]/8h[8:1],,,5h[8:1]/7h[8:1],,,4b/6b,,4b/6b,,
{8}3h[4:1]/7,,7,B7/3h[4:1],,6,B6/3h[4:1],,
{8}5,B5/3h[4:1],,4,3/4x-8[8:1],,1x,,
{8}2/6h[4:1],,2,B2/6h[4:1],,3,B3/6h[4:1],,
{8}4,B4/6h[4:1],,5,5x-1[8:1]/6,,7x,,
{8}3/7h[4:1],,3,B3/7h[4:1],,2,B2/7h[4:1],,
{8}1,B1/7h[4:1],,8,7x-3[8:1]/8,,5x,,
{8}2h[4:1]/4,,1,3/8h[4:1],,1,2/7h[4:1],,
{16}8,,1/6h[4:1],,,,5,,4/6,,3/7,,2,8,2,8h[16:11],
{48}2xh[2:1],,,,,,,,,,,,,,,,,,,,,,,,,E3,B3,B4,E5,,,E8,B7,B6,E6,,1b>8[2:3],,,,,,,,,,,,
{1}C1xh[2:3],
{4},,,1-5[8:1]/8-4[8:1],
{8}1b/8b,,3x/6x,2-5[8:1]/7-4[8:1],,2/7,,3x/6x,
{4}1/8>3[8:1],7/8<5[8:1],4w8[8:1]/8,4,
{16}2x-5[8:1]/6x-1[8:1],,,,2b/6b,,,,3x/7x,,5,4,5-1[8:1],,6,,
{16}5/7-4[8:1],,8,,3-8[8:1]/7,,2,,3/8,,7,5,6,,4/5,,
{16}3/6,,2,1,3,8,4,,6,5,7,4,8,,1/7,,
{96}2b,,,3,,,4,,,5,,,,,,,,,8b,,,7,,,6,,,5,,,,,,,,,1b,,,2,,,3,,,4,,,,,,,,,7b,,,6,,,5,,,4,,,,,,,,,2x,,E3,,B3,,B4,,E5,,,,8x,,E8,,B7,,B6,,E6,,,,
{16}1w5[8:1],,,,1b,,,,3x/7x,,4,5,4-8[8:1],,3,,
{16}2-5[8:1]/4,,1,,2/6-1[8:1],,7,,1/6,,2,4,3,,4/6,,
{8}3/7<4[8:1],,1/7,1>4[8:1],,1-5[8:1],5,1,
{32}7,,,,7,6,5,4,3,2,1,8,3x-6[8:1]/7-2[8:1],,,,,,,,3/7,,,,,,,,4x/8x,,,,
{8}4b/8b,,3-5[8:1],3,5,6,7-3[8:1],7,
{8}2-6[8:1],2,8-4[8:1],8,1-5[8:1],1,8,8,
{16}1,7,2,6,3,5,4,8,2,7,3,6,4,5,2-7[8:1]/6-3[8:1],,
{16},,2-5[8:1]/6-1[8:1],,,,2/6,,,,4/8,3/7,2v5[8:1]/6v1[8:1],,1,,
{192}2b<3[4:15]/6b,C1f,,,,,,,,,,,,,,,,,,,,,,,,,,,,,,,,,,,,,,,,,,,,,,,,,,,,,,,,,,,,,,,,,,,,,,,,,,,,,,,,,,,,,,,,,,,,,,,,,,,,,,,,,,,,,,,,,,,,,,,,,,,,,,,,,,,,,,,,,,,,,,,,,,,,,,,,,,,,,,,,,,,,,,,,,,,,,,,,,,,,,,,,,,,,,,,
{1},
{1},
{1},
{1}8bz4[8:29],
{1},
{1},
{2},2-6[8:1],
{1},
{1},
{1},
E
