&title=VIIIbit Explorer
&wholebpm=188
&artist=Lime
&des=-ZONE- SaFaRi
&shortid=11235
&genre=maimai
&cabinet=DX
&version=maimai DX Splash PLUS
&chartconverter=Neskol
&lv_2=6
&des_2=
&lv_3=8
&des_3=
&lv_4=13
&des_4=Jack
&lv_5=14+
&des_5=-ZONE- SaFaRi
&des_6=
&inote_2=
(188){1},
{1},
{1},
{1}1,
{1}1,
{1}8,
{1}8,
{1}1,
{1}1,
{2}8,8,
{1}1b/8b,
{2}1,1,
{2}2,2,
{2}3,3,
{1}4/5,
{2}5,5,
{2}6,6,
{2}7,7,
{1}1b/8b,
{2}8,8,
{2}7,7/8,
{2}6,6,
{2}5,4x/5x,
{2}4,4,
{2}3,3/4,
{2}2,2,
{2}1/8,1x/8x,
{4}1,1,1,,
{2}2,2,
{4}3,3,3,,
{2}4,4/5,
{4}5,5,5,,
{2}6,6,
{4}7,7,7,,
{2}1/8,1x/8x,
{1}2xh[1:2]/7xh[1:2],
{1},
{1},
{1},
{1}B8,
{1}B7,
{1}B6,
{1}B4/B5,
{1}B3,
{1}B2,
{1}B1,
{1}C1,
{1}1h[2:1]/8h[2:1],
{1}1/8,
{1}1h[2:1]/2h[2:1],
{1}1/2,
{1}7h[2:1]/8h[2:1],
{1}7/8,
{2}1,1,
{1}1b/8b,
{1}1-4[4:3],
{1},
{1}8-5[4:3],
{1},
{1}1-5[4:3],
{1},
{1}8-4[4:3],
{1},
{2}1,1,
{2}2,2,
{2}3,3,
{2}4/5,4/5,
{2}5/6,5/6,
{2}7/8,7/8,
{2}1/2,1/2,
{4}8,8,1x/7x,,
{4}8b,8,8,,
{4}7,7,7,,
{4}6,6,6,,
{4}5,5,4/5,,
{4}4,4,4,,
{4}3,3,3,,
{4}2,2,2,,
{4}1,1,1/8,,
{4}1,1,2,2,
{4}3,3,3/4,,
{4}5,5,6,6,
{4}7,7,7/8,,
{4}6,6,5/6,,
{4}3,3,3/4,,
{4}3,3,2,2,
{4}1/8,1/8,1x/8x,,
{4}8,8,8,,
{2}7/8,7/8,
{4}1,1,1,,
{2}1/2,1/2,
{4}3,3,3,,
{2}4/5,4/5,
{4}6,6,6,,
{1}5x/7x,
{4}8,8,8,,
{2}7/8,7/8,
{4}1,1,1,,
{2}1/2,1/2,
{4}8,8,7,7,
{4}6,6,5,5,
{4}4/5,4/5,3/6,3/6,
{4}2/7,2/7,1x/8x,,
{1}2b/7b,
{1},
{1},
{1},
E
&inote_3=
(188){1},
{1},
{1},
{1}3>8[2:1]/4,
{4}7,7,7/8,,
{1}5/6<1[2:1],
{4}2,1,8,7,
{2}6h[2:1],5,
{2}3h[2:1],4,
{2}2h[2:1],1,
{4}1x/8,2x/7,3x/6,4x/5,
{4}6,6,5,5,
{4}4,4,3/5,,
{4}2,2,1,1,
{4}1x/8x,1/8,2x/7x,,
{4}6,5,4,3x,
{2}1h[4:1]/2h[4:1],7h[4:1]/8h[4:1],
{8}1,1,1,,8,8,8,,
{4}1/8,2/7,3/6,4b/5b,
{4}6h[2:1],,5,5,
{4}4,3/4,2/5,,
{4}2h[2:1],,1,1,
{4}8,7,5x/6x,4x/7x,
{4}3h[2:1],,4,4,
{4}5,6,7,8,
{1}1>4[2:1]/8<5[2:1],
{4}4x/5x,3x/6x,2x/7x,,
{4}2,2,1,1,
{4}1/2,1/2,3/8,,
{4}7,7,8,8,
{4}7/8,7/8,1/6,,
{4}6,6,5,5,
{4}4,4,3,3,
{4}2,2,1,1,
{1}1-4[2:1]/8-5[2:1],
{1}6b<5[2:5],
{1},
{1},
{1},
{2}B3/E4,B6/E6,
{4}B2,B3,E4,,
{2}B7/E8,B2/E2,
{4}E6,B6,B7,,
{2}B3/B4,B7/B8,
{4}E4,E5,E6,,
{2}B1/B2,B7/B8,
{4}B3,E5,B6,,
{1}2h[1:1],
{1}1h[1:1],
{1}8h[1:1],
{2}7,7/8,
{1}6h[1:1],
{1}5h[1:1],
{1}4h[1:1],
{2}3,4/5,
{4}6b,6,5/6,,
{4}3,3,3/4,,
{4}6,6,5/6,,
{4}4,4,3/5,,
{4}2,2,1/2,,
{4}7,7,7/8,,
{4}2,2,1/2,,
{4}1/8,1/8,2/7,,
{4}3,3,2,2,
{4}1,1,2/8,,
{4}7,7,6,6,
{4}5,5,4/6,,
{4}3,4,5,6x,
{2}7h[4:1]/8h[4:1],1h[4:1]/2h[4:1],
{8}8,8,8,,1,1,1,,
{4}1x/8,2x/7,3x/6,4b/5b,
{8}6,6,6,,5/6,,5/6,,
{4}7,7/8,1/6,,
{8}2,2,2,,1/2,,1/2,,
{4}3,4/5,3/6,,
{8}3,3,3,,3/4,,3/4,,
{4}2,1/2,3/8,,
{8}7,7,7,,7/8,,7/8,,
{1}1b>4[2:1]/8b<5[2:1],
{8}6,6,6,,5/6,,4/7,,
{4}3,3/4,2,1/2,
{8}3,3,3,,3/4,,2/5,,
{4}6,5/6,7,1/8,
{8}7,7,7,,7/8,,1/6,,
{8}2,2,2,,1/2,,3/8,,
{8}4,4,4,,5,5,5,,
{4}4/5,3/6,2b/7b,,
{4}6,6,5/6,5/6,
{4}7,8,1/7,,
{4}2,2,1/2,1/2,
{4}8,8,1/8,,
{4}7,7,8,8,
{4}1,1,2/8,,
{4}3,3,4,4,
{4}4/5,4/5,3/6,,
{1}7-4[2:1],
{1}3-8[2:1],
{1}7-4[2:1],
{4}3,3,3/4,,
{4}5,6,7,8,
{4}1,2,3,4,
{8}4/5,4/5,4/5,,3/6,3/6,3/6,,
{1}4-1[2:1]/5-8[2:1],
{1}C1f,
{1},
{1},
{1},
E
&inote_4=
(188){1},
{1},
{8}3,2/4,6,5/7,3/6,2/7,1x/8x,,
{1}C1f/B2/B3/E3/B6/B7/E7,
{8},,,,,,,4x/5x,
{1}C1f/B2/B3/E3/B6/B7/E7,
{16}1,8,1,8,2x/7x,,3x/6x,,4xh[8:1]/5xh[8:1],,,1xh[8:1]/8xh[8:1],,,2x/7x,,
{4}2x/7x,3,4,5,
{8}6,,5,,4,,3,1x/8x,
{4}1bs5[4:1]/8bz4[4:1],,,B2/B3/E4/B6/E6/B7,
{4}1b,2b,3bw7[8:1],,
{16}1x/5x,,2,,3,,4,,5/6h[16:3],,,7h[16:3],,,8,,
{16}3h[16:3]/4,,,2h[16:3],,,1,,8,,8,,1,,1,,
{16}1x/8x,,7,,6,,5,,3h[16:3]/4,,,2h[16:3],,,1,,
{16}5x/6h[16:3],,,7h[16:3],,,8,,1x,,8,1x,8,,2x/7x,,
{8}2x/7x,3,4,5,6>3[8:1],7,,,
{8}1-5[8:1]/2-4[8:1],1/2,,,7-5[8:1]/8-4[8:1],7/8,,,
{16}1,8,1,8,2,7,2,7,3,6,3,6,4,5,4,5,
{16}E5,,,,C1,,,,E1,,2x/7x,3x/6x,4b-1[8:1]/5b-8[8:1],,,,
{8},,2/7,6,5,4,3,2,
{16}7,8,7,,2,1,2,,3/8,,4/7,,5x/6x,,,,
{8}1/2,1/2,3,4,5,6,7,8,
{16}3,4,3,,6,5,6,,3-8[8:1]/7-4[8:1],,,,,,,,
{8}2x/6x,,3/7,4,5,6,7,8,
{16}2,1,2,,7,8,7,,1/6,,2/5,,3x>6[8:5]/4xq5[8:5],,,,
{1},
{4}B5/E6/2b,B4/E4/7b,1b>4[8:1]/8b<5[8:1],1x/8x,
{8}3/6,4,5,6,7/8,7/8-3[8:1],,7-4[8:1],
{8},2-5[8:1],,1-6[8:1],,4-8[8:1],,5,
{8}5,6,7,8,1/2,1/2-4[8:1],,8-6[8:1],
{16},,1-5[8:1],,,,7h[4:1],,,,2,,1,8,1,8,
{8}2x/7x,3,3,3,4x/5x,6,6,6,
{8}3x/7x,2,2,2,1x/6x,7,7,7,
{8}3x/8x,2,1x/6x,7,4x/8x,3,1x/5x,6,
{16}4x/8x,3x,2x,1x,8x,7x,6x,5x,3x/4x,,1x,8x,1x>8[4:11],,,,
{1}C1f,
{1},
{1},
{1},
{8}3,,4,,5,5,,6>3[4:1],
{8},,,,,3,4,5,
{16}6,,,,4,4,4,,,,,,3,,3<6[4:1],,
{8},,,,,,,7,
{8}7h[4:1],,6h[4:1],,5,,2,2h[4:1],
{8},3h[4:1],,4,,5,5,4,
{8},4,4,,6,5,4,3,
{8},1h[16:1],2h[16:1],3h[16:1],4h[16:1],5h[16:1],6h[16:1],7h[16:1],
{2}1x/8x,E1,
{2}E3,E5,
{8}E7,,,,8,8,1,1,
{16},,1/8,,,,2/7,,,,3/6,,,,4,5,
{4}4h[2:1],3,5h[2:1],6,
{4}4h[2:1],2,5h[2:1],7,
{4}4h[2:1],1,5h[2:1],8,
{24}4b,,,,,,,,,,,,E5,E4,E3,E2,E1,E8,E7,E6,E5,,,,
{8}1x/8x,,2-5[8:1],2,6-1[8:1],,2q5[2:1],,
{8}8x,,,,,,,5x/6x,
{8}3x/8x,,7-4[8:1],7,3-8[8:1],,7p4[2:1],,
{16}1x,,,,,,,,2xh[16:3],,,3xh[16:3],,,4x,,
{8}1x/6x,,2-5[8:1],2,6-1[8:1],,3-8[8:1],,
{8}7-4[8:1],,3,2,1h[4:1]/8h[4:1],,,1x/8x,
{8}2x/7x,,4-2[8:1],4,5-7[8:1],,1h[2:1],,
{8}8h[4:1],,,1/8,1-5[8:1]/8-4[8:1],,,,
{4}3h[8:1]/6h[8:1],3h[8:1]/4h[8:1],3h[8:1]/8h[8:1],2h[8:1]/3h[8:1],
{4}3h[8:1]/7h[8:1],1h[8:1]/3h[8:1],3-5[8:1]/5h[8:1],8b,
{4}3h[8:1]/6h[8:1],6h[8:1]/8h[8:1],5h[8:1]/6h[8:1],2h[8:1]/6h[8:1],
{8}6h[8:1]/7h[8:1],,1h[8:1]/6h[8:1],,4h[8:1]/6h[8:1],,,4/6,
{8}4/6,3/5,3/5,4/7,4/7,2/5,2h[4:1]/5,,
{8}1,3/8,4x/7xh[4:1],,8,1/6,2xz6[4:1]/5x,,
{4},7xs3[4:1],,2x,
{4}1b,2b,3bw7[8:1],,
{8}1x/5x,2,4/8,7,1x/5x,3,4/8,6,
{16}1x/5x<8[8:1],,,,1,,,,1/8,,,,1x/8x,2x,3x,4x,
{8}5x/6x,7,3x/4x,2,5x/6x,8,3x/4x,1,
{16}5x-1[8:1]/6x,,,,6,,,,1/6h[4:1],,,,1x,2x,3x,4x,
{8}5x/6x,7,1/8,2,3x-8[8:1]/4x-7[8:1],,,,
{8}1x/6x,,3/8,4/7,5x-2[8:1]/6x-1[8:1],,,,
{8}3x/8x,7,1x/6x,2,3x>8[8:1]/8x<5[8:1],,,,
{2}4bw8[8:1],2b/6b,
{8}3xh[16:3]/7xh[16:3],,1b/5b,,4x/8x,7,1/5,2,
{16}4x>1[8:1]/8x,,,,8,,,,1/8,,,,1x/8x,7x,6x,5x,
{8}3x/4x,2,5x/6x,7,3x/4x,1,5x/6x,8,
{16}3x/4x-8[8:1],,,,3,,,,3/8,,4/7,,6x,5x,6x,,
{8}3x/4x,2,1/8,7,5x-2[8:1]/6x-1[8:1],,,,
{8}3x/8x,,1/6,2/5,3x-8[8:1]/4x-7[8:1],,,,
{8}1x/6x,2,3x/8x,7,1x>4[8:1]/6x<1[8:1],,,,
{2}5bw1[8:1],C1f/B3/E4/B7/E8,
{8}1<6[8:1]/2,,2,,2/4,4,2,6,
{8}2,8h[8:3],2,,2,7,2/6,5,
{8}2-4[8:1]/4-8[8:1],,,,5/7,5,7,3,
{8}7,1h[8:3],7,,7,2,3/7,4,
{2}5-1[8:1]/7-5[8:1],2-4[8:1]/4-8[8:1],
{8}5/7,6,2/4,3,6/8,7,1/3,2,
{8},4/5,4/5,,1/8,2/7,3/6,4qq1[8:5]/5pp8[8:5],
{1},
{16}1,8,1,8,2x/7x,,,,3h[2:1],,,,,,,,
{2}4h[2:1],5h[2:1],
{8}6h[2:1],,,,5,4,3,2/7,
{16}2x/7x,,3x,4,2b,,6x,5,7b,,3x,4,1b,,6x,5,
{8}8b,2,2,2,1x/8x,7,7,7,
{8}2x/6x,3,3,3,4x/7x,6,6,6,
{16}4,5,4,5,4,5,4,5,3,6,3,6,3,6,3,6,
{48}2,,,7,,,2,,,7,,,2,,,7,,,2,,,7,,,1x/8x,,2x,,3x,,4x,,5x,,6x,,7x,,8x,,1x,,2x,,3x,,4x,,
{1}C1xh[8:7]/5x,
{1},
{1},
{1},
E
&inote_5=
(188){1},
{1},
{16}3,4,,6,5,,4,5,4,5,4,,5,,4/6,,
{1}3xh[4:7]/7b,
{16},,,,,,,,,,,,4,,3,4,
{1}2b/5xh[1:1],
{32}E4,B4,B5,E6,,,,,7,,,,7,,,,7x/8x,,,,,,1x/8x,,,,,,1x/2x,,,,
{4}3xh[4:7]/8b,E1,E8,E7,
{16}C1,,,,E7,,,,E6,,,,4x,,3,4,
{4}1bs5[4:1]/6xh[2:1],,,7x/8x,
{8}1b,,2b,,3b-1[8:1],4b,3b/5b,,
{4}8xh[1:1],E1,C1,E5,
{16}3h[4:3],,,,E6,,,,E5,,,,4,,3b,4b,
{4}2xh[1:1]/5b,E5,C1,E1,
{16}1xh[2:1],,,,2,,,,2x,,,3x/4x,,,5x/6x,,
{8}4b/7b,4,5,5,2-4[8:1],4-8[8:1],,,
{8}7V51[4:1],1,,,4,3,2x/8x,,
{32}1,,8,,1,,8,,1,,8,,1,,8,,1,2,3,4,5,6,7,8,1,2,3,4,5,6,7,8,
{16}1x,,,,2x,,,,3x,,8,1,2b/7b,,,,
{16}3b/5b,,,,2/6,,6,,1,5,2,4,3,,3,,
{16}6,5,7,4,8,4,7,5,6,,4,,3x/5x,,2,,
{16}5x,,5x,,4/6,,4,,7,5,6,5,7,,7,,
{32}3,,4,,3,,4,,2,,,,1/7,,,,1b/7b,6,5,4,,,,,2b/8b,3,4,5,,,,,
{16}1b/7b,,,,3/6,,3,,8,4,7,5,6,,6,,
{16}1,5,2,4,3,4,2,5,1,,5/6,,4b/7b,,,,
{16}1x/2,,2,4,2,,2/6x,,7,8x,7,,5x/7,,6x,,
{4}4x>1[8:1]/5-1[8:1],4-8[8:1]/5x<8[8:1],4x/5,2b/6b,
{8}1-3[16:1],8,1-5[8:1],5-3[16:1],1,7-3[16:1],8,7-1[16:1],
{8}4,7-5[16:1],2-4[16:1],7,2-6[16:1],7,2,8,
{8}8-6[16:1],1,8-4[8:1],4-6[16:1],8,2-6[16:1],1,2-8[16:1],
{16}4,,2-4[16:1],,7-3[16:1],,2,,7,,1,,2,4,3,5,
{8}4b-8[8:1],,5,6,7,3/8-3[8:1]*>3[8:1],,8-4[8:1],
{24},,,8-5[8:1]*<5[8:1],,,,,,8,,,,,,1/8,,,1,2,3,5,6,7,
{16}1b/8b,,,,3/6,,2/7,,1,8,1,8,1,7,2,6,
{96}3b,,,,4,,,,5,,,,6,,,,7,,,,8,,,,1,,,2,,,3,,,4,,,5,,,6,,,7,,,8,,,1,,2,,3,,4,,5,,6,,7,,8,,1,,2,,3,,4,,5b,,,,,,,,,,,,,,,,,,,,,,,,
{1}2b>8[4:11]/7b<1[4:11],
{1},
{1},
{1},
{8}3h[4:3],,,,,,5,5,
{8},4/6h[8:7],,,,,,,
{16}4,,,,5,5,5,,4/6,,,,3,,3<6[4:1],,
{1},
{8}5h[4:1],,4h[4:1],,5h[4:1],,4,4,
{8},3/5,,4/6,,5,5,,
{8}4/6,,3/5,,4,4,5,5,
{16}4,5,4,5,4,5,4,5,4,5,4,5,4h[4:17],,,,
{2}E4,B2,
{2}E1,B7,
{2}E6,E3,
{2}E1,C1,
{2}5<3[4:3],B3/B5,
{2}4>6[4:3],B4/B6,
{2}5h[2:3],C1,
{32}4x,,,,,,,,,,,,,,,,E5,E6,E7,E8,E1,E2,E3,E4,E5,,,,,,,,
{8}6x,,5/6,5,5-2[8:1]/6,,7p4[2:1],,
{8}1h[2:1],,,,,,3/4x,4/5x,
{8}5/6x,,5/6,5,5-1[8:1]/7,,8<4[4:1],,
{16}2h[2:1],,,,,,,,4x,,,5x/6,,,4/7x,,
{8}4x/7,,3/4,4,3/4h[4:1],,2h[4:1],,
{8}8h[4:1],,5,5,5/7,,5/6,6x,
{8}4/6x,,3/4,4,2/4-8[8:1],,1>7[2:1],,
{4}7b,,8,1,
{4}2h[1:1]/7,3,B7,B3,
{4}6h[1:1],C1,2xh[1:0],5,
{4}4xh[2:1],B3/B5,6h[2:1],B5/B7,
{4}3h[4:1],B2/B4,3-8[8:1]/6-1[8:1],,
{8}7x,7,5,6,2-4[8:1],4-8[8:1],,,
{8}7V51[4:1],1,,,4,3,2x/8x-4[8:1],,
{24}1xh[4:1],,,,,,5,6,7,1,2,3,4-8[8:1],,,,,,8x,,,,,,
{8}1b,,2b,,3b-1[8:1],4b,3b/5b,,
{16}7b/8b,,6,5,7<4[8:1],,8,1,7,,3,,1/2,,3,,
{16}4/5,,6,5,7-3[8:1],,8-4[8:1],1,7,,8,,5,,3,,
{48}2/8,,,,,,7,,,5,,,6,,,,,,3/4,,,,,,2>5[8:1],,1,,8,,7,,,,,,1,,8,,7,,6,,,,,,
{16}5x/6,,7,5,6,3,4,2,8,4,5,1,3b/7b,,,,
{16}4/6,,3,4,2-6[8:1],,1-5[8:1],8,2,,1,,4,,6,,
{16}3/7,,2,1,3,,4/8,,2b/6b,,,,4/5,,6,,
{8}4/7-4[8:1],8,3-8[8:1]/7,2,3-6[8:1]/7-2[8:1],,3/7,,
{8}4b/8b,,2>5[8:1]/6<1[8:1],1,2/6,,3b/7b,,
{32}5,4,5,,3,,6,,2>5[8:1],,,,1,,8,,2<7[8:1],,,,6,,,,2/7,,,,6,,,,
{16}4/5,,3,4,2-6[8:1],,1-5[8:1],8,2>5[8:1],,1,,2,,6,,
{24}7/8,,,1,2,3,4,,,5/6,,,7<4[8:1],8,1,2,,,8,1,2,3,,,
{16}3/4x,,2,4,3,6,5,7,1,5,4,8,2b/6b,,,,
{96}4/6,,,,,,,,,,,,7b<4[8:1],,,,8,,,,1,,,,2,,,,,,,,,,,,8b,,,,1,,,,2,,,,3,,,,,,,,,,,,1b,,,2/8,,,3/7,,,4/6,,,5,,,,,,,,,,,,4x/6x,,,,,,,,,,,,
{96}3x/5x,,,,,,,,,,,,2b>5[8:1],,,,1,,,,8,,,,7,,,,,,,,,,,,1b,,,,8,,,,7,,,,6,,,,,,,,,,,,8b,,,1/7,,,2/6,,,3/5,,,4,,,,,,,,,,,,3x/5x,,,,,,,,,,,,
{32}2,,4,,3,,8,,6,,7,,1,,8,,1,2,3,4,5,6,7,8,1x,2,3,4,5,6,7,8,
{4}1x/5xp4[16:5],,,2b/7b,
{16}3,4,3,4,2,5,2,5,1,2,3,4,8,7,6,5,
{16}2,1,2,1,3,8,3,8,2,3,4,5,8,7,6,5,
{16}2,4,2,4,1x,6x,1x,6,5,7,5,7,3,5,3,5,
{16}1,2,3,4,7,6,5,4,2,3,4,5,6,7,8,1,
{16}2,1,2,1,3,6,3,6,8,7,8,7,2,1,2,1,
{16}2,3,4,5,1,2,3,4,7,6,5,4,8,7,6,5,
{16}2,4,2,4,8,7,8,7,2,1,2,1,3,6,4,5,
{16}2b,4b,3b,6b,5b,7b,1b,8b,2b,6b,4b,5b,1b,,,,
{8}C1f/8b,,,,,,,5x/6,
{16}C1f/B2/B3/E4,,,,,,,,5x/6,,,4x/5,,,3x/4,,
{8}C1f/B6/E6/B7,,,,,,,1b/8b,
{32}1h[2:1]/8b,,,,E3,B3,B4,E5,,,,,E7,B6,B5,E5,,,,,,,1/8x,,,,,,2x/7,,,,
{16}3b-8[8:1],,7-3[8:1],,3,,7,,1,,2,2,,6,5,,
{16}4b/5b,,3,2/4,,7,6/8,,2,1/3,,7,8,5,4,1,
{16}2b>5[8:1],,6-2[8:1],,2,,6,,1,,1,8,1,8,2,7,
{96}3b,,,,4,,,,5,,,,6,,,,7,,,,8,,,,1,,,2,,,3,,,4,,,5,,,6,,,7,,,8,,,1,,2,,3,,4,,5,,6,,7,,8,,1,,2,,3,,4,,C1f/5b,,,,,,,,,,,,,,,,,,,,,,,,
{24}3b/7bp4[8:5],,,,,,,,,,,,,,,,,,,E2,C1,E6,,,
{1},
{1},
{1},
E
