&title=VANTABLACK RAVER
&wholebpm=170
&artist=DIVELA feat.桐谷こむぎ
&des=はっぴー
&shortid=11225
&genre=maimai
&cabinet=DX
&version=maimai DX Splash PLUS
&chartconverter=Neskol
&lv_2=4
&des_2=
&lv_3=7+
&des_3=
&lv_4=11
&des_4=Jack
&lv_5=13+
&des_5=はっぴー
&des_6=
&inote_2=
(170){1},
{1},
{1},
{1}1,
{1},
{1}1,
{1},
{1}8,
{1},
{1}8,
{1},
{1}1x/8x,
{2}1,1,
{1}1,
{2}2,2,
{1}2,
{2}3,3,
{1}3,
{2}4,4,
{1}4/5,
{1}4h[1:1]/5h[1:1],
{1},
{1}4x/5x,
{1}B5,
{1}B4,
{1}B6,
{1}B3,
{1}B7,
{1}C1f,
{2}8x,8,
{4}7,7,7,,
{2}6,6,
{4}5,5,4/5,,
{2}4,4,
{4}3,3,3,,
{2}2,2,
{4}1,1,1/8,,
{1}8-5[4:3],
{1},
{1}1-4[4:3],
{1},
{1}5-8[4:3],
{1},
{1}1-4[4:3],
{1},
{1}4x/5x,
{1}5h[1:1]/6h[1:1],
{1},
{1}3h[1:1]/4h[1:1],
{1},
{1}1h[1:1]/2h[1:1],
{1},
{1}7h[1:1]/8h[1:1],
{1},
{2}1,1,
{1}1h[1:1]/8h[1:1],
{1},
{1}1-5[4:3],
{1},
{1}8-4[4:3],
{1},
{1}2-5[4:3],
{1},
{1}B6/E6,
{1}B3/E4,
{1}C1xh[1:1],
{1},
{4}1x,1,1,,
{4}2,2,2,,
{4}3,3,3,,
{4}4,4,4/5,,
{4}5,5,5,,
{4}6,6,6,,
{4}7,7,7,,
{4}8,8,1x/8x,,
{4}8,8,7,7,
{4}6,6,5/6,,
{4}4,4,3,3,
{4}2,2,1/2,,
{4}8,8,7/8,,
{4}1,1,1/2,,
{4}3,3,3/4,,
{4}5,5,5/6,,
{4}4/5,4/5,3b/6b,,
{1},
{1},
{1},
E
&inote_3=
(170){1},
{1},
{4}4x/5x,4x/5x,3x/6x,,
{4}2,2,1,1,
{4}8,8,1x/7x,,
{4}7,7,8,8,
{4}1,1,2/8,,
{4}3,3,4,4,
{4}5,5,4/6,,
{4}6,6,5,5,
{4}4/5,4/5,3/6,,
{1}2b/7b,
{4}3h[4:1],4,4,,
{4}6h[4:1],5,5,,
{4}3h[4:1],4,4,,
{2}5h[4:1]/6h[4:1],5/6,
{4}7h[4:1],8,8,,
{4}2h[4:1],1,1,,
{4}7h[4:1],8,8,,
{2}1h[4:1]/2h[4:1],1/2,
{4}8,8,1,1,
{1}2b-5[8:3]/7b-4[8:3],
{4}3x/6x,2x/7x,1x/8x,,
{1}7<4[8:3],
{1}3>8[8:3],
{1}7<4[8:3],
{1}3>8[8:3],
{4}7,7,8,8,
{1}1x/8x,
{4}2b,1/2,7,7/8,
{4}6,5/6,3,3/4,
{4}2,2,1,1,
{4}8,8,1/7,,
{4}6,5/6,3,3/4,
{4}2,1/2,7,7/8,
{4}6,6,5,5,
{4}4,4,4/5,4/5,
{1}3bV15[1:1]/6bV84[1:1],
{1},
{4}3,3,4,4,
{4}5,5,4/6,,
{4}7,7,8,8,
{4}1,1,2/8,,
{4}3,3,4,4,
{4}4/5,4/5,3x/6x,,
{1}C1f,
{1}B1/B2,
{1}B3/B4,
{1}B5/B6,
{1}B7/B8,
{2}B1,B2,
{2}B3,B4,
{2}B5,B6,
{2}B7,B8,
{1}C1f/B2/B7,
{4}1x,1,8,8,
{4}1/8,1/8,2x/7x,,
{1}7-4[8:3]/8-3[8:3],
{1}1-6[8:3]/2-5[8:3],
{1}4x/7x,
{1}7v4[2:1],
{1}3v8[2:1],
{4}7x,1/8,2x/7x,,
{4}E4,B3,B2,,
{4}E6,B6,B7,,
{4}B3,B4,B5,B6,
{1}C1f,
{4}7x,7/8,2,1/2,
{4}3,3/4,6,5/6,
{4}7,7,8,8,
{4}7/8,7/8,1x/6x,,
{4}2,1/2,7,7/8,
{4}6,5/6,3,3/4,
{4}2,2,1,1,
{4}1/8,1/8,2/7,2/7,
{2}6xh[2:1],5h[2:1],
{2}4h[2:1],3,
{2}2h[2:1],1h[2:1],
{2}8h[2:1],7,
{4}6x,6,5,5,
{4}4,4,3,3,
{4}2,2,1,1,
{4}8,8,7,7,
{4}4x/6x,3x/5x,2b/7b,,
{1},
{1},
{1},
E
&inote_4=
(170){1},
{1},
{16}3x/4x,,,5x/6x,,,4x-1[16:3]/5x-8[16:3],,4x/5x,,,,,,,,
{4}2/7,3,4,3/5,
{8}6,6,5,,4/7,,2/6,,
{4}4/7,6,5,4/6,
{8}3,3,4,,2/5,,3/7,,
{8}4,4,6h[4:1],,5,,4/7,,
{8}5,5,3h[4:1],,4,,2/5,,
{8}4,4,5h[4:1],,4,,2/7,,
{16}4/5,,,4/5,,,2x>4[8:1]/7x<5[8:1],,2x/7x,,,,,,,,
{8}2b/7b,2b/7b,,,,,B1/E2/B8/E8,,
{4}4h[4:1]/5h[4:1],,3h[4:1],4,
{8}2/5,2/5,,,6h[4:1],,5,,
{8}4/7,4/7,,,1h[4:1],,8,,
{8}2/7,2/7,,,3/6-4[8:1],,2-6[8:1],,
{4}8x,,6h[4:1],5,
{8}4/7,4/7,,,3h[4:1],,4,,
{2}2/5<8[16:3],4>1[16:3],
{4}8h[4:1],1,3-5[8:1]/6,7-3[8:1],
{16}1x,,,1x,,,2x/8x,,,2x/8x,,,3x<6[16:3]/7x,,,,
{4},7,7/8,1/2,
{1}4q5[2:1]/5,
{16}5/6,,,5/6,,,4h[8:3]/7h[8:3],,,,,,,,,,
{16}3/4,,,3/4,,,2h[8:3]/5h[8:3],,,,,,,,,,
{8}7h[8:3],,5>2[4:1],5,,,,,
{8}2h[8:3],,4<7[4:1],4,,,,,
{8}1xh[4:1]/8xh[4:1],,,2x/7x,2xh[4:1]/7xh[4:1],,,3x/6x,
{8}3x/6x,,,C1f/B2/B3/B6/B7,,,,,
{8}1b-5[8:1]/8b,,6,,7,7,4,4>1[8:1],
{8}8x,8x,,6,6,1,7,7,
{8}2x,2x/8x,,3x/4x,3x/4x,,1x/6x,1x-5[8:1]/6x-8[8:1],
{8},,,3,3,5,2,2>5[8:1],
{8},8,,6,6,4,7,7<4[8:1],
{8},1,,3,3/4,,2/6,,
{2}3-8[8:1]/7-4[8:1],1-4[8:1]/5-8[8:1],
{16}7h[16:3],,,1h[16:3],,,8-4[16:3],,8x,,,,,,,,
{4}1x>6[2:3]/7x,7,7,7,
{4}8,8,8,8,
{4}7/8,5/6,3/4,1/2,
{8}4/5,,2/7,,1xh[16:1],8xh[16:1],1xh[16:1],8xh[16:1],
{8}1,1,7h[4:1],,8,,1/6,,
{8}8,8,2h[4:1],,1,,3/8,,
{8}1,1,8h[4:1],,1,,2/7,,
{16}4/5,,,4/5,,,2x-5[16:3]/7x-4[16:3],,2x/7x,,,,,,,,
{8}1b/8b,1b/8b,,,,,,,
{1}2h[1:1],
{1}3h[1:1],
{1}4h[1:1],
{1}5h[1:1],
{1}6h[1:1],
{1}7h[1:1],
{2}4h[2:1],5h[2:1],
{1}3>6[2:1],
{16}5/6,,,3/4,,,5/7,,,2/4,,,1-5[16:3]/8-4[16:3],,1/8,,
{4},,3/6,2/7,
{1}1/8q1[2:1],
{16}1/2,,,1/2,,,3h[8:3]/8h[8:3],,,,,,,,,,
{16}7/8,,,7/8,,,1h[8:3]/6h[8:3],,,,,,,,,,
{4}1/2,5/7,3h[16:5]/4h[4:1],,
{4}7/8,2/4,5h[4:1]/6h[16:5],,
{4}1/3,6/8,4h[16:5]/5h[4:1],,
{1}C1hf[2:1]/B2/B3/B6/B7,
{8}3/4,3/4,3/4,,1h[16:3]/6h[4:1],,,,
{8}5/6,5/6,5/6,,3h[4:1]/8h[16:3],,,,
{8}2,2,7,7,1xh[16:1],8xh[16:1],1xh[16:1],8xh[16:1],
{1}C1hf[2:1],
{8}2b/7b-3[8:1],,1,,2,2,5,5<8[8:1],
{8}1x,1x,,3,3,8,2,2,
{8}7x,1x/7x,,5x/6x,5x/6x,,3x/8x,3x-1[8:1]/8x-4[8:1],
{8},,,7,7,5,6,6<1[8:1],
{8},4,,2,2,4,3,3>8[8:1],
{8},5,,7,7-5[8:1]/8-4[8:1],,,,
{2}1-5[8:1]/2-4[8:1],1>4[8:1]/8<5[8:1],
{16}2h[16:3],,,8h[16:3],,,1-5[16:3],,1x,,,,,,,,
{4}3-8[8:1]/7-4[8:1],,2h[8:1],1h[8:1]/3h[8:1],
{4}6h[8:1],5h[8:1]/7h[8:1],3h[8:1],2h[8:1]/4h[8:1],
{8}8,8,2,2,6,6,4,4,
{8}5,6,7,8,1,2,3,4,
{4}5<8[8:1],2,4>1[8:1],7,
{4}6-4[8:1],2-8[8:1],7-3[8:1],,
{8}2,2,4,4,5,5,7,7,
{8}1xh[16:1],8xh[16:1],1xh[16:1],8xh[16:1],2xh[16:1],7xh[16:1],2xh[16:1],7xh[16:1],
{4}B3/B4/E4,B7/B8/E8,C1f/E2/E6,,
{1},
{1},
{1},
E
&inote_5=
(170){1},
{1},
{16}2/7,,,1/8,,,4/5,,3-5[8:1]/6-4[8:1],,,,,,,,
{16}3/7,,8,,8,,5,,4,,4,6,,6,5,,
{16}3,4,,7,5,,2,4,,7,5,,4/8,,,,
{16}2/6,,1,,1,,4,,5,,5,3,,3,4,,
{16}6,5,,3,4,,7,5,,2,4,,1/5,,,,
{16}3,3,4,2,,6,5,,7,8,,2,4,3,5,4,
{16}6,6,5,7,,3,4,,2,1,,7,5,6,4,5,
{16}3,3,4,2,,6,5,,7,8,,2,4,,4/5,,
{16}4/5,,,5/7,,,1/8,,3,3,4-8[8:1],2,,,4/5,,
{16}6,,6,,,,,,,,5,5,4,,,,
{8}3/7,6,5,4,4,5,E4/E6,B3/B6,
{8}B2/B7,E2/E8,1v4[8:1],1,8v5[8:1],8,4,4,
{8}6,6,3,3,5s1[2:1],5,6,6,
{8}7x,7x,8,8,1,1,2<7[8:1],2,
{8}6,6,5,4,3-8[8:1],3,4-8[8:1],4,
{8}1,1,8,8,6,5,7V51[4:1],7,
{8}4,3,2V48[4:1],2,5,6,7,7,
{8}4/6,3,3/5,6,4/6,3,2/5,6,
{16}4/7,,,2/5,,,5/7,,,2/4,,,5-2[8:1],,6,,
{16}5/7,,8,,8,,4,,3,3,4,2,,6,5,7,
{16}1,8,,3/7,,6,5,6,7,6,,1,,3,4,,
{16}3/5,,,4/6,,,5/7-5[8:1],,5/7-1[8:1],,,,,,,,
{16}2/8,,,1/3,,,2-4[8:1]/4,,2-8[8:1]/4,,,,,,,,
{16}4,,3,4,,6,5,,8-4[8:1],,8,,1,,1,,
{16}5,,6,5,,3,4,,1-5[8:1],,1,,8,,8,,
{16}4,,3,4,2,4,3,,1/5,,6,5,7,5,6,,
{16}4/8,,,2-6[8:1]/6,,,,,,,,,1>4[8:1]/8<5[8:1],,,,
{8}1x/8x,,1<7[8:1],5,1>3[8:1],5,1-7[8:1],5,
{8}1-3[8:1],5,1,5,4-8[8:1],4,5-1[8:1],5,
{8}3x,3x,4,5,5,2-7[8:1]/6-3[8:1],3/7,2b/6b,
{8},1b/5b,,6-4[8:1],2-4[8:1],6-1[8:1],2-5[8:1],6,
{8}2,7,7,8,1-4[8:1],1,8-5[8:1],8,
{8}4-1[8:1],4,5-8[8:1],5,1,,3/4<8[4:1],,
{4},5>1[4:1],,4<8[4:1],
{32},,,,,,,,1,,,,B2,B3,E4,,B7,B6,E6,,,,1,,,,,,8<1[8:3],,,,
{8},C1f/B4/B5,,,,,1b,,
{16}7-4[8:1],,7,,3-8[8:1],,3,,6,,6,5,,5,7,,
{16}2-5[8:1],,2,,6-1[8:1],,6,,3,,3,4,,4,2,,
{16}3/5,,,4/6,,,3/7,,B4,B5,E3,E7,E2,E8,E4,,
{16}7,5,7,5,,1,4,,8,5,,1,4,,2,,
{16}2,4,2,4,,8,5,,1,4,,8,5,,7,,
{16}7,5,7,5,,1,4,,8,5,,1,4,,2,,
{16}2h[16:3],,,3h[16:3],,,4,,7h[16:3],,,6h[16:3],,,5,,
{8}4/7,4/7h[8:67],,,,,,,
{8}E1,B1,B3,E4,5,5,5,5,
{8}E1,B8,B3,E4,5,5,5,5,
{8}E1,B1,B3,E4,5,5,5,5,
{8}E1,B1,B3,E4,5,5,5,5,
{8}E8,B7,B3,E4,5,5,5,5,
{8}E1,B8,B3,E4,5,5,5,5,
{8}E8,B7,B3,E4,5,5,5,5,
{8}E1,B8,B3,E4,5,5,5,5,
{16}4/6,,,2/4,,,5/7,,,1/8,,,5-2[8:1]/6p2[8:1],,4/7,,
{16},,,,1,,1,,6,6,5,7,,3,4,2,
{16}8,1,,2/6,,3,4,3,2,3,,8,,6,5,,
{16}4/6,,,3/5,,,2-4[8:1]/4,,2-8[8:1]/4,,,,,,,,
{16}1/7,,,6/8,,,5/7-5[8:1],,5/7-1[8:1],,,,,,,,
{16}5,,6,5,,3,4,,1-5[8:1],,1,,8,,8,,
{16}4,,3,4,,6,5,,8-4[8:1],,8,,1,,1,,
{16}5,,6,5,,3,4,,1,,1,,8,,2,,
{16}3x/5x,,,4x/7x,,,3x/6x,,1,8,3,6,2,7,4,5,
{16}1x,2,3,4,1x,2,3,4,8x,7,6,5,4,,,,
{16}8x,7,6,5,8x,7,6,5,1x,2,3,4,1x,2,3,4,
{16}8x,7,6,5,8x,7,6,5,1x,1,2,2,3,3,4,,
{16}3/5,,,4/6,,,4/5,,4>1[8:1]/5<8[8:1],,,,4x/5x,,,,
{8}2b/7b,,8>2[8:1],4,8<6[8:1],4,8-2[8:1],4,
{8}8-6[8:1],4,8,4,5-1[8:1],5,4-8[8:1],4,
{8}6x,6x,5,4,4,3-6[8:1]/7-2[8:1],2/6,3b/7b,
{8},4b/8b,,3-5[8:1],7-5[8:1],3-8[8:1],7-4[8:1],3,
{8}7,2,2,1,8-5[8:1],8,1-4[8:1],1,
{8}5-8[8:1],5,4-1[8:1],4,8,,5>1[4:1]/6,,
{4},4<8[4:1],,5>1[4:1],
{32},,,,,,,,8,,,,B7,B6,E6,,B2,B3,E4,,,,8,,,,,,1b,,,,
{8},3b/6b,,,4/6,8,3/5,1,
{8}4/6,2/7,1/8,2/7,B4/E4/B5/E6,1/8,B3/E3/B6/E7,1/8,
{8}7,4/6,3/5,2/7,B4/E4/B5/E6,1/8,B3/E3/B6/E7,1/8,
{8}2,7,1/8,2/7,B4/E4/B5/E6,1/8,B3/E3/B6/E7,1/8,
{16}4,5,4,5,3,6,3,6,4,5,2,7,3,6,1,1,
{24}8x,7,6,5,4,3,1x,8,7,6,5,4,3-7[8:1],,,3,,,6,,,5,,,
{16}4,4,5,5,3,3,6,6,2,2,7,7,1,1,8,8,
{48}E3,,B3,,B4,,E7,,B6,,B5,,E2,,B2,,B3,,E8,,B7,,B6,,1,,,8,,,1,,,8,,,1b,,,,,,,,,,,,
{12}2b/6b,1,8,3b/7b,4,5,2b/6b,,,,,,
{1},
{1},
{1},
E
