&title=Splash Dance!!
&wholebpm=155
&artist=曲:Q-MHz/歌:オンゲキシューターズ
&des=はっぴー
&shortid=11249
&genre=オンゲキCHUNITHM
&cabinet=DX
&version=maimai DX Splash PLUS
&chartconverter=Neskol
&lv_2=3
&des_2=
&lv_3=7
&des_3=
&lv_4=10
&des_4=サファ太
&lv_5=13
&des_5=はっぴー
&des_6=
&inote_2=
(155){1},
{1},
{1}1x,
{1}1x,
{1}8x,
{1}8x,
{1}1,
{1}1,
{1}2,
{1}2,
{1}3x,
{1}3x,
{1}4x,
{1}4b/5b,
{1}5h[1:1],
{1},
{1}6h[1:1],
{1},
{1}7h[1:1],
{1},
{1}1h[1:1]/8h[1:1],
{1},
{1}8,
{1}7,
{1}6,
{1}5/6,
{1}4,
{1}3/4,
{1}5,
{1}4/5,
{1}B4,
{1}B5,
{1}B3,
{1}B6,
{1}B2/B3,
{1}B6/B7,
{1}C1hf[1:1],
{1},
{4}1x,1,1,,
{2}2,2,
{4}3,3,3,,
{2}4,4/5,
{4}5,5,5,,
{2}6,6,
{4}7,7,7,,
{1}1x/8x,
{4}8,8,8,,
{2}7,7,
{4}6,6,6,,
{2}4/5,4/5,
{2}3,2,
{2}1,1-5[2:1],
{1},
{2}6x,7x,
{2}1b/8b,8,
{4}7,7,7,,
{2}6,6,
{4}5,5,4/5,,
{2}4,4,
{2}3,3,
{2}2,2,
{4}1,1,1/8,,
{1}1-4[2:1],
{1},
{1}8-5[2:1],
{1},
{1}1-5[2:1],
{1},
{1}8-4[2:1],
{1},
{1}B3,
{1}B4,
{1}B5,
{1}B6,
{1}B3/B4,
{1}B5/B6,
{1}C1hf[1:1],
{1},
{4}8,8,8,,
{4}7,7,7,,
{4}6,6,6,,
{4}5,5,4/5,,
{2}3,2,
{4}1,1,1-5[2:1],,
{1},
{4}6x,6x,6x,,
{4}7x,7x,7x/8x,,
{4}2x,2x,1x/2x,,
{4}8x,8x,1x/8x,,
{1}1xh[2:1]/8xh[2:1],
{2}1b,1,
{1}2h[2:1],
{2}3,3,
{1}4h[2:1]/5h[2:1],
{4}6,6,6,,
{4}7,7,7,,
{1}7h[2:1]/8h[2:1],
{1}1h[2:1]/2h[2:1],
{4}1x/8x,1x/8x,1x/8x,,
{4}2x/7x,2x/7x,2b/7b,,
{1},
{1},
{1},
E
&inote_3=
(155){1},
{1},
{4}5/6,5h[4:1]/6h[4:1],,,
{4}3/4,3h[4:1]/4h[4:1],,,
{4}1/2,1h[4:1]/2h[4:1],,,
{4}7,7,8,8,
{1}1bpp4[4:5]/8bqq5[4:5],
{1},
{4}3,3,4,4,
{4}5,5,4/6,,
{4}7,7,7b/8b,,
{4}2,2,1b/2b,,
{1}1b-4[8:3]/8b-5[8:3],
{4}4x/5x,4x/5x,3x/6x,,
{4}7h[2:1],,8,1,
{4}2h[2:1],,1,8,
{4}7h[2:1],,8,8,
{4}1,1,2/8,,
{4}3h[2:1],,4,5,
{4}6h[2:1],,5,4,
{4}3,3,4,4,
{4}4/5,4/5,3x/6x,,
{4}7,7,7/8,,
{4}2,2,1/2,,
{4}7,7,8,8,
{4}1,1,2/8,,
{1}3>8[8:3],
{1}7<4[8:3],
{4}3,3,4,4,
{4}4/5,4/5,3x/6x,,
{2}B7/E8,B5/E6,
{4}E4,B3,B2,,
{2}B7/E8,B5/E6,
{4}B2,B3,E4,,
{4}E6,B6,E7,,
{4}E4,B3,E3,,
{4}B6,B5,B4,B3,
{1}C1f/B2/B7,
{4}2,2,1/2,1/2,
{4}7,7,7/8,7/8,
{4}6,6,5,5,
{4}4,4,3b/5b,,
{1}2>5[8:3],
{4}6,6,5/6,,
{2}7h[4:1]/8h[4:1],1h[4:1]/2h[4:1],
{4}1/8,1/8,2/7,,
{4}6,6,5/6,5/6,
{4}3,3,3/4,3/4,
{4}2,2,1,1,
{1}1b>4[8:3]/8b<5[8:3],
{2}6h[2:1],5h[2:1],
{2}4h[2:1],3>6[4:3],
{1},
{4}6,5,4,3,
{1}4b-8[8:3]/5b,
{4}7,7,7/8,,
{1}7-4[8:3],
{4}3,3,3/4,,
{4}2,1,1h[4:1]/2h[4:1],,
{4}7,8,7h[4:1]/8h[4:1],,
{4}6,5,4,3,
{4}2,1,8,7,
{1}6<5[4:5],
{1},
{1}4>1[8:3],
{4}8,8,1/8,,
{4}B7,B6,E6,,
{4}B2,B3,E4,,
{4}B6,B5,B4,B3,
{1}C1f,
{1}3xh[1:1],
{1}4h[1:1],
{1}5h[1:1],
{1}6,
{1}7<4[8:3],
{1}3>8[8:3],
{2}7,1/2,
{4}1/8,1/8,2x/7x,,
{4}3,3b/4b,3,3/4,
{4}6,5/6,6,5/6,
{4}7,7,8,8,
{1}1b>4[8:3]/8b<5[8:3],
{2}3h[2:1],4h[2:1],
{2}5h[2:1],6<3[4:3],
{1},
{4}3,4,5,6,
{4}7/8,7h[4:1]/8h[4:1],,,
{4}1/2,1h[4:1]/2h[4:1],,,
{4}3/4,3h[4:1]/4h[4:1],,,
{4}6,6,5,5,
{1}4bqq1[4:5]/5bpp8[4:5],
{1},
{4}2,2,3,3,
{4}4,4,3/5,,
{4}6,6,5b/6b,,
{4}3,3,3b/4b,,
{1}4b-1[8:3]/5b-8[8:3],
{2}1h[4:1]/8h[4:1],2/7,
{4}6,6,5/6,,
{4}4/5,4/5,4/5,3b/6b,
{1},
{1},
{1},
E
&inote_4=
(155){1},
{1},
{4}2x/8x,1x/7x,2/6,2/6,
{4}1x/7x,2x/8x,3/7,3/7,
{4}2x/8x,1x/7x,2/6,2b/6b,
{8}3xh[16:3]/5xh[16:3],,,4x/6x,4xh[16:3]/6xh[16:3],,,2x/7x,
{1}2bV41[4:3]/7bV58[4:3],
{4},,1/8,2/7,
{4}3,2/4,6,5/7,
{4}2,1/3,8,1/7,
{8}2x/4x,,4x/5x,,5x/7x,,8,8,
{16}1,,,2x/7x,,,3x/6x,,3x/6x,,,,4x/5x,,,,
{4}C1f/B2/B6,,1x/8x,2/7,
{4}3/6,3h[3:1]/6h[3:1],,4x/5x,
{4}4h[4:5],5,6,5,
{4}7,5,3/4,3/4,
{4}5h[4:3],3,4,2,
{4}3/4,2/5,5/6,4/7,
{4}E8,B5,E2,B4,
{4}E8,B3/B5,E2,B4/B6,
{2}8-4[4:1],1-5[4:1],
{8}8x,,1h[4:1]/7h[4:1],,,2x/6x,2x/6x,,
{4}3h[2:3],4,5,4,
{4}6,4,5,2/4,
{4}6h[2:3],5,3,4,
{4}3,5,7,7/8,
{2}6>3[4:1],2q7[4:1],
{8}8h[2:1],,,,1,1,1,,
{4}2/8,1/7,2/6,3-8[4:1]/7-4[4:1],
{2},1x/5x,
{16}5x/6x,,,5x/6x,,,3x/7x,,,,8,,8,,,,
{16}7h[16:3],,,6h[16:3],,,5,,,,4,,4/5,,,,
{16}3x/4x,,,3x/4x,,,2x/6x,,,,1,,1,,,,
{16}2h[16:3],,,3h[16:3],,,4,,,,5/6,,5/6,,,,
{2}7-2[4:1],3-6[4:1],
{4}7>2[4:1],,3,3/4,
{8}5xh[16:3]/6xh[16:3],,,4x/5x,4xh[16:3]/5xh[16:3],,,3x/4x,
{4}3x/4x-8[4:1],,,1b/7b,
{4}2/8,1/7,3/8,1/6,
{4}2/8,1/7,3/8,2/6,
{4}3/7,1/6,2/8,1/7,
{8}3/8,,4/5,,2b/7b,,,6,
{4}5/6,3x/7x,2x/6x,3x/8x,
{4}1b/6b,3b/8b,1b/6b,7-4[8:1]/8,
{4},1/2-5[8:1],,6-3[8:1],
{8}2-7[8:1],,5,,1b/6b,,,2,
{4}2/8,1/7,3/8,1/7,
{4}2/8,1/6,3/7,1/6,
{4}2/8,1/7,3/8,4/6,
{16}C1f/B3/B7,,,,,,1x,,1x,,,2x/8x,,,3x/7x,,
{4}3x/7x,2-5[8:1]/8-5[8:1],,1-4[8:1]/7-4[8:1],
{8},,3x/5x,,4x/6x,,2/8,2h[4:1]/8,
{8},3h[4:1],,4h[4:1],,5,4/5,,
{4}3x/5x,4x/6x,2x/5x,4x/7x,
{4}3x/6x,8b-6[8:1],2-5[8:1],8<3[16:5],
{2},2x/5x,
{4}3x/6x,1b-3[8:1],7-4[8:1],1>6[16:5],
{2},4x/7x,
{16}3h[16:3],,,2h[16:3],,,1,,8x,,8x,,1b/7b,,,,
{16}6h[16:3],,,7h[16:3],,,8,,1x,,1x,,2b/8b,,,,
{16}7h[16:3],,,8,,,1/6,,2h[16:3],,,1,,,3/8,,
{4}3b/8b,1b/6b,4b/7b,2b/5b,
{1}C1hf[2:1]/B2/B6,
{4},,1/8,2/7,
{4}3,1,8,6,
{4}4,2/6,5,3/7,
{8}6,6,5,5,7,,4/8z4[2:1],,
{4},,,3x/5x,
{8}2,2,4,4,3,3,6,6,
{4}5,4/7,5/6,4/5-8[2:1],
{4},,,1-4[2:1],
{4},,,5-8[2:1],
{4},,,1-4[2:1],
{1},
{4}E8,B7,B6,E6,
{4}E3/B4,B5/E7,C1/B2/B6,,
{2}1h[4:1]/7h[4:1],2h[4:1]/8h[4:1],
{4}3h[4:1],5h[4:1],4x,4-8[8:1]/5-1[8:1],
{4},2b/7b,1/6,3/8,
{4}1/7,2/8,1/6,3/8,
{4}2/6,3/8,1/7,4/5,
{4}C1f/B3/B6,,1/8,5-1[8:1]/6-1[8:1],
{4},3-8[8:1]/4-8[8:1],,5-1[8:1]/6-1[8:1],
{8},,2/8,,3/4,,4/5,4w8[8:3]/5,
{8},,,,,,,2x/6x,
{4}2b/6b,4b/8b,1b/5b,3b/7b,
{8}4x/6x,,7b/8b,,6,6,5x/7x,,
{8}3x/5x,,1b/2b,,3,3,2x/4x,,
{8}4b/6b,,2b/8b,,1,1,2b/8b,,
{16}2h[16:3],,,3h[16:3],,,4,,5h[16:3],,,6h[16:3],,,7,,
{1}7bqq4[4:5]/8bpp3[4:5],
{1},
{4}E6/E7,E1/E8,E2/E3,E4/E5,
{4}E6/E7,E1/E8,E2/E3,C1,
{8}1-5[8:1]/7-4[8:1],,,,3x/6x,,5/7,5/7,
{16}5x/7x,,,4x/6x,,,3x/5x,,3x/5x,,,,2>7[2:1]/7,,,,
{1}C1f,
{4}5/7,4/5,2/4,1/8,
{8}2-5[8:1],,6-1[8:1],,3,,,2/8,
{16}2x/8x,,,3x/4x,,,5x/6x,,5b-1[8:1]/6b-1[8:1],,,,,,,,
{1},
{1},
{1},
E
&inote_5=
(155){1},
{1},
{8}2-5[8:1]/4-8[8:1],,2x/4x,,,5,4b/6b,,
{8}5-1[8:1]/7-4[8:1],,5x/7x,,,1,2b/8b,,
{8}2-5[8:1]/4-8[8:1],,2x/4x,,,8,1b/7b,2,
{48}2/5,,,,,,,,,3/6,,,,,,,,,4/7,,,,,,4/7,,,,,,6x,,5x,,4x,,3x<1[8:3],,,,,,,,,,,,
{4}C1f,,,3x/5x,
{16}5/6,,,7,8,,2,,3/4,,,2,1,,7,,
{16}5/6,,,7,8,,2,,3/4,,,2,1,,7,,
{4}5>2[8:1]/6,8-4[8:1],2,3-6[8:1]/5-8[8:1],
{8}3/5-1[8:1],,5x,,3x/7x,8,8,1,
{16}1,,7,5,,2,4,,3h[4:1]/5,,,,4<3[8:3],,,,
{4}C1f,,,4/5,
{12}2x/7x,,,2x/7x,,,,1/8,1/8,1/8,,,
{16}4/7h[2:1],,4,,5,,5,,4,,,3/6,,,2/5,,
{16}2h[2:1]/5,,5,,4,,4,,5,,,3/6,,,4/7,,
{16}4/7h[2:1],,4,,5,,5,,4,,,3/6,,,2/5,,
{4}2-6[8:1]/5,7-1[8:1],3-5[8:1],8b,
{16}5/7h[2:1],,5,,3,,2,,1,,,1/3,,,2/4,,
{16}2h[2:1]/4,,4,,6,,7,,8,,,6/8,,,5/7,,
{8}5/7>2[8:1],,4,4q5[8:3],,6x,6x,,
{8}8x,,B3/E3/E4/B6/E6/E7,,,4/5,4/5,,
{16}3h[2:1]/8,,8,,1,,1,,8,,,2/7,,,1/6,,
{16}1/6h[2:1],,1,,8,,8,,1,,,2/7,,,3/8,,
{16}3h[2:1]/8,,8,,1,,1,,8,,,2/7,,,1/6,,
{8}1/6-2[8:1],,3-5[8:1],,7,7,4>2[8:1]/6<8[8:1],,
{4}4/6,3>1[8:1]/5<7[8:1],3/5,2/6h[4:1],
{8}8bp3[4:1],,,,2x,2,1x,1,
{16}2/8,,3,4,,7,8,,1/7,,6,5,,2,1,,
{4}2/8,4>1[8:1]/6<1[8:1],4x/6x,3x/7x,
{16}2/5,,4-1[8:1]*-7[8:1],3,,,4x,,,,3/5,,3/5<1[4:1],,,,
{8}1>5[4:1],,5,,1,2,3/6,,
{16}4/7,,5>2[8:1]*<8[8:1],6,,,5x,,,,4/6,,4V28[4:1]/6,,,,
{8}8V64[4:1],,4>8[4:1],,8,,4,5,
{16}3h[8:1]/6h[8:1],,,,3h[8:1]/6h[8:1],,,,7/8,,,1/6,,,2/5,,
{16}3h[8:1]/6h[8:1],,,,3h[8:1]/6h[8:1],,,,1/2,,,3/8,,,4/7,,
{16}3/6,,6,5,,2,1,,3/7,,3,4,,7,8,,
{16}2b/6b,,3,4,,6,5,,4w8[8:1],,3/5,,,,,,
{16}2b/6b,,7,8,,2,1,,3/4,,,4/5,,,5/6,,
{16}E1/6b,,,E2/7b,,,E3/8b,,4/8,,6,5,,3,4,,
{16}1/2,,,7/8,,,5/6,,4/7,,6,5,,7,8,,
{16}1/2,,3,4,,,1/8,,C1f/B3/B4/B5/B6,,,,,,1x/8x,,
{16}1x/8x,,,,2b/4b,,3b/5b,,4b/6b,,,3b/7b,,,2,,
{16}2z6[4:1],,,6,,,8,,8qq8[4:1],,,,3,,2,,
{8}1pp1[4:1],,5,6,7,,1-5[8:1]/7-3[8:1],,
{12}1/7,,,1x/7x,,,,3/6,3/6,3/6,,,
{16}4/5,,2,1,,7,8,,5b/6b,,,4b/5b,,,3b/4b,,
{32}2/5,,,,E4,B3,E3,,,,E6,B6,E7,,,,1,,,,2,,4,,,,7,,5,,,,
{16}7/8,,,1/2,,,3/4,,2/5,,3,4,,6,5,,
{8}4h[4:1]/6h[4:1],,,2/7,2qq4[8:3]/7pp4[8:3],,,,
{8},,5-1[8:1]/6-8[8:1],5/6,,,3-1[8:1]/4-8[8:1],3/4,
{8},,4/5,3/6,2/7,2/7pp4[8:3],1,1h[2:1],
{16},,,,,,3x,,2x/4x,,5,,3/6,,7,5,
{16}6,,2,4,3,,6,5,8,,3,4,1,,6,5,
{8}7-1[8:1],,7b,3,4,5,6,5>2[8:1],
{8}5<8[8:1],,,1x,1x,3/7,3/7,,
{8}2-8[8:1],,2b,6,5,4,3,4pp6[8:1],
{8}4qq2[8:1],,,8x,8x,2/6,1/7,,
{16}2/8,,,3/7,,,4/6,,4-2[8:1]/6-8[8:1],,5x,,4x/6x,,,,
{16}1/7,,,2/6,,,3/5,,3-1[8:1]/5-7[8:1],,4x,,3x/5x,,,,
{32}E6,B6,E7,,,,E4,B3,E3,,,,5x,,,,E6,B6,B7,E8,,,E4,B3,B2,E2,,,8x,,,,
{4}8w4[8:1],8x,1w5[8:1],1x>7[8:3],
{8}C1f,,,8x,8x,1x,1,2/7,
{16}2/7,,,7,5,,4/8,,3/7,,2,,2/4,,2/4,,
{8}3/5<8[8:1],,4,,2,2,4,4,
{16}3/5,,6,5,7<4[8:1],,7,,3,,,,2,,3,4,
{16}3,,6,5,6,,2,1,2,,7,8,7,,6,,
{48}6,,,,5,,,,7,,,,3,,,,4,,,,2,,,,8b,,,,,,,,,,,,3/6,,,,,,8x,,,7,,,
{16}1x,2,8x,7,1x,2,8x,7,2x,3,7x,6,2x,3,7x,6,
{16}1x,,3x,4,5s1[8:3],,5,,,,,,,,,,
{1}5q6[8:3],
{2}8-5[4:1],4pp2[8:3],
{4},5s1[8:3],,,
{4}5-8[4:1]*q4[4:1],,,3/6,
{16}4/5,,,5,4,,5,,4/5,,,5,4,,5,,
{16}4/5,,,5,4,,5,,4/5,,,5,4,,5,,
{16}4/6,,6,,4,,4,,3,3,5,5,4,4,6,,
{12}4/5,,,1/8,,,3x/6x,3x/6x,3x/6x,4x/5x,3x/6x,2x/7x,
{16}2-5[8:1]/7-4[8:1],,,,2b/7b,,,,1<7[8:1]/5x,,,5,1>3[8:1],,5,,
{16}1-7[8:1]/6x,,,6,1-3[8:1],,6,,1<7[8:1]/5x,,,5,1>3[8:1],,5,,
{16}1-7[8:1]/6x,,,6,1-3[8:1],,6,,1<7[8:1]/5x,,,5,1,,5,,
{8}1/6,,3pp1[8:3]/5qq7[8:3],3/5,,,,,
{8}2x/6x,,3>8[8:1]/4v7[8:1],2/5,,,5v2[8:1]/6<1[8:1],4/7,
{8},,4/5,3/6,2/7,2pp1[8:3]/7,8,8h[2:1],
{16},,,,,,2x,,3x/7x,,4,,3/6,,7,5,
{16}6,,2,4,3,,6,5,8,,3,4,1,,5/7,,
{8}5-1[8:1]/7<4[8:1],,5x/7x,,,1,2b/8b,,
{8}2>5[8:1]/4-8[8:1],,2x/4x,,,8,1b/7b,,
{8}5-1[8:1]/7<4[8:1],,5x/7x,,,1,2b/8b,7,
{48}4/7,,,,,,,,,3/6,,,,,,,,,2/5,,,,,,2/5,,,,,,3x,,4x,,5x,,6x>8[8:3],,,,,,,,,,,,
{4}C1f,,,4x/6x,
{16}3/4,,,2,1,,7,,5/6,,,7,8,,2,,
{16}3/4,,,2,1,,7,,5/6,,,7,8,,2,,
{4}3/5<8[8:1],1-5[8:1]/5,1/8,4-1[8:1]/6-3[8:1],
{8}4-8[8:1]/6,,4x,,2x/6x,1,1,8,
{16}8,,2,4,,7,5,,4/6h[4:1],,,,5,,,,
{32}C1f/4x,3x,2x,1x,8x,7x,6x,5x,4x,3x,2x,1x,8x,7x,6x,5x,4x,3x,2x,1x,8x,7x,6x,5x,4x,3x,2x,1x,8x,7x,6x,5x,
{4}4x,4-1[8:1]/5-8[8:1],,2-7[8:1]/6-3[8:1],
{16}2/6,,,,1/5,,,,3x/7x,,,3x/7x,,,2x/6x,,
{48}2/6,,,,,,3,,,4,,,,,,6,,,5,,,,,,8h[4:1],,,,,,5x,,4x,,3x,,2x,,,,,,,,,,,,
{1},
{1},
{1},
E
