&title=Shiny Smily Story
&wholebpm=168
&artist=hololive IDOL PROJECT
&des=ものくろっく
&shortid=11259
&genre=POPSアニメ
&cabinet=DX
&version=maimai DX Splash PLUS
&chartconverter=Neskol
&lv_2=2
&des_2=
&lv_3=7
&des_3=
&lv_4=10
&des_4=サファ太
&lv_5=12
&des_5=ものくろっく
&des_6=
&inote_2=
(168){1},
{1},
{1}1,
{1},
{1}1,
{1},
{1}8,
{1}8,
{1}1,
{1}1x/8x,
{1}1,
{1}1,
{1}2,
{1}2,
{1}3,
{1}3,
{1}4,
{1}4,
{1}4b/5b,
{1}5h[1:1],
{1},
{1}6h[1:1],
{1},
{1}7h[1:1],
{1},
{1}1h[1:1]/8h[1:1],
{1},
{1}8,
{1}7,
{1}6,
{1}4/5,
{1}3,
{1}2,
{1}1,
{1}1x/8x,
{1}1-4[4:3],
{1},
{1}8-5[4:3],
{1},
{1}B4,
{1}B5,
{1}B3,
{1}B6,
{1}B2/B7,
{1}C1f,
{2}1x,1,
{2}2,2,
{2}3,3,
{1}4/5,
{2}5,5,
{2}6,6,
{2}7,7,
{1}1x/8x,
{2}8,8,
{2}7,7,
{2}6,6,
{2}4/5,4/5,
{2}4,4,
{2}3,3,
{2}2,2,
{2}1x/8x,1/8,
{1}1h[1:1]/8h[1:1],
{1},
{1}1-4[8:13]/8-5[8:13],
{1},
{1},
{1},
E
&inote_3=
(168){1},
{1},
{1}3xh[1:1],
{1}4h[1:1],
{1}5h[1:1],
{1}6,
{1}7<4[2:1],
{1}3>8[2:1],
{1}7<2[4:3],
{2},1x/8x,
{4}7,7,7/8,,
{4}2,2,1/2,,
{4}7,7,8,8,
{4}1,1,2/8,,
{4}3,3,3/4,,
{4}6,6,5/6,,
{4}4,4,5,5,
{1}4-1[2:1]/5,
{1}8-4[2:1],
{2}3h[2:1],4,
{2}6h[2:1],5,
{2}3h[2:1],4,
{2}5h[4:1]/6h[4:1],5/6,
{1}4>1[2:1],
{1}8<5[2:1],
{4}4h[2:1],,5,5,
{1}4-1[2:1],
{2}7h[2:1],8,
{2}2h[2:1],1,
{2}7h[2:1],8,
{2}1h[4:1]/2h[4:1],1/2,
{1}8-5[2:1],
{1}4-1[2:1],
{8}8h[8:3],,,1,,1x/8x,,1>4[2:1]/8<5[2:1],
{1},
{2}B3,B4,
{2}B5,B6,
{2}B7,B8,
{2}B1,B2,
{1}B4/B5,
{1}E3/E7,
{4}2,2,1/2,,
{4}7,7,7/8,,
{4}1,1,8,8,
{4}1/8,2b/7b,,,
{4}3,3,3/4,3/4,
{4}2,1,2/8,,
{4}7,7,7/8,7/8,
{4}6,5,4/6,,
{4}3h[4:1],4,3x/4x,,
{4}6h[4:1],5,5x/6x,,
{4}4,4,5,5,
{4}4/5,3/6,2b/7b,,
{4}2,2,1/2,1/2,
{4}3,4,3/5,,
{4}6,6,5/6,5/6,
{4}7,1/8,2/7,,
{4}2h[4:1],1,1x/2x,,
{4}7h[4:1],8,7x/8x,,
{1}1>4[2:1]/8<5[2:1],
{4}4/5,4/5,3/6,,
{1}2>5[2:1],
{1}6<1[2:1],
{4}2,3,4,5,
{4}6,7,1xh[8:3]/8xh[8:3],,
{1},
{1},
{1},
E
&inote_4=
(168){1},
{1},
{1}4-1[4:3]/5h[1:1],
{1},
{1}4-1[4:3]/5h[1:1],
{4},,,4x/5x,
{4}3x/4x-8[4:1],,,7,
{4}5xp1[4:1]/6x,,,7,
{1}1x>4[8:3]/8x<5[8:3],
{8}4x/5x,4x/5x,,2x/7x,2b/7b-3[4:1],,,,
{4}2,1,7,6/8,
{4}7,8,2,1/3,
{4}2,1,7,6/8,
{8}1/7,,2/8,2/8,,3/7,3/7,,
{4}2,1,7,6/8,
{4}7,8,2,1/3,
{4}3h[4:1],4h[4:1],5h[4:1],6,
{8}4/7,4/7p2[8:3],,,,,,,
{8}1x/8x,1x/8x,,2b/7b,,,4/5,,
{8}3,3,4,,6,6,5,5,
{8}7h[4:1],,5,5,,4/6,4/6,,
{8}3/4,,2,2,,1/2>5[8:3],,,
{8},,,,,4/5,,6h[4:1],
{8},5,,4/7,,4/7,,5/6,
{8},3,3,4,,1/8,,2/7,
{8}2h[4:1]/7,,4,,3/6h[4:1],,5,5,
{8}7,7,,2/5,,3x/7x,,,
{8}4,4,6h[4:1],,5,5,5/6p3[2:1],,
{8},,,,,2,2,,
{8}3/5,,4/6,4/6,,5/7p4[2:1],,,
{8},,,,,1x,,1h[4:1],
{8},4,4,3,,4/6,,5/7,
{8},6,5,4,,3/7,,2,
{8}2h[4:1],,8,8,,1/7,,2q6[8:3]/8p4[8:3],
{4},,,3<6[8:3],
{8},,,8x,8x,,7>2[8:3],,
{8},,,4x,4x,,3<6[8:3],,
{8},,,8x,8x,,1,1,
{8},7,7h[4:1],,5,5,,4/6,
{8},3/5,3/5,,2,1x/2x,1x/2x,1x/2x,
{8},3/7,3/7,,6,5x/6x,5x/6x,5x/6x,
{4},E8,C1,E4,
{4}B2/E3,B1/E1/B8,B7/E7,B4/B5/E5,
{8}1x,1x,8x,,2x/7x,2x/7x,,4xh[4:1]/5xh[4:1],
{4},C1f/B2/B3/E3/B6/B7/E7,,1x/8x,
{8}2/7,,3/4,,5/6,,7/8,7/8,
{8},1/2q6[4:1],,,,8x,8x,,
{8}2/7,,5/6,,3/4,,1/2,1/2,
{8},7p3[4:1]/8,,,,2x,2x,1/2,
{8}1/2,1<6[4:1]/2>5[4:1],,,,,,7/8,
{8}7/8,7<4[4:1]/8>3[4:1],,,,,,1/6,
{4}1/6,7,4/8h[4:1],3>6[4:1],
{2},C1f/B3/B4/B5/B6,
{8}1/7,,5/6,,3/4,,1/2,1/2,
{8},7<3[4:1]/8,,,,1x,1x,,
{8}2/8,,3/4,,5/6,,7/8,7/8,
{8},1/2>6[4:1],,,,7x,7x,7/8,
{8}7/8,7<4[4:1]/8p3[4:1],,,,,,1/2,
{8}1/2,1q6[4:1]/2>5[4:1],,,,,,7/8,
{8}7/8,7<1[8:3]*p1[8:3]/8,,,,,,,
{8}2x/7x,2/7,,3/6,3b/6b,,1x/8x,1x/8x,
{8}2x/7x,,3/4,3/4h[4:1],,5,5h[4:1],,
{8}7,7h[4:1],,8,8,,1/7,,
{8}8-4[8:1],,2,2-5[8:1],,6,6-1[8:1],,
{8}2,2,,3x/4x,3x/4x,,7b/8bV25[4:7],7b/8b-5[8:13],
{1},
{1},
{1},
{1},
E
&inote_5=
(168){1},
{1},
{2}B1/B6/B7/B8,B3/E3/B4/E4/E5,
{2}B1/E1/B2/E2/E3,B5/E5/B6/E6/E7,
{2}E4/E5/E6,B1/E1/E2/B8/E8,
{4}C1xh[2:1]/B3/B4/B5/E5/B6,,,1/8-5[8:1],
{8}3/8x,,4/6,4,4/7,4,4-1[8:1]/8,,
{8}4x/7,,2/5,5,3/5,5,1-4[8:1]/5-8[8:1],,
{8}1x/5x,,3,2/4,,6,5/7,,
{8}4/5,2b/7b,,2/5,2/5h[2:1],,6>7[4:3],6,
{4},B7/B8,,B5/B6,
{8}3/4h[8:3],,1,1,,2/5,2/5,,
{2}4-1[8:1]/6h[4:1],5-1[8:1]/7h[4:1],
{8}6/8h[8:3],,1,1,,2/5,2pp6[8:3]/5,,
{8}8h[8:3],,,,,7,5,4,
{8}6,5,4,3,,1/2,1/2,,
{4}2-5[8:1]/3-5[8:1],2x/3x,6-4[8:1]/7-4[8:1],6x/7x,
{8}4/5,4/5,,3/7,,4,6,5,
{48}8,,,,,,8-5[8:1],,,,,,,,,,,,E5,B4,B3,E3,B2,B1,E1,,,,,,,,,,,,,,,,,,,,,,,,
{4}4h[8:27]/5,5,3,3,
{4}5,3,3,3,
{8}6,,5,5,,3V57[2:1],,,
{8},,,,,5/6,5h[2:3]/6,,
{4}7,4,4,4,
{8}7,,6,6,,4/7,4>1[8:1]/7pp1[8:1],,
{4},2qq8[8:1]/5<8[8:1],,4>1[8:1]/7,
{8}5,5,,2-5[8:1]/7-4[8:1],,2x/7x,,,
{8}4/5h[2:1],,6,,3,3h[8:3],6p3[8:3],,
{8},,,,,1,1,,
{8}4h[2:1]/5,,3,,5,5h[8:3],3q5[8:3],,
{8},,,,,8,8,,
{8}3/4h[2:1],,8,,3,3h[8:3],1,,
{8}4h[2:1],,8,,3,3h[8:1],1,,
{16}2/7,,1,8,1,,4-1[8:1]/5-8[8:1],,,,4x/5x,,,,2b/7b,,
{16},,7/8,,1x,2x,3x,4x,1x,2x,3x,4x,1x/5x,,,,
{8}3x/7<3[8:1],,,1,1-5[8:1],,6b,,
{8}3/7<3[8:1],,,1,1-5[8:1],,6b,,
{8}3/7<3[8:1],,,1,1-5[8:1],,6b,,
{8}3/7<3[8:1],,,1,1,2,4x/7x,4x/7x,
{8},8h[8:1],5h[8:1],7h[8:1],6,5/8-4[8:1],5/8,,
{8},1h[8:1],4h[8:1],2h[8:1],3,1-5[8:1]/4,1/4,,
{4},6-1[8:1],4-1[8:1],5q1[8:1],
{4}3-1[8:1],7pp1[8:1],4<1[8:1],,
{8}6,3/7,3/7,,1/5,1w5[8:1]/5,,1x,
{8},4x/5x,C1f/B3/B4/B5/B6,,,,2x/7x,,
{8}1-6[8:1]/5h[4:1],,1b,,4h[4:5]/7,,3,3,
{8},2qq6[8:3],2,,,,,,
{8}1-3[8:1]/8-6[8:1],,1x/8x,,2/7,,4/5,4/5,
{8},3qq2[4:1]/6pp7[4:1],4/5,,,,,1,
{8}2/8,2h[4:1]/8<4[8:1],,,,2b/3x,2b/3x,1,
{8}1/8,1>6[8:1]/8h[4:1],,,,7x/8b,7x/8b,3,
{4}1-5[8:1]/2h[4:1],1x,7h[4:1]/8-4[8:1],8x<3[4:1],
{8}C1f/B2/B3,,,1x,1x,,2b/7b,,
{8}1/5-1[8:1],,4b,,4-8[8:1]/8,,5,5,
{8},2<5[8:3]/7>4[8:3],3/6,,,,,,
{8}3-7[8:1]/7,,4,,2/6-2[8:1],,5,5,
{8},3q8[4:1]/6p1[4:1],2/7,,,,,8,
{8}1/7,1>5[8:1]/7h[4:1],,,,6x/7b,6x/7b,8,
{8}1/8,1h[4:1]/8<3[8:1],,,,1b/2x,1b/2x,3,
{8}4/5,4/5,,1h[8:3]/6h[8:3],,,,,
{8}4/5,2x/7x,,4/5,4h[2:1]/5,,2>8[4:3],2,
{8},,1,1,,3,3,,
{8}5x/8x,5x/8x,,3/7,1b/5h[4:1],,1b,,
{8}3x/6x,4,5,3x/8x,6,5,1x/6x,3,
{8}4,2x/7x,4,5,3x/6x,,5x/8x,5V71[8:13]/8h[8:15],
{1},
{1},
{1},
{1},
E
