&title=MEGATON KICK
&wholebpm=200
&artist=DJ Myosuke
&des=ロシアンブラック
&shortid=11292
&genre=ゲームバラエティ
&cabinet=DX
&version=maimai DX Splash PLUS
&chartconverter=Neskol
&lv_2=5
&des_2=
&lv_3=8+
&des_3=
&lv_4=11+
&des_4=はっぴー
&lv_5=13+
&des_5=ロシアンブラック
&des_6=
&inote_2=
(200){1},
{1},
{1},
{1},
{1}1,
{1},
{1}1,
{1},
{1}8,
{1},
{1}8,
{1},
{1}1h[1:1],
{1},
{1}1h[1:1],
{1},
{1}8h[1:1],
{1},
{1}8h[1:1],
{1},
{1}1h[1:1],
{1},
{1}2h[1:1],
{1},
{1}3h[1:1],
{1},
{1}4h[1:1]/5h[1:1],
{1},
{1}5,
{1}5,
{1}6,
{1}6,
{1}7,
{1}7,
{1}1b/8b,
{1},
{2}8,8,
{1}8,
{2}7,7,
{1}7,
{2}6,6,
{1}6,
{2}5,5,
{1}4/5,
{2}4,4,
{1}4,
{2}3,3,
{1}3,
{2}2,2,
{1}2,
{2}1,1,
{1}1x/8x,
{1}1h[1:1]/8h[1:1],
{1},
{1}1/8,
{1}1x/8x,
{2}1,1,
{1}2,
{2}3,3,
{1}4,
{2}5,5,
{1}6,
{2}7,7,
{1}1x/8x,
{2}7,7,
{1}7/8,
{2}6,6,
{1}5/6,
{2}3,3,
{1}3/4,
{2}2,2,
{1}1/2,
{1}8-5[4:7],
{1},
{1},
{1},
{1}1-4[4:7],
{1},
{1},
{1},
{1}B5,
{1}B6,
{1}B7,
{1}B8,
{1}B1,
{1}B2,
{1}B3,
{1}B4,
{1}B5/B6,
{1},
{1}B3/B4,
{1},
{1}C1hf[1:2],
{1},
{1},
{1},
{4}8,8,8,,
{4}7,7,7,,
{4}6,6,6,,
{2}4/5,4/5,
{4}4,4,4,,
{4}3,3,3,,
{4}2,2,2,,
{1}1b/8b,
{4}1,1,1,,
{4}1/2,1/2,1/2,,
{4}3,3,3,,
{4}3/4,3/4,3/4,,
{4}5,5,5,,
{4}5/6,5/6,5/6,,
{4}7,7,7,,
{4}1/8,1/8,1b/8b,,
{1}7h[2:1],
{2}7,7/8,
{1}6h[2:1],
{2}6,5/6,
{1}4h[2:1],
{2}4,3/4,
{1}4h[2:1]/5h[2:1],
{4}4/5,4/5,4/5,3b/6b,
{1},
{1},
{1},
E
&inote_3=
(200){1},
{1},
{1},
{1},
{1}1>6[1:1],
{2},7,
{1}8<3[1:1],
{2},2,
{1}1>6[1:1],
{2},7,
{1}8<3[1:1],
{2},4x/5x,
{1}3-8[2:1],
{1}7-4[2:1],
{1}3<6[2:1],
{2}7x,1x/8x,
{2}7h[2:1],8,
{2}2h[2:1],1,
{2}7h[2:1],8,
{1}1h[2:1]/6h[2:1],
{2}B6,B5,
{2}B4,B3,
{2}B2,B1,
{2}B8,B7,
{2}B5/B6,B3/B4,
{2}B1/B2,B7/B8,
{2}E4/E6,B3/B6,
{1}C1f,
{4}7x,7,8,8,
{4}1,1,2/8,,
{4}3,3,4,4,
{4}5,5,4/6,,
{8}7,7,7,,8,8,8,,
{8}1,1,1,,2,2,2,,
{1}3b/5b,
{1}4-8[2:1]/6,
{4}7,7,7/8,7/8,
{4}6,6,5/6,5/6,
{4}3,3,3/4,3/4,
{4}2,1/8,2x/7x,,
{4}7,7,7/8,7/8,
{4}2,2,1/2,1/2,
{1}1x>4[2:1]/8x<5[2:1],
{1}C1xh[2:1],
{4}7x,7x/8x,7,7/8,
{4}6,5/6,6,5/6,
{4}3,3/4,3,3/4,
{4}2,1/8,2/7,3x/6x,
{4}7,7/8,7,7/8,
{4}2,1/2,2,1/2,
{8}8,8,8,,1,1,1,,
{1}2b-5[2:1]/7b-4[2:1],
{4}3,3,4,4,
{4}5,5,6,6,
{4}4/5,3/6,2/7,1/8,
{1}2b/7b,
{4}6,6,7z3[8:7],,
{1},
{4}2,2,1s5[8:7],,
{1},
{4}6,7,8z4[8:7],,
{1},
{4}3,4,5,6,
{1}4>1[2:1]/5,
{2}B8/E8,B6/E6,
{4}B4/E4,,B6,B7,
{2}B8/E8,B3/E4,
{4}B5/E6,,B3,B2,
{2}B1/E2,B6/E6,
{4}B4/E4,,B6,B7,
{1}C1,
{4}1x/8x,1/8,2/7,,
{1}C1f,
{1},
{1},
{1},
{1}4>5[4:9],
{1},
{1},
{1}4x/5x,
{2}3h[2:1],4h[2:1],
{2}5h[2:1],6,
{2}7h[2:1],8h[2:1],
{2}1h[2:1],2,
{2}3h[2:1],4,
{2}6h[2:1],5,
{2}3h[2:1],4,
{4}5/6,5/6,4/7,,
{4}3,3,4,4,
{4}5,5,6,6,
{4}7,7,8,8,
{4}1,1,2,2,
{8}3,3,3,,4,4,4,,
{8}5,5,5,,6,6,6,,
{1}4b>1[2:1]/5b<8[2:1],
{1}C1xh[2:1],
{4}7,7,7/8,1/6,
{4}2,2,1/2,3/8,
{4}4,3,3/4,2/5,
{4}6,4/5,3x/6x,,
{4}2,2,1/2,3/8,
{4}7,7,7/8,1/6,
{1}5-2[2:1]*-8[2:1],
{4}1,1/8,2b/7b,,
{8}7,7,7,,7/8,,5/6,,
{4}3/4,3/4,2/5,,
{8}6,6,6,,5/6,,7/8,,
{4}1/2,1/8,2x/7x,,
{8}3,3,3,,3/4,,1/2,,
{4}7/8,5/6,3/4,2/5,
{8}1,1,1,,8,8,8,,
{1}2-5[2:1]/7-4[2:1],
{4}3,3,4,4,
{4}5,5,4/6,,
{4}7,7,8,8,
{4}1,1,1x/8x,,
{4}7,7,8,8,
{4}1,1,2/8,,
{4}3,3,4,4,
{4}4/5,4/5,3/6,,
{1}C1f,
{1},
{1},
{1},
E
&inote_4=
(200){1},
{1},
{1},
{1}1b,
{4}5,5h[2:3],,,
{2}3,4h[1:1],
{4}6,6h[2:3],,,
{2}2,3h[1:1],
{4}7,7h[2:3],,,
{2}1,2h[1:1],
{4}8,8h[4:7],,,
{4}1,1-4[4:1],,,
{4}4,4h[2:3],,,
{2}6,5h[1:1],
{4}3,3h[2:3],,,
{2}7,6h[1:1],
{4}2,2h[2:3],,,
{2}8,7h[1:1],
{4}1,1h[4:3],,,
{1}C1f,
{4}E5,E4,E3,E2,
{4}E1,E8,E7,E6,
{4}E5,E4,E3,E2,
{4}E1,E8,E7,E6,
{4}C1/E5,E4,E3,E2,
{4}C1/E1,E8,E7,E6,
{4}C1/E5,E4,E3,E2,
{16}C1/E1,,,,E8,,,,E7,,,,4,5,4,5,
{4}4,4/5,4/5,4/5,
{8}4/6,,4/6,,4/7,,3/8,3/8,
{4}3/8,4/5,4/5,4/5,
{4}3/5,3/5,2/5,2/5,
{8}1/6,1/6,1/6,,2/7,2/7,2/7,,
{8}3/8,3/8,3/8,,1/4,1/4,1/4>5[4:3],,
{1},
{4}E5,E3/E7,E1,2b/7b,
{4}4/6,4/6,4/6,4/6,
{8}4/6,,4/6,,4/6,,4/6,3,
{4}3/5,3/5,3/5,3/5,
{8}3/5,,3/5,4/6h[4:1],,4,3b/7b,,
{4}3/5,3/5,3/5,3/5,
{8}3/5,,2/6,2/6,,3/7,3/7h[4:1],,
{1}C1xh[1:1],
{4},,1x/8x,1b/8b,
{4}5/6,5/6,5/7,4/6,
{8}3/7,,4/5,,5/7,5/7,4/6,4/6,
{4}3/5,2/6,4/6,5/7,
{8}5/6,,4/7,4/7,,3/5,2b/6b,,
{4}3/4,3/4,2/4,3/5,
{8}2/6,,4/5,4/5,,2/4,2/4,3/5,
{8}3/5,,2/6,,1/7,1/7,1/7,,
{1}8h[1:1],
{2}1b,E4/E6,
{2}E3/E7,E2/E8,
{4}E1,C1,E5,B3/B6,
{4}E2/E8,,,2b/7b,
{4}4/5,4/5,4qq8[1:1]/5,5,
{4}5,5,5,5,
{4}1/5,1/5,1/5,4/5,
{4}1/5,4/5,4/5,1b/5,
{4}4/5,4/5,4/5pp1[1:1],4,
{4}4,4,4,4,
{4}4/8,4/8,4/5,4/5,
{4}4/8,4/8,2/6,2/6,
{4}1h[4:1]/4,8,5/8h[4:1],1,
{8}1h[4:1]/4,,8,,3/6,3/6,4/7,4/7,
{4}5/8h[4:1],1,1h[4:1]/4,8,
{16}5/8h[4:1],,,,1,,,,2x/7x,,,4x/5x,,,3x/6x,,
{8}2/7,2/7,2/7,,3h[4:1]/4,,8,,
{16}5/6h[4:1],,,,1,,,,2x/5x,,,3x/4x,,,1x/6x,,
{8}7,7,4,4,5,5,2<3[4:3],2,
{1}C1f,
{1}8h[1:7],
{1},
{1},
{1},
{1}C1xh[1:3],
{1},
{1},
{1},
{4}E6,E5/E7,E4/E8,,
{2}2,3/5,
{4}E4,E3/E5,E2/E6,,
{2}7,4/6,
{4}E6,E5/E7,E4/E8,,
{2}2,3/5,
{4}E4,E3/E5,E2/E6,,
{4}8h[2:1],,1,2x/7x,
{4}5/6,4/7,3/8,3/8,
{4}3/8,3/7,3/6,3/5,
{4}3/4,2/5,1/6,1/6,
{4}1/6,2/6,3/6,4/6,
{8}5/6,5/6,5/6,,4/5,4/5,4/5,,
{8}3/4,3/4,3/4,,2/3,2/3,2<7[2:1]/3<6[2:1],,
{1},
{4}1/8,4/5,3/6,1b,
{4}5/7h[4:1],5,2h[4:1]/4,4,
{8}5/7,,1/7,,1/3,,3/5,6,
{4}5/7h[4:1],5,2h[4:1]/4,4,
{8}5/7,,4/8,4/8,,1/7,2b/6b,,
{4}2h[4:1]/4,4,5/7h[4:1],5,
{8}2/4,,2/8,,6/8,,4/6,3,
{2}2h[4:1]/4h[4:1],5h[4:1]/7h[4:1],
{4}2<7[4:1]/4<7[4:1],,,5x/7x,
{8}4/8h[4:1],4,4,,3/5,,2h[4:1]/6,6,
{8}6,,1/5,,3/7,3/7,2/6,2/6,
{8}1/5,,2/4,,4/6,,3h[4:1]/7,7,
{8}7,,8,8h[4:1],,4,2b/6b,,
{4}1h[4:1]/5,5,4/6,3/7,
{8}8h[8:1],1h[8:1],6h[8:1],3h[8:1],7h[8:1],2h[8:1],5h[8:1],4,
{16}3/6,,3/6,,3/6,,3/6,,4,5,4,5,4,5,4,5,
{4}4h[4:3],,,8b,
{4}5/7,1/7,1/3,3/5,
{8}5/7,,1/7,,1/3,,2/4,5,
{4}4/6,2/4,5/7,2/4,
{8}5/7,,4/8,4/8,,3/5,1b/7b,,
{4}2/4,2/8,6/8,4/6,
{8}3/5,,5/7,5/7,,2/4,2/4,5,
{8}6h[8:1],1h[8:1],8h[8:1],4h[8:1],5h[8:1],3h[8:1],7h[8:1],2h[8:1],
{4}C1hf[4:3],,,1b,
{1},
{1},
{1},
E
&inote_5=
(200){1},
{1},
{1},
{24}1b/8x,,,,,,4x/5b,,,,,,B1,B8,B7,B6,B5,B4,B3,,,,,,
{2}2b>1[1:2],B1,
{2},B2,
{2}1>8[1:2],B3,
{2},B4,
{2}8>7[1:2],B5,
{2},B6,
{2}7>3[4:5],B7,
{2},B8,
{8}2/6,,4/8-4[8:1],4/8,4>1[8:1]*<7[8:1]/8,,,,
{4},8,1,2,
{8}3/7,,1-5[8:1]/5,1/5,1/5>2[8:1]*<8[8:1],,,,
{4},1,8,7,
{8}1/6,,3/7-3[8:1],3/7,3>8[8:1]*<6[8:1]/7,,,,
{4},7,1/8,2,
{8}3/8,,2-6[8:1]/6,2/6,2/6>3[8:1]*<1[8:1],,,,
{1}B1/C1f/B2/E2/B3/B8,
{8}4/5,6,7/8h[4:1],,1,,2,2,
{4}1,B3/E4/1,C1/B4/8,B5/B6/7,
{8}7,8,1/2h[4:1],,3,,4,4,
{16}3,,,,B3/B4/7,,,,B5/B6/2,,,,E2,E8,E4,E6,
{8}C1,,1h[4:1]/2,,8,,7,7,
{4}8,B6/E6/8,C1/B5/1,B3/B4/2,
{8}2,1,7h[4:1]/8,,6,,5,5,
{16}6,,,,B5/B6/2,,,,B3/B4/7,,,,8b,1b,8b,1b,
{8}8b,,3,1/2,8,1/2,3,4/5,
{8}6,7/8,1,7/8,6h[4:1],,8b,,
{8}4/5,,6,7/8,1,7/8,6,4/5,
{8}3,1/2,8,1/2,3h[4:1],,1b,,
{8}1/2,1/2,3/4,3/4,5/6,5/6,7/8,7/8,
{16}1,5,3,6,4,8,2,7,1,6,3,8,2,7,4,5,
{1}C1,
{4}4z8[4:1]/5h[2:1],,,2b/6b,
{4}8-5[8:1],4-1[8:1],7-2[8:1],3-6[8:1],
{8}8-4[8:1],,2-6[8:1],,7-3[8:1],,1,1,
{4}1-4[8:1],5-8[8:1],2-7[8:1],6-3[8:1],
{8}1,,2/4,2/4,,6/8,6b/8b,,
{4}7-5[8:1],8-4[8:1],1-5[8:1],2-4[8:1],
{8}7,,6/8,5/7,,2/4,1-5[32:3]/3,,
{64}1b/8b,,,C1f,,,,,,,,,,,,,,,,,,,,,6h[16:1],,,,,,,,,,,,,,,,3h[16:1],,,,,,,,,,,,,,,,4/5,,,,,,,,
{4}4s8[4:1]/5z1[4:1],,,B1/B4/B5/B6/B7/B8,
{4}3-6[8:1],2-7[8:1],1-4[8:1],8-5[8:1],
{16}7-2[8:1],,,,6-3[8:1],,,,1,,1,,1,8,1,8,
{4}1-5[8:1],3-7[8:1],6-2[8:1],8-4[8:1],
{8}1,,5/7,5/7,,1/3,1b/3b,,
{4}2-4[8:1],1-5[8:1],8-4[8:1],7-5[8:1],
{16}2,,,,1/8,,3/6,,,,2/7,,5,4,5,,
{16}B3/E3/B4,,,,B5/B6/E7,,,,1/8,,1/8,,2/7,3/6,4/5,,
{4}C1hf[4:3]/B2/B3/B6/B7,,,B1/B4/B5/B6/B7/B8,
{2},2/3,
{2}1/8,6/7,
{12}4,,4,5,,5,3,4,2,6,5,7,
{2}1h[2:1],2-7[32:3],
{12}5/6,,,6,,,6,,,6,1,1,
{12}1s5[4:1]/6,,,6,,,6,,,6x,5x,4x,
{12}3x,,,3,,,3,,,3,2,2,
{4}2h[6:1]/3h[6:1],4h[6:1]/5h[6:1],6h[6:1]/7h[6:1],C1f,
{12}3/4,,,3,,,3,,,3,8,8,
{24}3/8z4[4:1],,,,,,3,,,,,,3,,,3x,4x,5x,6x,,4x,,5x,,
{8}4xh[4:1],8,6xh[4:1],1,3xh[4:1],8,5xh[4:1],1,
{16}C1,,,,,,,,,,,,5,4,5,4,
{16}C1f/B3,,,,7,8,7,8,C1f/B4,,,,8,1,8,1,
{16}C1f/B5,,,,1,2,1,2,8x,,3,4,,2,1,,
{16}C1f/B6,,,,2,1,2,1,C1f/B5,,,,1,8,1,8,
{16}C1f/B4,,,,8,7,8,7,1x,,6,5,,7,8,,
{16}C1f/B3,,,,7,8,7,8,C1f/B4,,,,8,1,8,1,
{16}C1f/B5,,,,1,2,1,2,8x,,3,4,,2,1,,
{32}4>5[8:3],,,,5,,,,5,,,,5,,,,4,,,,4,,,,4x,3,2,1,8,7,6,5,
{4}4,,,3<2[2:3],
{1}4h[2:5],
{1},
{1}C1xh[2:3],
{1}8h[2:7],
{1}7>6[4:5],
{1},
{1}C1xh[2:3],
{1}6h[1:1],
{8}2b,,3x-6[8:1]/7x-4[8:1],3x/7x,3x>6[8:3]/7x>4[8:3],,,,
{4},,4/6,5,
{8}3b/7b,,2x-5[8:1]/6x-3[8:1],2x/6x,2x<5[8:3]/6x<3[8:3],,,,
{4},,3/5,4,
{8}2b/6b,,3x-8[8:1]/7x-2[8:1],3x/7x,3x<8[8:3]/7x<2[8:3],,,,
{4},,2/8,1,
{8}3b/7b,,2x-7[8:1]/6x-1[8:1],2x/6x,2x>7[8:3]/6x>1[8:3],,,,
{16},,,,,,,,8,,8,,4,5,4,5,
{8}3x/6x,,1<4[4:1]/2,3,4b<1[4:1],,1b,,
{8}2,2,,3/4,,4,5,6,
{8}7/8,,1<4[4:1]/2,3,4b<1[4:1],,1b,,
{8}2,2,,3/4,,4,5,6,
{8}7/8,7/8,5/6,5/6,3/4,3/4,1/2,1/2,
{16}8,4,6,3,5,1,7,2,8,3,6,1,7,2,5,4,
{1}C1,
{4}4h[2:1]/5s1[4:1],,,3b/7b-5[32:3],
{16}7x/8x-4[32:3],,,,1x/8x,,,,1/2,,3,4,3,,2/5,,
{8}6,7/8<5[8:1],,1x/8x,,2,2-4[32:3],,
{16}1x-5[32:3]/2x,,,,1x/8x,,,,7/8,,6,5,6,,4/7,,
{16}3,,1/2-6[32:3],,,,2x/7x,,,,8,8,1b/7b-5[32:3],,,,
{16}7x/8x-4[32:3],,,,1x/8x,,,,1/2,,3,4,3,,2/5,,
{16}6,,7/8<5[8:1],,,,1x/8x,,,,2,,3,4,3,4,
{8}3-6[32:3],,,,7h[8:1],8h[8:1],1h[8:1],2h[8:1],
{4}3pp6[4:1],,,1b-7[32:3]/8b,
{16}1x/2x-6[32:3],,,,2x/3x,,,,3/4,,2,4,3,,7,5,
{8}6,4x/5x>2[8:1],,5x/7x,,8,8-2[32:3],,
{16}7x-3[32:3]/8x,,,,6x/7x,,,,5/6,,7,5,6,,2,4,
{16}3,,4x-8[32:3]/5x,,,,3x/4x,,,,2,2,1b-7[32:3]/3b,,,,
{16}1x/2x-6[32:3],,,,2x/3x,,,,3/4,,2,4,3,,7,5,
{8}6h[8:1],7h[8:1],5h[8:1],8h[8:1],4h[8:1],1h[8:1],3h[8:1],2h[8:1],
{16}4,,1/5,,2/6,,3/7,,8,4,8,4,6<5[2:1],2,6,2,
{2}6b,8w4[32:3],
{4}2-5[8:1],2x/6-1[8:1],3-8[8:1]/6x,3x/7-4[8:1],
{8}1-5[8:1]/7x,,1x/7-3[8:1],,2-6[8:1]/7x,,2x/8b,8b,
{4}8b-5[8:1],4-1[8:1]/8x,4x/7-2[8:1],3-6[8:1]/7x,
{8}3x/8x,,5/7,2/4,,6/8,1b/3b,,
{4}2-4[8:1],1-5[8:1]/2x,1x/8-4[8:1],7-5[8:1]/8x,
{16}2x/7x,,,,1x/8x,,3x/6x,,,,2x/7x,,4x,5x,4x,,
{16}5b/6b,,7b,,1b/8b,,2b,,3b/4b,,5b/6b,,7,8,7,,
{64}E1/E7,,B1/B6,,B2/B5,,E3/E5,,,,,,,,,,,,,,,,,,,,,,,,,,4w8[32:3],,,,,,,,,,,,,,,,,,,C1f/B2/B6,,,,,,,,,,,,,
{1},
{1},
{1},
E
