&title=LOSE CONTROL
&wholebpm=150
&artist=Massive New Krew
&des=はっぴー
&shortid=11293
&genre=ゲームバラエティ
&cabinet=DX
&version=maimai DX Splash PLUS
&chartconverter=Neskol
&lv_2=3
&des_2=
&lv_3=7+
&des_3=
&lv_4=12
&des_4=ぴちネコ
&lv_5=13+
&des_5=はっぴー
&des_6=
&inote_2=
(150){1},
{1},
{1}1xh[4:25],
{1},
{1},
{1},
{1},
{1},
{1},
{1},
{1}1,
{1}1,
{1}8,
{1}8,
{1}1,
{1}1,
{1}8,
{1}8x,
{1}7,
{1}6,
{1}5,
{1}4,
{1}3,
{1}2,
{1}1h[1:1]/8h[1:1],
{1},
{2}1,1,
{1}1,
{2}2,2,
{1}2,
{2}3,3,
{1}3,
{2}4,4,
{1}4,
{2}5,5,
{1}4b/5b,
{2}6,6,
{1}5/6,
{2}7,7,
{1}7/8,
{2}1,1,
{1}1/8,
{1}8-5[4:3],
{1},
{1}1-4[4:3],
{1},
{1}8-4[4:3],
{1},
{1}1-5[4:3],
{1},
{1}B6,
{1}B5,
{1}B4,
{1}B3,
{1}B2/B7,
{1}B1/B8,
{1}C1hf[1:1],
{1},
{4}1x,1,1,,
{2}1/2,1/2,
{4}3,3,3,,
{2}3/4,3/4,
{4}5,5,5,,
{2}5/6,5/6,
{4}7,7,7,,
{2}1/8,1/8,
{4}8,8,8,,
{4}7,7,7,,
{4}6,6,6,,
{4}4/5,4/5,4b/5b,,
{4}3,3,3/4,,
{4}2,2,1/2,,
{4}8,8,1,1,
{4}1/8,1/8,1/8,,
{1}2b/7b,
{1},
{1},
{1},
E
&inote_3=
(150){1},
{1}1x-3[8:3]/8x-6[8:3],
{1}C1hf[1:7],
{1},
{1},
{1},
{1},
{1},
{1},
{1},
{2}7xh[2:1],8h[2:1],
{2}1h[2:1],2,
{2}3h[2:1],4h[2:1],
{2}5h[2:1],6,
{2}7h[4:1]/8h[4:1],7/8,
{2}1h[4:1]/2h[4:1],1/2,
{2}7h[4:1]/8h[4:1],7/8,
{2}1h[4:1]/8h[4:1],2x/7x,
{2}B3/B4,B1/B2,
{2}B7/B8,B5/B6,
{2}B3/B4,B1/B2,
{2}B7/B8,B5/B6,
{4}3x/4x,5/6,7/8,1/2,
{8}8,8,8,,1,1,1,,
{4}1x/8x,2x/7x,3x/6x,4/5,
{2}3h[4:1]/6h[4:1],C1f,
{4}1x,2,1/2,1/2,
{4}E3,C1,E7,,
{4}8x,7,7/8,7/8,
{4}E7,C1,E3,,
{4}1x,2,1/2,1/2,
{4}E3,C1,E7,,
{4}8x,7,7/8,7/8,
{1}C1hf[2:1],
{1}1xh[2:1]/2xh[2:1],
{4}7,7/8,1h[4:1]/6h[4:1],,
{4}5,5/6,4h[4:1]/7h[4:1],,
{4}3,3/4,2h[4:1]/5h[4:1],,
{4}6,5/6,3,3/4,
{4}2,1/2,1/8,2h[2:1]/7h[2:1],
{4},,1/8,1/8z4[4:3],
{1},
{2}3xh[2:1],4h[2:1],
{2}5h[2:1],6,
{2}7h[2:1],8h[2:1],
{2}1h[2:1],2,
{1}3v1[2:1],
{1}7v8[2:1],
{4}1x,2x/7x,3x/6x,4/5,
{2}3h[4:1]/6h[4:1],C1f,
{1}2x-5[2:1],
{1}6-1[2:1],
{1}2-5[2:1],
{4}6,6,5/6,,
{4}7,8,1,2,
{4}3,4,5,6,
{8}7,7,7,,1,1,1,,
{1}C1f/B2/B7,
{4}7b,7/8,2,1/2,
{4}3,3/4,2h[4:1]/5h[4:1],,
{4}6b,5/6,3,3/4,
{4}2,1/8,2h[4:1]/7h[4:1],,
{4}3b,3/4,6,5/6,
{4}7,7/8,1h[4:1]/6h[4:1],,
{4}2b,1/2,7,7/8,
{1}1xv4[2:1]/8xv5[2:1],
{4}3b,3/4,2,1/2,
{8}7,7,8,,1h[4:1]/6h[4:1],,,,
{4}2b,1/2,3,3/4,
{8}5,5,4,,3h[4:1]/6h[4:1],,,,
{4}7b,7/8,6,5/6,
{8}3,3,4,,2h[4:1]/5h[4:1],,,,
{8}1,1,1,,8,8,8z4[4:3],,
{1},
{1}C1f/B2/B7,
{1},
{1},
{1},
E
&inote_4=
(150){1},
{4}5x/6x,7x/8x,1x/2x,3x/4x,
{1}5b<4[16:99]/6b,
{16},,,B6,,,,,,,,,,,B7,,
{32},,,,,,,,,,,,,,,,,,,,,,,B8,,,,,,,,,
{32},,,,,,,,,,,,,,,,,,,B1,,,,,,,,,,,,,
{32},,,,,,,,,,,,,,,B2,,,,,,,,,,,,,,,,,
{2},B3,
{16},,,,,,,C1,,,,,,,,,
{4}4x/5x,6x/7x,1x/8x,2x/3x,
{1}4bV68[2:1]/5h[4:3],
{1}1<5[2:1]*>5[2:1],
{1}4h[4:3]/5s1[2:1],
{4}8-5[2:1],B1,C1,B4,
{8}3x,,3,,4,4,,2/5,
{8},6,6,,4/7,,2/5,,
{8}6,,6,,5,5,,4/7,
{8},3,3,,2/8,,1/7,,
{4}8h[4:1],7h[4:1],6h[4:1],5h[4:1],
{4}4h[4:1],3h[4:1],2h[4:1],1h[4:1],
{4}8h[4:1],6h[4:1],4h[4:1],2h[4:1],
{4}7h[4:1],5h[4:1],3h[4:1],1h[4:1],
{8}8,8,1/7,1/7,2/6,2/6,3/5,3/5,
{16}4,5,4,5,4,5,4,5,4,5,4,5,4,,,,
{4}E1,E2/E8,C1/E3/E7,B4/B5/E5,
{4}B2/B3/E3,B6/B7/E7,B1/C1f/B8,,
{4}3/4,1/2,3/4,5/6,
{8}6,6,4h[4:1],,2,2,4h[4:1],,
{4}6,7/8,5/6,3/4,
{8}3,3,5h[4:1],,7,7,5h[4:1],,
{4}3,1/7,6/7,4/6,
{8}6,6,4h[4:1],,2,2,4h[4:1],,
{4}6,2/8,2/3,3/5,
{4}4-8[8:1],5-1[8:1],3>6[4:1],,
{8}C1xh[2:1],,,,,,1b,2b,
{8}3b,4b,5b,6b,2b/7b,2b-5[8:1]/7b-4[8:1],,,
{4},3/6,1/2,7/8,
{8}4/5,4/5,4/5,4h[8:3]/5-1[8:1],,,,,
{8}3,3,2,,1/4,1/4h[4:1],,5,
{8},7,7,,5/8,5h[4:1]/8,,4,
{8},4/8,3/7,2/6,1/5,1/5,,1pp4[2:1]/5pp8[2:1],
{1},
{1}2b/6b<3[4:3],
{1}4z8[4:3],
{1}5s1[4:3],
{1}3>6[4:3],
{4}5,5,4,4,
{4}6,6,3,3,
{4}E1,E2/E8,C1/E3/E7,B4/B5/E5,
{4}B6/B7/E7,B2/B3/E3,B1/C1f/B8,,
{4}5/6h[1:1],B7,B1,E3,
{4}3h[1:1],B2,B8,E7,
{4}5h[1:1],B6,B8,B2,
{4}4h[1:1],B3,B1,B7,
{8}5,5,4/6,4/6,3/7,3/7,2/8,,
{8}4,4,3/5,3/5,2/6,2/6,1/7,,
{8}7h[8:1],8h[8:1],6h[8:1],1h[8:1],5h[8:1],2h[8:1],4h[8:1],3h[8:1],
{4}4,E3/B5,B4/E7,1b/8b,
{8}7x,6,4/5,,1/6,4,1/6,4,
{8}1/6,4,1>4[16:3]/6<1[16:3],,,,,,
{8}2x,3,4/5,,2/8,5,2/8,5,
{8}2/8,4/5,1/7,4/5,2b>4[32:3]/7b<5[32:3],,,,
{8}2x,3,4/5,,3/8,5,3/8,5,
{8}3/8,5,3>8[16:3]/8<5[16:3],,,,,,
{8}7x,6,4/5,,1/7,4,1/7,4,
{8}1/7,4/5,2/8,4>1[8:1]/5<8[8:1],,,,,
{8}2x/7x,3/6,4/5,,1b/3b,4/5,1b/3b,4/5,
{8}1b/3b,4/5,1bv6[16:3]/3bv8[16:3],,,,,,
{8}2x/7x,3/6,4/5,,6b/8b,4/5,6b/8b,4/5,
{8}6b/8b,4b/5b,1b/3b,4b/5b,2b>4[32:3]/7b<5[32:3],,,,
{8}2x/7x,3/6,4/5,,6b/8b,4/5,6b/8b,4/5,
{8}6b/8b,4/5,6bv1[16:3]/8bv3[16:3],,,,,,
{8}1/4b,3/8b,2b/7,1/6b,5/8b,,2/7,2/7,
{4}2h[4:1]/7,7h[4:1],6h[4:1],3,
{1}C1f/B2/B7,
{1},
{1},
{1},
E
&inote_5=
(150){1},
{4}3x/5x,4x/6x,3x/5x,4x/6x,
{1}3xh[4:27]/5xh[4:27],
{1},
{1},
{1},
{1},
{1},
{1},
{4}4x/6x,3x/5x,2x/6x,3x/7x,
{1}4p7[2:1]/8p3[2:1],
{1}3<6[2:1]/7>2[2:1],
{1}2q6[2:1]/6q2[2:1],
{1}2p5[2:1]/6p1[2:1],
{1}1z5[2:1]/5V71[2:1],
{1}1qq6[2:1]/5>2[2:1],
{1}2V46[2:1]/6<2[2:1],
{1}2V86[2:1]/6z2[2:1],
{2}1q5[8:1]/5q1[8:1],1-6[8:1]/5-2[8:1],
{2}2<7[8:1]/6>3[8:1],3q7[8:1]/7q3[8:1],
{2}3-6[8:1]/7-2[8:1],2<7[8:1]/6>3[8:1],
{2}3p7[8:1]/7p3[8:1],3-6[8:1]/7-2[8:1],
{8}1-4[8:1]/5-8[8:1],1/5,,,4-1[8:1]/8-5[8:1],4/8,,,
{8}2-6[8:1],2,1-5[8:1],1,8-4[8:1],8,7-3[8:1],7,
{4}1b,2b/6-2[8:1],3b-8[8:1]/6,3/7-3[8:1],
{8}4-1[8:1]/7,,4/5-8[8:1],,3/5b,1x,1x,,
{8}3/8-6[8:1],3,3/8-2[8:1],,4/8-6[8:1],4h[4:1],8-2[8:1],,
{8}8-6[8:1],5,5/8-2[8:1],,4/8-6[8:1],4,4/8-2[8:1],,
{8}3/8-6[8:1],3,3/8-2[8:1],,4/8-6[8:1],4h[4:1],8-2[8:1],,
{8}8-6[8:1],5,5/8-2[8:1],,4h[4:1]/8,,8b,,
{8}1-3[8:1]/6,6,1-7[8:1]/6,,1-3[8:1]/5,5h[4:1],1-7[8:1],,
{8}1-3[8:1],4,1-7[8:1]/4,,1-3[8:1]/5,5,1-7[8:1]/5,,
{8}1-3[8:1]/6,6,1-7[8:1]/6,,1-3[8:1]/5,5,1/5,,
{4}7<4[8:1],1>4[8:1],8<5[8:1],4h[4:1],
{8}C1xh[4:5],,,,,,1x,1x,
{16}1x,,1x,,1x,,1x,,1x,,1xh[4:1],,,,6x,6x,
{8}6x-4[8:1],2,2/6-8[8:1],,3/6-4[8:1],3h[4:1],6,,
{8}4/5,5/7,1/8,2/4,4-1[8:1]/5-8[8:1],,,,
{8}3-5[8:1]/7,7,3-1[8:1]/7,,3-5[8:1]/6,6h[4:1],3-1[8:1],,
{16}3-5[8:1],,8,,3/8,,,,3/7,,8,8,1,,2/7,,
{8},1/8,3/6,4>1[8:1]/5<8[8:1],2/7,4/5,,2b/7b,
{8}B3/E4,E5,B6/E6,E3,B1/E2,E7,B8/E8,,
{1}2h[1:1],
{1}4h[1:1],
{1}5h[1:1],
{1}7h[1:1],
{4}4,4,4,4,
{4}5,5,5,5,
{4}E1,E2,E3,E4/E5,
{4}E6/E7,E1/E8,C1f/E2/E3,E4/E5,
{4}6h[1:1],B5,E4,E2,
{4}3h[1:1],B4,E6,E8,
{4}6h[1:1],B5,E4,E2,
{4}3h[1:1],B4,E6,E8,
{8}5,5,5,5,2,2,7,7,
{8}4,4,8,8,3,3,6,6,
{16}1,8,3,6,2,7,4,5,1,8,3,6,2,7,1,,
{4}B8/E8,B1/E2,B6/E6/2,B3/E4/8-6[8:1],
{8}4-2[8:1]/8,5,4/8-6[8:1],,4-2[8:1]/8,5,4/8-6[8:1],1,
{8}4/8,5,3<6[8:1]/7>2[8:1],1/5,3/7,,1-3[8:1]/5,,
{8}1/5-7[8:1],4,1-3[8:1]/5,,1/5-7[8:1],4,1-3[8:1]/5,8,
{8}1/5,4,2-7[8:1]/6-3[8:1],3/7,2/6,,1-3[8:1]/5,,
{8}1/5-7[8:1],4,1-3[8:1]/5,,1/5-7[8:1],4,1-3[8:1]/5,8,
{8}1/5,4,2<7[8:1]/6>3[8:1],4/8,2/6,,4/8-6[8:1],,
{8}4-2[8:1]/8,5,4/8-6[8:1],,4-2[8:1]/8,5,4/8-6[8:1],1,
{8}4/8,5,3/7,8,B3/E4/8,,B6/E6/1-3[8:1],,
{8}1/4-8[8:1],5,4/7-5[8:1],,4-8[8:1]/7,3,1-3[8:1]/4,2,
{8}1/8,7,2<7[8:1]/6>3[8:1],4/8,2/6,,4/8-6[8:1],,
{8}5-1[8:1]/8,4,2-4[8:1]/5,,2/5-1[8:1],6,5/8,7,
{8}1b/5b,3b/7b,2b-5[8:1]/6b-1[8:1],4b/8b,2b/6b,,4/8-6[8:1],,
{8}5-1[8:1]/8,4,2-4[8:1]/5,,2/5-1[8:1],6,5/8-6[8:1],7,
{8}1/8,2,3<6[8:1]/7>2[8:1],1/5,3/7,,1/5,,
{8}2-8[8:1]/5,7-3[8:1],2V46[8:1],7,2,,7<4[8:1],6,
{4}2<7[8:1]/7,2/5>2[8:1],5/8<5[8:1],3-7[8:1]/8,
{1}C1f/3,
{1},
{1},
{1},
E
