&title=Kiss Me Kiss
&wholebpm=140
&artist=曲:大畑拓也/歌:bitter flavor [桜井 春菜(CV:近藤 玲奈)、早乙女 彩華(CV:中島 唯)]
&des=Jack
&shortid=11247
&genre=オンゲキCHUNITHM
&cabinet=DX
&version=maimai DX Splash PLUS
&chartconverter=Neskol
&lv_2=3
&des_2=
&lv_3=6
&des_3=
&lv_4=9+
&des_4=はっぴー
&lv_5=12+
&des_5=Jack
&des_6=
&inote_2=
(140){1},
{1},
{1},
{1}1,
{1},
{1}1,
{1},
{1}8,
{1},
{1}8,
{1},
{1}1,
{1}1,
{1}2,
{1}2,
{1}3,
{1}3,
{1}4,
{1}4,
{1}5,
{1}5,
{1}6,
{1}6,
{1}7,
{1}7,
{1}8,
{1}1/8,
{1}8-5[4:3],
{1},
{1}1-4[4:3],
{1},
{1}8-4[4:3],
{1},
{1}1-5[4:3],
{1},
{1}8,
{1}1x/8x,
{2}8,8,
{1}8,
{2}7,7,
{1}7,
{2}6,6,
{1}6,
{2}5,5,
{1}4x/5x,
{2}4,4,
{1}4,
{2}3,3,
{1}3,
{2}2,2,
{1}2,
{2}1,1,
{1}1x/8x,
{2}1,1,
{2}2,2,
{2}3,3,
{1}4x/5x,
{2}5,5,
{2}6,6,
{2}7,7,
{1}1xh[1:1]/8xh[1:1],
{1},
{1}B1/B8,
{1}B2/B7,
{1}C1xh[8:7],
{1},
{2}1,1/2,
{2}8,7/8,
{1}1-5[4:3],
{1},
{2}8x,8,
{2}7,7,
{2}6,6,
{2}4/5,4/5,
{2}4,4,
{2}3,3,
{2}2,2,
{2}1/8,1/8,
{1}1b/8b,
{1}1h[2:1]/2h[2:1],
{1}3h[2:1]/4h[2:1],
{1}5h[2:1]/6h[2:1],
{1}7h[2:1]/8h[2:1],
{1}1h[2:1]/2h[2:1],
{1}1h[2:1]/8h[2:1],
{1}1-4[8:5]/8-5[8:5],
{1},
{1},
{1},
E
&inote_3=
(140){1},
{2}B2/E2,B7/E8,
{4}E6,E5,E4,,
{4}2b,2,1,1,
{4}8,8,1/7,,
{4}6,6,5,5,
{4}4,4,4/5,,
{4}6,6,7,7,
{4}8,8,1/7,,
{4}2,2,3,3,
{4}4/5,4/5,3/6,,
{2}7h[2:1],8,
{4}2,2,1,,
{2}7h[2:1],8,
{4}1,1,2/8,,
{2}3h[2:1],4,
{4}6,6,5,,
{4}3h[2:1],,4,4,
{4}5,4/5,3/6,,
{4}7b,7,7/8,,
{4}2,2,1/2,,
{4}3,3,3/4,,
{4}5,5,4/6,,
{4}7,7,7/8,,
{4}6,6,5/6,,
{4}3,3,3/4,,
{4}2,2,1x/8x,,
{4}7,7,8,8,
{1}7p3[8:3],
{4}2,2,1,1,
{1}2q6[8:3],
{4}7,7,6,6,
{1}5<8[8:3],
{1}1>4[8:3],
{4}5x,5x,4x/5x,,
{4}6,5,4,4>1[8:3]/5<8[8:3],
{4},,,1x/8x,
{4}2b,2,1/2,1/2,
{4}3,4,3/5,,
{4}6,6,5/6,5/6,
{4}7,8,1/8,,
{4}2h[4:1],1,1/2,,
{4}3,3,4,4/5,
{1}4-1[8:3]/5-8[8:3],
{8}2/7,,2/7,,3/6,3/6,,4x/5x,
{4},6,5/6,5/6,
{4}7,8,1/7,,
{4}2,2,1/2,1/2,
{4}3,4,4/5,,
{4}6h[4:1],5,5/6,,
{4}7,7,8,8,
{4}1,1,2,2,
{4}3,4/5,3x/6x,,
{1}7<4[8:3],
{1}3>8[8:3],
{2}7h[2:1],8h[2:1],
{2}1h[2:1],2x,
{4}3,3,4,4,
{4}5,5,6,6,
{4}7,8,1,2>6[2:1],
{1},
{1}C1f,
{1}8-5[8:3],
{1}4-1[8:3],
{4}8,8,1,1-4[8:3]/8-5[8:3],
{4},,,4x/5x,
{4}6h[4:1],5,4/7,,
{4}3,3,2,2,
{1}1>4[8:3]/8<5[8:3],
{8}3/6,,3/6,,2/7,2/7,,1x/8x,
{4},7,7/8,7/8,
{4}6,5,4/6,,
{4}3,3,3/4,3/4,
{4}2,1,1/8,,
{4}7h[4:1],8,7/8,,
{4}6,6,5,5,
{4}4,4,3,3,
{4}2,1,8,7,
{1}6b<1[8:3],
{4}2,2,1/2,,
{1}3>8[8:3],
{4}7,7,7/8,,
{1}7-4[8:3],
{4}3,3,3/4,,
{1}2-6[8:3],
{8}7,,8h[4:1],,1,,1x/8x,1x/8x,
{1},
{1},
{1},
E
&inote_4=
(140){1},
{4},4,,4,
{4},5,5-8[4:1],,
{4}1h[2:1],3,7h[2:1],5,
{4}1h[2:1],3,6,2/7,
{4}8h[2:1],6,2h[2:1],4,
{4}8h[2:1],6,4,3/5,
{4}1h[2:1],3,7h[2:1],5,
{4}1h[2:1],3,6,2/7,
{4}8h[2:1],6,2h[2:1],4,
{4}8h[2:1],6,4,3/6,
{8}3h[4:1]/5h[4:1],,,2/4,2h[4:1]/4h[4:1],,,1h[4:1],
{8},4,4h[4:1],,2,,3>1[8:1]*<5[8:1],,
{8},,,3,3h[4:1],,,2/4,
{8},3/5,3h[4:1]/5,,2h[4:1],,1,,
{8}1/6h[4:1],,,5/7,5h[4:1]/7h[4:1],,,8h[4:1],
{8},5,5h[4:1],,7h[4:1],,6,,
{8}5h[4:1]/8h[4:1],,,6,6,,5/7,5/7,
{8},4/6,4/6h[4:1],,7h[4:1],,8b,,
{8}3h[4:1],,,2/4,2h[4:1]/4h[4:1],,,1,
{8},2/4,2/4,,1/3,,2/4,,
{8}1h[4:1]/5h[4:1],,,3,3h[4:1],,,2/4,
{8},3/5,3h[4:1]/5,,2h[4:1],,1b,,
{8}6h[4:1],,,5/7,5h[4:1]/7h[4:1],,,8h[4:1],
{8},5,5,,6h[8:1]/7h[8:1],,6h[8:1]/7h[8:1],,
{8}5h[4:1]/8h[4:1],,,6,6,,5/7,5/7,
{8},4/8,4/8<4[4:1],,C1f,,,,
{8}1-3[8:1],,,,2/4,2/4h[4:1],,8,
{4}8>3[4:1],,,3/5,
{8}8-6[8:1],,,,5/7,5h[4:1]/7,,1,
{4}1<6[4:1],,,4/6,
{8}1-3[8:1],,,,2/4,2/4h[4:1],,8,
{8}8-3[4:1],,,,,5,4/5,,
{4}7h[2:1],6,5h[2:1],6,
{4}8h[2:1],6,5h[4:1],6,
{8}4/7,,3/5,3/5,,4/6,4>5[2:1]/6,,
{4},,,2b/6b,
{8}3-8[8:1]/7-4[8:1],,,,1x/5x,1x/5x,,2h[4:1],
{8},4h[4:1],,5h[4:1],,6,4h[4:1]/7,,
{4}C1xh[2:3],,E2,E3,
{4}E4,E5,E6,,
{4}1/8,7<4[4:1]/8>3[4:1],,,
{4}1/8,1<6[4:1]/2>5[4:1],,,
{8}4h[4:1]/7h[4:1],,,3h[4:1]/6h[4:1],,,2/5,1x-5[4:1]/6x,
{8},,,6,3x/7x,3x/7x,,C1f,
{8},,1h[4:1],,8,8,,7h[4:1],
{8},5h[4:1],,4h[4:1],,3,2/5,,
{4}B4/E4,B6/E6,B2/E2,B8/E8,
{2}C1hf[2:1]/B4/B5,B2/B7,
{4}1/8,1v6[4:1]/2>5[4:1],,,
{4}1/8,7<4[4:1]/8v3[4:1],,,
{8}2h[4:1]/5h[4:1],,,4h[4:1]/7h[4:1],,,2/5,2/5,
{8},6,6,5,,4/7,4/7,,
{8}3h[1:1],,,4,4,,5,,
{8}6h[4:3],,,5,5,,4>1[4:1],,
{8},,8<5[4:1],,,,4,4,
{8},3/5,3/5,,2h[4:1]/6h[4:1],,,,
{4}1/8,2/4,4/5,5/7,
{4}1/8,5/7,4/5,2/4,
{4}1x/8x,2x/3x,4x/5x,6x/7>6[2:1],
{1},
{1}C1,
{8}4h[4:1]/6h[4:1],,,3/5,,2/6,,6x,
{8},8x,,1x,,3x,3xh[2:1],,
{8}5,,7h[4:1],,5h[2:3],,1,1h[4:3],
{4},,,8b,
{4}4,3>8[4:1]/4<7[4:1],,,
{4}4/5,5>2[4:1]/6<1[4:1],,,
{8}2h[4:1]/5h[4:1],,,3h[4:1]/6h[4:1],,,4/7,3x/8x-4[4:1],
{8},,,3,2x/6x,2x/6x,,C1f,
{8},,8h[4:1],,1,1,,2h[4:1],
{8},4h[4:1],,5h[4:1],,6,4/7,,
{4}B5/E6,B3/E4,B7/E8,B1/E2,
{2}C1hf[2:1]/B4/B5,B2/B3/B6/B7,
{4}1/8,5v2[4:1]/6<1[4:1],,,
{4}2/7,3>8[4:1]/4v7[4:1],,,
{8}4h[4:1]/7h[4:1],,,2h[4:1]/5h[4:1],,,4/7,4/7,
{8},1/8,1-5[8:1]/8-4[8:1],,,,3x/6x,,
{4}2b/7b,4/5,6h[2:1],8,
{12}4h[2:1],,,2,,,6,6,,2/4,2/4,,
{4}3h[2:1],1,5h[2:1],7,
{12}3,3,,4/6,4/6,,2/5,2/5,,8b,,,
{4}2h[2:1],4,8h[2:1],6,
{12}2h[2:1],,,4,,,5,5,4,6,6,5,
{4}7h[2:1],5,1h[4:1],3<6[4:1],
{8},,,,E6,E5,E4,B1/C1f/B8,
{1},
{1},
{1},
E
&inote_5=
(140){1},
{8}4h[8:3]/6,,,5,3/5h[8:7],,,4,
{8},4,,4,4>1[8:1]/5<8[8:1],,,,
{16}C1f/B3/E3/B6/E7,,,,1/8,,,,3h[16:3]/5,,,2h[16:3],,,1h[4:1],,
{8},8,7,6,4,5,3,2,
{16}1>4[8:1]/7,,,,1x/5x,,,,7h[16:3],,,6h[16:3],,,5h[4:1],,
{8},4,3,2,1,2x/8x,3x/7x,,
{16}1-5[8:1]/5,,,,1x/8x,,,,4/6h[16:3],,,7h[16:3],,,8h[4:1],,
{8},1,2,3,5,4,6,7,
{16}2/8<5[8:1],,,,4x/8x,,,,2h[16:3],,,3h[16:3],,,4h[4:1],,
{8},5,6,7,8,1x/7x,2x/6x,,
{8}3h[4:1],,,2/4,2h[4:1]/4h[4:1],,,1,
{8},2/3,,4,4-2[8:1],,8-4[8:1],,
{8}1xh[4:1],,,2/4,2h[4:1]/4h[4:1],,,1/3,
{8},3/4,,1/2,1/2h[8:1],,3h[8:1]/4-8[8:1],,
{8}1h[4:1],,,5/7,5h[4:1]/7h[4:1],,,8,
{8},6/7,,1/5,1-5[8:1]/5-7[8:1],,,,
{8}4xh[4:1]/8xh[4:1],,,5/7,5/7V51[4:1],,4,4h[4:1],
{8},8,7,6,7/8,7/8,1x/6x,,
{8}3h[4:1]/8,,4x,3,1h[4:1],4x,4x,2h[4:1],
{8},4,2x,4,3,1/2x,1/2x,3,
{8}4h[4:1],,3x,4,2h[4:1],3x,3x,1h[4:1],
{8},3,1x,2,3,1x/4,1x/4-8[8:1],,
{8}6h[4:1],,5x,6,8h[4:1],5x,5x,7h[4:1],
{8},5,7x,5,6,7x/8,7x/8,6,
{8}5h[4:1],,6x,5,7h[4:1],6x,6x,8h[4:1],
{8},5,8xq1[8:3],1,1,,,,
{16}4/5,,3,4,2,,6,5,7,,1/8<5[8:1],,,,4,,
{8}3,2,1h[2:1],E7,E6,E5,E4,E3,
{16}1/8,,7,8,7,,2,1,2,,3,,4>1[8:1],,5,,
{8}6,7,8,8h[8:3],,E5,C1,E1,
{16}2/7,,3,4,2,,6,5,7,,1/8,,,,4/5,,
{8}3>6[4:1],6,5,,,8,8,8,
{8}1h[4:1],,8,2/7<4[4:1],,4>1[4:1],,1<6[4:1],
{8},6>3[4:1],,3,,1,1,1,
{8}2x/8x,3,3,1x/7x,6,6,1x/8x,,
{8},2xh[8:1],4xh[8:1],5xh[8:1],7xp2[8:1],2x,,,
{8}1bv4[8:1]/8b-5[8:1],,1x/8x,,2x/7x,2x/7x,,7h[4:1],
{8}5,8h[4:1],4,1h[4:1],3,2-6[8:1],8,8,
{8},4/8,4/8,,1/5,1-5[8:1]/5,7,7h[4:1],
{8},5>7[8:3],3>6[16:5],1<5[4:1],,5x,3x,1b,
{4},4qq1[2:1]/8qq5[2:1],,,
{8},,2/4,3,5/7,6,2/4,3,
{8}5/7h[4:1],4,3,2h[8:3]/4,5,6,7,1x/8x,
{8},4/5,4/5,3x<6[8:1]/7x>2[8:1],2x/6x,3x/7x,,C1f/E1/B4/E5/B8,
{8},,2-6[8:1]/6,,4x,8x,,2h[4:1],
{8}4,1h[4:1],5,8h[4:1],6,7-3[8:1],1,1,
{8},1/5,1/5,,4/8,3/7,2/6,1/5h[4:1],
{8},6<4[8:3],5,5,,7x,8x,1x,
{4},5pp5[8:3]*qq5[8:3],5x,,
{4}3/7,1>4[8:1]/5x,1x/8<5[8:1],4/8x,
{8}2x/4,3,4,5/7x,6,5<4[2:1],3,1b/5x,
{8},,,,,3,3,3,
{8}2,2-5[8:1],,1-6[8:1],,2q5[8:3],,1,
{8},,6,6,,7-3[8:1],8,7,
{8},7-3[8:1],8,7,,7-3[8:1],8,7,
{8},7,7-4[8:1]/8-3[8:1],,7/8,,2/6,,
{8}3h[4:1],1,4h[4:1],1,3h[4:1],1,4h[4:1],1,
{8}5h[4:1],8,6h[4:1],8,5h[4:1],8,6h[4:1],8,
{16}5-1[8:1],,,8,,,4-8[8:1],,,,1>8[8:9],,,,C1xh[8:9],,
{1},
{1},
{8}1xh[4:1]/4xh[4:1],,,2x-6[8:1]/3x-8[8:1],,2x/3x,,5x/7x,
{8},6x/8x,,5x-1[8:1]/7x,,8,8,8,
{8},3/4,2/5,,5/6,4/7,8,1h[2:1],
{8},,,C1xh[4:1],,E3,E7,C1f,
{4},1pp4[2:1]/5pp8[2:1],,,
{8},,5/7,1,2/4,8,5/7,1,
{8}2h[4:1]/4,8,6,5/7h[4:1],1,3,4/5,2x/7x,
{8},1/8,1/8,2x<7[8:1]/6x>3[8:1],3x/7x,2x/6x,,B1/C1f/E1/B5/E5,
{8},,2V48[4:1]/7V51[4:1],,2x/7x,,,2/7h[4:1],
{8}5,8h[4:1],4,1h[4:1],3,2q7[8:1],8,8,
{8},1/5,1/5,,3/7,2/6,1/5,4/8h[4:1],
{8},7<4[8:1],4>1[8:1],C1,,8b,1b/7b,2b/6b,
{4},4qq4[4:1],4pp4[4:1],8,
{4}8-4[8:1],4/8>3[8:1],4/8<5[8:1],4/8,
{8}2x/4,3,4,5/7x,6,5-1[8:1],4,4x,
{8},2/8,5,1/7,4,2/6,3-6[8:1]/7-2[8:1],,
{16}3b/7b,,,,4/8,,,,6,5,,5,6,,4h[8:1]/7h[8:1],,
{24},,,4/7,,,3/6,,,2/5,,,3,,4,,2,,6,,5,,7,,
{8}1w5[8:1],,1x,,3/7,3x/7x,1xh[4:1]/5x,,
{12}8,8,8,2,2,2,6,6,6,4,4,4,
{16}5-1[8:1],,,,1,,,,3,4,,4,3,,2h[8:1]/5h[8:1],,
{24},,,2/5,,,3/6,,,4/7,,,6,,5,,7,,3,,4,,2,,
{8}8w4[8:1],,8x,,2/6,2x/6x,4xq5[8:3]/8x,,
{8},,,,7-3[8:1],2-6[8:1],7b,2b,
{1},
{1},
{1},
E
