&title=God knows...
&wholebpm=150
&artist=涼宮ハルヒ(CV.平野 綾) TVアニメ「涼宮ハルヒの憂鬱」
&des=緑風 犬三郎
&shortid=11252
&genre=POPSアニメ
&cabinet=DX
&version=maimai DX Splash PLUS
&chartconverter=Neskol
&lv_2=3
&des_2=
&lv_3=6
&des_3=
&lv_4=9+
&des_4=華火職人
&lv_5=11+
&des_5=緑風 犬三郎
&lv_6=13
&des_6=小鳥遊さん
&inote_2=
(150){1},
{1},
{1}1,
{1}1,
{1}8,
{1}8,
{1}1h[1:1],
{1},
{1}8h[1:1],
{1},
{2}1,1,
{1}1,
{2}2,2,
{1}2,
{2}3,3,
{1}3,
{2}4,4,
{1}4/5,
{2}5,5,
{1}5,
{2}6,6,
{1}6,
{2}7,7,
{1}7,
{2}8,8,
{1}1x/8x,
{1}8-5[4:3],
{1},
{1}1-4[4:3],
{1},
{1}8-4[4:3],
{1},
{1}1-5[4:3],
{1},
{2}8,8,
{4}7,7,7,,
{2}6,6,
{4}5,5,5,,
{2}4,4,
{4}3,3,3,,
{2}2,2,
{4}1,1,1b/8b,,
{2}1,1,
{4}2,2,2,,
{2}3,3,
{4}4,4,4/5,,
{2}5,5,
{4}6,6,6,,
{2}7,7,
{4}8,8,8,,
{1}1-4[4:3]/8-5[4:3],
{1},
{1}E5,
{1}E4,
{1}E3,
{1}E2,
{1}E1,
{1}E8,
{1}E7,
{1}E6,
{1}4h[1:1],
{1},
{1}5h[1:1],
{1},
{1}3h[1:1]/4h[1:1],
{1},
{1}5h[1:1]/6h[1:1],
{1},
{1}C1xh[1:1],
{1},
{4}8x,8,8,,
{4}7,7,7,,
{4}6,6,6,,
{2}4/5,4/5,
{4}4,4,4,,
{4}3,3,3,,
{4}2,2,2,,
{2}1/8,1x/8x,
{4}1,1,1,,
{4}2,2,2,,
{4}3,3,3,,
{2}4/5,4/5,
{4}6,6,6,,
{4}7,7,7,,
{4}8,8,8,,
{2}1/8,1/8,
{1}1-4[4:3]/8-5[4:3],
{1},
{4}6,6,6,,
{2}5/6,5/6,
{4}4,4,4,,
{2}3/4,3/4,
{4}2,2,2,,
{2}1/2,1/2,
{4}8,8,1/8,,
{1}2b/7b,
{1},
{1},
{1},
E
&inote_3=
(150){1},
{1},
{4}3x,3,3/4,,
{4}6,6,5/6,,
{4}3,3,3/4,,
{4}5,5,4/6,,
{4}7,7,7/8,,
{4}2,2,1/2,,
{4}8,8,1,1,
{4}1/8,1/8,2b/7b,,
{2}6h[2:1],5,
{2}3h[2:1],4,
{2}6h[2:1],5,
{2}3h[4:1]/4h[4:1],3/4,
{2}2h[2:1],1,
{2}7h[2:1],8,
{2}2h[2:1],1,
{4}8,1,2x/7x,,
{4}6,6,5,,
{4}3,3,4,,
{4}6,6,5,,
{4}4,4,3/5,,
{4}2,2,1,,
{4}7,7,8,,
{4}1,1,8,8,
{4}1/8,1/8,2x/7x,,
{1}6<1[2:1],
{1}2>5[2:1],
{1}6<1[2:1],
{2}2,1/8,
{4}7,7,7,,
{4}2,2,2,,
{4}8,8,1,1,
{4}1/8,1/8,2b/7b,,
{4}3,3,3/4,3/4,
{4}6,6,5/6,5/6,
{4}7,7,8,8,
{4}1,1,2/8,,
{4}3h[4:1],4,4,,
{4}6h[4:1],5,5,,
{4}4,4,5,5,
{4}4/5,4/5,3x/6x,,
{4}7,7,7/8,7/8,
{4}2,2,1/2,1/2,
{4}3,3,4,4,
{4}5,5,4/6,,
{4}7h[4:1],8,8,,
{4}2h[4:1],1,1,,
{4}7,7,8,8,
{1}1-4[2:1]/8-5[2:1],
{1}C1hf[8:7],
{1},
{1}2xh[1:1],
{1}1h[1:1],
{1}8h[1:1],
{1}7x,
{1}6h[1:1],
{1}5h[1:1],
{1}4h[1:1],
{2}3,4/5,
{2}B3,B2,
{1}E2,
{2}E8,B7,
{1}B6,
{2}B4,B3,
{2}B2,B1,
{2}B8,B7,
{2}B6,B5,
{1}C1f,
{1}1x/8x,
{4}7,7/8,7,7/8,
{4}2,1/2,2,1/2,
{4}3,3,4,4,
{4}5,5,4/6,,
{4}7h[4:1],8,8,,
{4}2h[4:1],1,1,,
{4}8,8,1,1,
{4}1/8,1/8,2b/7b,,
{4}3,3/4,3,3/4,
{4}6,5/6,6,5/6,
{4}7,7,8,8,
{4}1,1,2/8,,
{4}3h[4:1],4,4,,
{4}6h[4:1],5,5,,
{4}3,3,4,4,
{1}4>1[2:1]/5<8[2:1],
{1}C1hf[8:7],
{1},
{1}8-4[2:1],
{1}2-6[2:1],
{1}8-5[2:1],
{2}4,3/6,
{4}2,2,1,1,
{4}8,8,7,7,
{4}6,6,5,5,
{1}4b>5[4:9],
{1},
{1},
{1},
{1},
E
&inote_4=
(150){1},
{8}2,,2,,1,1,8b,,
{16}7h[16:3],,,6h[16:3],,,5h[16:3],,,4h[16:3],,,3,,,,
{16}2h[16:3],,,3h[16:3],,,4h[16:3],,,5h[16:3],,,6,,,,
{16}7h[16:3],,,6h[16:3],,,5h[16:3],,,4h[16:3],,,3>6[8:3],,,,
{8},,,,,8x,8x,,
{16}3h[16:3],,,2h[16:3],,,1h[16:3],,,8h[16:3],,,7,,,,
{16}6h[16:3],,,7h[16:3],,,8h[16:3],,,1h[16:3],,,2,,,,
{8}3,3,5,5,2,2,6q3[4:1],,
{4},,,4/5,
{4}6h[1:2],5,5,5,
{4}4,4,4,4,
{8}3h[2:1],,4,,4,,5,5h[4:1],
{8},6h[4:1],,7h[4:1],,6h[4:1],,5,
{4}5h[1:1],4,4,3,
{4}2h[4:3],4,5,6p3[4:3],
{1},
{8}1x,,8,8,3/7,,4/5,,
{8}6,6,4,4,7,7,5,,
{8}3,3,5,5,2,2,4,,
{8}6,6,5,5,4,4,3s7[8:5],,
{1},
{8}7,7,5,5,8,8,4,,
{8}2,2,4,4,1,1,5<4[8:5],,
{1},
{8}E6,E4,E7,E3,E8,E2,C1f,,
{8}1h[2:1],,3,,4h[4:1],,5,5,
{8},4/6,,2/8,2/8,,1/7,,
{8}6h[2:1],,5,,4h[4:1],,1,1,
{8},2/8,,4/6,4/6,,2p4[8:3]/4,,
{4},,,5/7q5[8:3],
{8},,,,,4,4>5[8:5],,
{1},
{8}4/5,,4,4,5,4,,2h[4:1]/6,
{8},1<4[8:3]*p4[8:3],1,,,,,2h[4:1],
{8},1<4[8:3]*p4[8:3],1,,,,,2h[4:1],
{8},1,8,7h[4:1],,6,,4h[4:1],
{8},1h[4:1],,8h[4:1],,5,5,,
{8}4/6,,3,3h[4:1],,1,1-6[8:1],,
{4}2-5[8:1],1-6[8:1],2-5[8:1],1<3[2:1],
{8},,,,,1x,,2b/8b,
{8},,3-8[8:1]/4-7[8:1],,,,,3/7h[4:1],
{8},5>8[8:3]*p8[8:3],5,,,,,7h[4:1],
{8},5>8[8:3]*p8[8:3],5,,,,,7h[4:1],
{8},5,4,3h[4:1],,2,,8h[4:1],
{8},5h[4:1],,4h[4:1],,1,1,,
{8}3V51[8:3]/7V51[8:3],,,,,,,2,
{4}2-6[8:1],1-5[8:1],2-6[8:1],1<3[2:1],
{4},,,1/8,
{16}3b/6b,,,,3/6,,,,7h[16:3],,,8h[16:3],,,1,,
{8}1z5[2:1],,,,,,4,4w8[8:3],
{8},,,,,,,6,
{8}6h[1:1],,,5,,5,,4,
{8}4h[1:1],,,5,,5,,6,
{8}6h[8:5],,,5,,5,,4h[4:1],
{8},3h[4:1],,2h[4:1],,1,1q5[8:3],,
{4},,,6h[4:1],
{8}5,,4,4h[4:1],,5h[4:1],,4q2[8:3],
{1},
{8}E6,E4,E8,E2,E7,E3,C1,,
{8}2h[1:1],,,5,,5,,6,
{8}6h[1:1],,,5,,5,,4,
{8}4h[8:5],,,5,,5,,5h[4:1],
{8},6h[4:1],,7h[4:1],,8,8pp4[4:3]*qq4[4:3],,
{1},
{4},B2/E3/B3,B6/B7/E7,E1/B1/B8,
{8}C1/B4/B5,,7,7,1,1,8,8,
{8}2/7,2/7,2/7,2/7,2/7,2/7,2/7,2/7,
{8}2b/7b,,,,,,,4b/5b,
{8}4b/5b,,2/7,,1/8,1/8,,3/7h[4:1],
{8},8>5[8:3]*q5[8:3],8,,,,,7h[4:1],
{8},8>5[8:3]*q5[8:3],8,,,,,7h[4:1],
{8},8,1,2h[4:1],,3,,5h[4:1],
{8},8h[4:1],,1h[4:1],,4,4,,
{8}3/5,,6,6h[4:1],,8,8-3[8:1],,
{4}7-4[8:1],8-3[8:1],7-4[8:1],8>6[2:1],
{8},,,,,8x,,2b/7b,
{8},,5-2[8:1]/6-1[8:1],,,,,2h[4:1]/6,
{8},4<1[8:3]*q1[8:3],4,,,,,2h[4:1],
{8},4<1[8:3]*q1[8:3],4,,,,,2h[4:1],
{8},4,5,6h[4:1],,7,,1h[4:1],
{8},4h[4:1],,5h[4:1],,8,8,,
{8}2V48[8:3]/6V48[8:3],,,,,,,7,
{4}7-3[8:1],8-4[8:1],7-3[8:1],8>6[2:1],
{4},,,1/8,
{16}3b/6b,,,,3/6,,,,2h[16:3],,,1h[16:3],,,8,,
{8}8s4[8:3],,,,,,5,5w1[8:3],
{4},,,8,
{8}1/2,,3,4,2,2,2/4,,
{8}7x,7x,6x,5x,4h[4:1],,8b,,
{4}1-5[8:1],7-4[8:1],2-5[8:1],8,
{4}7<3[8:3],,,1b,
{8}4,4,5,5,3,3,2/4,,
{8}5,5,4,4,6,6,5/7>2[4:1],,
{16},,,,,,,,1,8,1,8,1,,,,
{1}2h[2:7]/7h[16:67],
{1},
{1},
{1},
{1},
{1},
{1},
E
&inote_5=
(150){1},
{16}6,,,,6,,,,4/6,,4,5,3,,,,
{16}3,4,,4,2,,6,5,,5,7,,1x,,1x,,
{16}6,5,,5,7,,3,4,,4,2,,8x,,8x,,
{16}3,4,,4,2,,6,5,,5,7,,1x,,1x/8h[4:1],,
{8},6,5,4/6,,4,3,2,
{16}6,5,,5,7,,3,4,,4,2,,8x,,8x,,
{16}3,4,,4,2,,6,5,,5,7,,1x,,1x,,
{8}8h[12:1],7h[12:1],6h[12:1],5h[12:1],4h[12:1],3h[12:1],2h[12:1],1h[12:1],
{8}8,7>2[4:1],6,5,,,,,
{4}3/5<8[4:1],3,3,3,
{8}3,,3,8,3/8,,3,6,
{8}3/6,,3/4,,3/6,,8,8h[4:1],
{8},6h[4:1],,4h[4:1],,3h[4:1],,5,
{4}4>1[4:1]/6,6,6,6,
{8}1/6,,6,3,3/6,,5/6,,
{8}4/6pp3[2:1],,,,,,,2,
{8}2h[4:1],,4,5,6h[4:1],,4,,
{8}3,3,3/5,3,3/5,3,3/5,3,
{8}3/4,3,3/4,3,3/7,3,3/6,3,
{8}3/5-8[4:1],3,3,3,3x,3x,3x,3x,
{8}3x/5,3x,3x/5,3x,3x/4,3x,3x/5,3x,
{8}6,6,4/6,6,4/6,6,4/6,6,
{8}5/6,6,5/6,6,3/6,6,2/6,6,
{8}1>4[4:1]/6,6,6,6,6x,6x,6x,6x,
{8}5/6x,5/6x,4/6x,4/6x,3/6x,3/6x,2b/7b,,
{8}3-8[8:1],,5,,6-1[8:1],,3,3h[4:1],
{8},4,4,2,2,5,3/5,,
{8}6-1[8:1],,4,,3-8[8:1],,6,6h[4:1],
{8},5,5,7,7,3,5,1,
{8}1>4[4:1],,5,,6,,7,7h[4:1],
{8},5,4,3/6<8[8:1],,2,2,,
{4}1>8[2:1],C1f,,,
{8}2b/7b,,,,,,4/5,3/6,
{8},2,1,7-4[8:1]/8-3[8:1],,7x/8x,,2/5,
{8},5,6,7-4[8:1]/8-3[8:1],,7x/8x,,2/6,
{8},6,7,3/8<5[8:1],,3,2,1>4[8:1],
{8},6,,8<3[8:3],,2,2,,
{8}1h[4:1],,4,5h[4:1],,3,2,1,
{4}8<4[4:1],4>8[4:1],8<4[4:1],4>4[2:1],
{8}C1f,,,,,1b,2b/8b,3b/7b,
{8},,4-1[8:1]/5-8[8:1],,4x/5x,,,1b/8b,
{8},7,8,1-6[8:1]/2-5[8:1],,1x/2x,,4/7,
{8},4,3,1-6[8:1]/2-5[8:1],,1x/2x,,3/7,
{8},3,2,1>4[8:1]/5,,6,7,8<5[8:1],
{8},3,,1>6[8:3],,7,7,,
{8}8h[4:1],,5,4h[4:1],,5,6,1/7,
{2}1v4[8:1]/7v4[8:1],2v5[8:1]/8v5[8:1],
{8}3h[4:1]/7h[4:1],,,1/5,1>4[8:1]/5<8[8:1],,,,
{16}3b/7b,,,,1,,,,5h[16:3],,,6h[16:3],,,7,,
{8}8-4[8:1],,,,3,3>4[8:5],,C1f,
{4},,,3/6,
{4}8-5[2:1],4,4,4,
{4}5<8[2:1],E4,E2,C1,
{4}8-5[2:1],1,1,1,
{4}1/8,2h[4:1],3h[4:1],4h[4:1],
{4}5h[4:3],4,4,3-6[8:1],
{4}6,7-2[8:1],2,3-8[8:1],
{4}7<2[2:1],1,,,
{8}E1/B8,B2/E3,B6/E7,B4/E5,B8/E8,B2/E2,B6/E6,,
{4}1-4[2:1],5,5,5,
{4}4>1[2:1],E6,E8,C1,
{4}1-4[2:1],8,8,8,
{4}4/5,6h[4:1],7h[4:1],8>7[8:5],
{1}C1f,
{4}3/6,7-3[8:1],2-6[8:1],5-8[8:1],
{8}4,4,4,4,4,4,4,4,
{8}4/5,4/5,4/5,4/5,4/5,4/5,4/5,4/5,
{8}3b/6b,,,,,,,4b/5b,
{8}2b/7b,,,,3/6,1-4[8:1]/8-5[8:1],,1x/8x,
{8},7,8,1v6[8:1]/2>5[8:1],,1x/2x,,5/7,
{8},4,3,1v6[8:1]/2>5[8:1],,1x/2x,,5/7,
{8},7,6,1/5<8[8:1],,2,3,4>1[8:1],
{8},8,,5<2[8:3],,2,2,,
{8}3h[4:1],,5,6h[4:1],,4,3,2,
{4}5<1[4:1],1>5[4:1],5<1[4:1],1>1[2:1],
{8}C1f,,,,,1b,2b/8b,3b/7b,
{8},,4-1[8:1]/5-8[8:1],,4x/5x,,,1b/8b,
{8},2,1,7<4[8:1]/8v3[8:1],,7x/8x,,2/4,
{8},5,6,7<4[8:1]/8v3[8:1],,7x/8x,,2/4,
{8},2,3,4>1[8:1]/8,,7,6,5<8[8:1],
{8},1,,4>7[4:1],,7,7,,
{8}5h[4:1],,2,1h[4:1],,6,7,2/8,
{2}2v5[8:1]/8v5[8:1],1v4[8:1]/7v4[8:1],
{8}2h[4:1]/6h[4:1],,,4/8,4>1[8:1]/8<5[8:1],,,,
{16}2b/6b,,,,8,,,,4h[16:3],,,3h[16:3],,,2,,
{8}1-5[8:1],,,,6,6<5[8:5],,C1f,
{8},,,,,,3/6,3/6h[4:1],
{8},8,8h[8:1],1,1h[8:1],3,3h[8:1],4,
{8}5-7[8:1],5>1[4:1],,,,,6,6h[4:1],
{8},4,3,2-6[8:1],,5-8[8:1],,4,
{8}4,,1/2,1/2,3/8,4/7,5/6,,
{16}B2,B3,B4,,8,,B7,B6,B5,,1,,1,,8,,
{16}B7,B6,B5,,1,,B2,B3,B4,,8,,8,,2,,
{16}7,,1h[4:1]/8h[4:1],,,,,,2/7,,3,4,2,,6,5,
{1}7b>5[2:7],
{1},
{1},
{1},
{24},,B6,B5,B4,B3,,,,,,,,,,,,,,,,,,,
{1},
{1},
{1},
E
&inote_6=
(150){1},
{16}7,,,,7,,,,8,,5,6,4,5,3,,
{16}1x/2x,,3,4,,5,4,,3,4,,5,4,,6,,
{16}7/8,,6,5,,4,5,,6,5,,4,5,,3,,
{16}1/2,,3,4,,5,4,,3,4,,5,4,,6h[4:1],,
{8},7>6[8:3],8,1,,,2,1,
{16}7x/8x,,6,5,,4,5,,6,5,,4,5,,3,,
{16}1/2,,3,4,,5,4,,3,4,,5,4,,6,,
{24}B2,B3,B4,B7,B6,B5,E2,E3,E4,E8,E7,E6,B2,B3,B4,B7,B6,B5,E2,E3,E4,E8,E7,E6,
{8}1,2<7[4:1],3,4,,,,,
{4}1>4[4:3]/6,6,6,6,
{8}5,,5,4,5,3,5,2,
{8}2>5[8:5]/6,,6,,6,,7,7h[4:1],
{8},5h[4:1],,4h[4:1],,3,3/4,,
{4}3/7<4[2:1],3,3,3,
{8}4,,4,5,4,6,4,7,
{16}3/8h[16:3],,,5h[16:3],,,3pp6[8:7],,,,,,,,,,
{4}E1,E2,E3,4b,
{8}5,4,3/6,5,4,3/6,5,4/6,
{8}3,4,2/5,3,4,2/5,3,2/4,
{8}6,5,4/7,6,5,4/7,6,5/7,
{8}4h[16:1]/5h[16:1],3h[16:1]/4h[16:1],4h[16:1]/5h[16:1],5h[16:1]/6h[16:1],4h[16:1]/5h[16:1],3h[16:1]/4h[16:1],4b/5b,,
{8}4,5,3/6,4,5,3/6,4,3/5,
{8}6,5,4/7,6,5,4/7,6,5/7,
{8}3,4,2/5,3,4,2/5,3,2/4,
{8}2h[16:1]/4h[16:1],3h[16:1]/5h[16:1],4h[16:1]/6h[16:1],5h[16:1]/7h[16:1],4h[16:1]/6h[16:1],3h[16:1]/5h[16:1],2b/4b,,
{8}1/6>3[4:1],,2,,1>4[4:1],,6,6h[2:1],
{8},,,5,4,3,2,1,
{8}8<5[4:1],,4,,3>8[4:1],,7,7qq3[2:1],
{8},2h[4:3],,,,,,3,
{16}4,,5,,6V48[4:1],,4,4h[16:5],,,,,,,6,,
{16}5,,4,,3-5[16:1],,5,5,,,8,,2b/6b,,,,
{8}3/7,,2V83[16:5]/6V47[16:5],2/6,,,,,
{16}4b/8b,,,3,4,,6,5,,3,4,,5,4,5,,
{16}1b/8b,,2,,3/4,,5-1[8:1],4,,,5/7,,,,2x/8xh[4:1],,
{16},,6,,5/6,,4-8[8:1],5,,,2/4,,,,3x/8x<4[16:3],,
{8},2,1,8>4[16:3],,5,6,7-3[8:1],
{8},8-4[8:1],,1-5[8:1],,2,3,4,
{16}5/6,,7,,6/8,,2,1,,3,4,,2/6,,5,4,
{16}5,,2,,1/3,,7,8,,6,5,,3/7>6[2:1],,4,,
{8}5h[2:1],,,,,4x/8x,3x/7x,2b/6b,
{8},3V51[4:1]/7V51[4:1],3/7,,C1f,,,3b/8b,
{16},,7,,5/6,,4-8[8:1],5,,,2/4,,,,1xh[4:1]/7x,,
{16},,3,,3/4,,5-1[8:1],4,,,5/7,,,,2x/5x<1[16:3],,
{8},3,4,5>1[16:3],,8,7,6-2[8:1],
{8},5-1[8:1],,4-8[8:1],,3,2pp6[2:1]*qq6[2:1],1,
{8}2,,,C1f,,,,1/7,
{4}2-6[8:1]/8-6[8:1],2-4[8:1]/8-4[8:1],2v5[8:1]/8v5[8:1],2/8,
{8}2h[4:1]/4<2[2:1],,,C1hf[8:5],,,,,
{16},,,,1x/8x,,,,2h[16:3]/6,,,3h[16:3],,,4,,
{8}6h[2:1],,7,,4,2w6[8:3],,,
{16},,,,,,,,3b/8b,,,,4,5,4,5,
{8}2>5[8:3],,5,5,,6,,7,
{8}7<4[8:3],,B4,E4,,E3,,E2,
{8}1>4[8:3],,4,4,,5,,6h[4:1],
{8},8h[4:1],,1h[4:1],,3,4,5,
{4}4h[2:1]/6h[2:1],,,5/7,
{8}4/6,,3/5,3/5,,2/4,,3/6,
{8},4/5,4h[2:1]/5h[4:1],,,,,,
{8}3h[16:1]/4h[16:1],4h[16:1]/5h[16:1],5h[16:1]/6h[16:1],4h[16:1]/5h[16:1],3h[16:1]/4h[16:1],4h[16:1]/5h[16:1],5/6,,
{8}5>1[2:1],,6,6,,5,,4,
{8}4<8[2:1],,B1,E2,,E3,,E4,
{8}5>1[2:1],,6,6,,7,,1/8h[4:1],
{8},7h[4:1],,6h[4:1],,5,4>5[1:1],3,
{1}2h[1:1],
{4},4p8[8:1]/8p4[8:1],4<7[8:1]/8>3[8:1],4/8z4[4:1],
{8}1h[2:1]/8,,,,,3/6,4/5,1/8h[2:1],
{8},5,5,5,5/6,7/8,1/2,3/4,
{8}1b/6b,,,,,,,1x/8x,
{16}3x/6x,,,,,,,,1b/8b,,2,5,3,6,4,7,
{16}1b/8b,,7,,5/6,,3-7[8:1],4,,,1/3,,,,2xh[4:1]/8x,,
{16},,3,,3/4,,6-2[8:1],5,,,6/8,,,,1x>6[16:3]/6x,,
{8},8,1,2<5[16:3],,4,3,2-6[8:1],
{8},1-5[8:1]/2,,1/8-4[8:1],,7/8,6,5,
{16}3/4,,2,,1/3,,7,8,,6,5,,3/7,,4,5,
{16}4,,7,,6/8,,2,1,,3,4,,2<3[2:1]/6,,5,,
{8}4h[2:1],,,,,1x/5x,2x/6x,3b/7b,
{8},2V48[4:1]/6V48[4:1],2/6,,C1f,,,1b/6b,
{16},,2,,3/4,,6-2[8:1],5,,,6/8,,,,1x/7xh[4:1],,
{16},,6,,5/6,,3-7[8:1],4,,,1/3,,,,4x>7[16:3]/7x,,
{8},5,4,3<8[16:3],,1,2,3-7[8:1],
{8},3/4-8[8:1],,4/5-1[8:1],,5/6,7pp3[2:1]*qq3[2:1],8,
{8}7,,,C1f,,,,2/8,
{4}1-3[8:1]/7-3[8:1],1-5[8:1]/7-5[8:1],1v4[8:1]/7v4[8:1],1/7,
{8}5>7[2:1]/7h[4:1],,,C1hf[8:5],,,,,
{16},,,,1x/8x,,,,3/7h[16:3],,,6h[16:3],,,5,,
{8}3h[2:1],,2,,5,7w3[8:3],,,
{8},,,,1b/5b,,6h[8:1],4h[8:1],
{16}7h[8:1],,5h[8:1],,3h[8:1],,1h[8:1],,8,7,6,5,3h[8:1]/4,,8,7,
{16}6,5,3/4,,2/5,,1-5[8:1]/6,,,,5,,6,,7-4[8:1],,
{16},,1/7,,2,,3,3,4h[8:1],,6h[8:1],,8h[8:1],,2h[8:1],,
{8}3,3-8[8:1],,6-2[8:1],,8,7,6,
{16}1b,4,3,4,3,4,1b,3,2,3,2,3,1b,4,2,,
{16}8b,5,6,5,6,5,8b,6,7,6,7,6,8b,5,7,,
{16}2,1,2h[4:1],,,,4,,3/5,,6,5,4x/7x,,3,4,
{1}2b<3[1:3]/5b,
{1},
{1},
{4},8z4[8:3],,,
{24},,3,4,5,6,,,,,,,,,,,,,,,,,,,
{1},
{1},
{1},
E
