&title=BOUNCE & DANCE
&wholebpm=135
&artist=IOSYS TRAX
&des=シチミッピー
&shortid=11246
&genre=オンゲキCHUNITHM
&cabinet=DX
&version=maimai DX Splash PLUS
&chartconverter=Neskol
&lv_2=3
&des_2=
&lv_3=7+
&des_3=
&lv_4=10
&des_4=Jack
&lv_5=13+
&des_5=シチミッピー
&des_6=
&inote_2=
(135){1},
{1},
{1},
{1},
{1},
{1}1,
{1}1,
{1}8,
{1}8,
{2}1x,1,
{1}2,
{2}3,3,
{1}4,
{2}5,5,
{1}6,
{2}7,7,
{1}1x/8x,
{4}8,8,8,,
{2}7,7,
{4}6,6,6,,
{2}4/5,4/5,
{4}4,4,4,,
{2}3,3,
{4}2,2,2,,
{2}1/8,1/8,
{4}1,1,1,,
{2}2,2,
{4}3,3,3,,
{2}4/5,4/5,
{4}5,5,5,,
{2}6,6,
{4}7,7,7,,
{2}1/8,1/8,
{1}1-4[4:3],
{1},
{1}8-5[4:3],
{1},
{1}1-4[4:3],
{1},
{1}8-5[4:3],
{1},
{1}1,
{1}1/2,
{1}3h[2:1]/4h[2:1],
{1}3/4,
{1}5h[2:1]/6h[2:1],
{1}5/6,
{1}4h[2:1]/5h[2:1],
{1}4/5,
{1}B4,
{1}B5,
{1}B3,
{1}B6,
{1}B2,
{1}B7,
{1}C1xh[1:1],
{1},
{4}8,8,8,,
{4}7,7,7,,
{4}6,6,6,,
{4}5,5,4/5,,
{4}4,4,4,,
{4}3,3,3,,
{4}2,2,2,,
{4}1,1,1/8,,
{4}1,1,1,,
{2}1/2,1/2,
{4}3,3,3,,
{2}4/5,4/5,
{4}5,5,5,,
{2}5/6,5/6,
{4}7,7,7,,
{4}1/8,1/8,1/8,,
{1}8-5[4:3],
{1},
{1}4-1[4:3],
{1},
{1}8-5[4:3],
{1},
{1}1h[2:1],
{2}1,1/8,
{4}8,8,7,,
{2}5/6,5/6,
{4}4,4,3,,
{2}1/2,1/2,
{4}3,3,4,,
{4}6,6,5,,
{4}4,4,4/5,,
{1}3h[2:1]/6h[2:1],
{1}3b/6b,
{1},
{1},
{1},
E
&inote_3=
(135){1},
{4}3,3,3/4,,
{4}6,6,5/6,,
{4}7,7,7/8,,
{4}1,1,2/8,,
{4}3h[4:1],4,3/4,,
{4}6h[4:1],5,5/6,,
{4}7h[4:1],8,7/8,,
{4}1/2,1/2,3/8,,
{1}7-3[8:3],
{1}2-5[8:3],
{1}6-1[8:3],
{1}2V46[2:1],
{4}7,7,8,8,
{4}1,1,2,2,
{4}3,4,5,6<3[8:5],
{1},
{4}2,1/2,3h[4:1]/8h[4:1],,
{4}7,7/8,1h[4:1]/6h[4:1],,
{4}2,2,1/2,1/2,
{4}3,4,5,6x,
{4}7,7/8,1h[4:1]/6h[4:1],,
{4}2,1/2,3h[4:1]/8h[4:1],,
{4}7,7,7/8,7/8,
{4}6,5,4,4x/5x,
{4}3h[2:1],,4,5,
{4}6h[2:1],,5,4,
{4}3h[2:1],,4,5,
{4}6,4/5,3/6,,
{4}2h[2:1],,1,8,
{4}7h[2:1],,8,1,
{4}2h[2:1],,1,1-6[8:3]/2-5[8:3],
{1},
{2}B6,B5,
{2}B4,B3,
{2}B2,B1,
{2}B8,B7,
{1}5x-8[8:3],
{4}2h[2:1],,1,1/2,
{2}7h[4:1]/8h[4:1],1h[4:1]/2h[4:1],
{4}1/8,1/8,2/7,,
{1}6bv1[8:3],
{1}2>5[16:5],
{4}6,6,5,5,
{4}4,4,3/5,,
{4}2,2,1/2,,
{4}7,7,7/8,,
{4}2,2,1,1,
{4}1/8,1/8,2/7,,
{2}6h[2:1],5h[2:1],
{2}4h[2:1],3,
{2}2h[2:1],1h[2:1],
{2}8h[2:1],7,
{4}6,7,8,1,
{4}2,3,4,3/5,
{8}2,2,2,,1,1,1s5[8:5],,
{1},
{4}6,6,5/6,4/7,
{4}3,3,3/4,2/5,
{8}1,,2,,3,3,3,,
{4}4/5,3/6,2/7,,
{4}3,3,3/4,2/5,
{4}6,6,5/6,4/7,
{8}8,,7,,6,6,6,,
{4}4/5,3/6,2/7,,
{8}3,3,3,,3/4,,2/5,,
{8}6,6,6,,5/6,,4/7,,
{8}8,8,8,,1/2,,3,,
{4}3/4,3/4,2/5,,
{8}6,6,6,,5/6,,4/7,,
{8}3,3,3,,3/4,,2/5,,
{8}1,1,1,,7/8,,6,,
{4}4/5,3/6,2/7,,
{4}E7,B6,B5,,
{4}E3,B3,B4,,
{4}B7,B6,E6,,
{4}B2,B3,E4,,
{4}6x,6,5,5,
{4}4,4,3/5,,
{4}2,2,1,1,
{4}1/8,1/8,2/7,,
{4}6h[2:1],,5,5/6,
{4}7/8,7/8,1/6,,
{4}2h[2:1],,1,1/2,
{4}3/4,3/4,2/5,,
{4}6h[2:1],,5,4/6,
{4}3h[2:1],,4,3/5,
{8}2,2,2,,1,1,1,,
{8}8,8,8,,7,7,7,,
{1}1b/8b,
{1},
{1},
{1},
E
&inote_4=
(135){1},
{8}3,,4,,,4,3/5,,
{8}6,,5,,,5,4/6,,
{8}3,,4,,,4,3/5pp4[4:3],,
{1},
{16}3/4,,,,3/4,,,,3/4h[16:3],,,5h[16:3],,,6,,
{16}5/6,,,,5/6,,,,5h[16:3]/6,,,4h[16:3],,,3,,
{16}2/4,,,,2/4,,,,2/4h[16:3],,,5h[16:3],,,7,,
{1}5/7p4[2:1],
{16}2/4,,,,3/5,,,,4/6h[16:3],,,7h[16:3],,,8,,
{16}1/8,,,,5/7,,,,3h[16:3]/5,,,2h[16:3],,,1,,
{16}1/8,,,,2/4,,,,4/6h[16:3],,,7h[16:3],,,8,,
{8}1/8qq3[16:7],,,,,,1x,1x,
{16}2x/4x,,,,4/5,,,,5/7h[16:3],,,6h[16:3],,,8,,
{16}5x/7x,,,,4/5,,,,2h[16:3]/4,,,3h[16:3],,,1,,
{16}2x/4x,,,2/4,,,1/8,,5x/7x,,,5/7,,,1pp4[8:3]/8qq5[8:3],,
{8},,,,,,1x/8x,2b/7b,
{16}3/6,,3/6,,,1,,1h[16:3],,,8,,7,,6,,
{16}4/5,,4/5,,,2,,2h[16:3],,,1,,8,,7,,
{16}5/6,,5/6,,,3,,3h[16:3],,,2,,1,,8,,
{16}7h[16:3],,,6h[16:3],,,5,,5,,4/6,,3x/7x,,,,
{16}2/6,,2/6,,,8,,8h[16:3],,,1,,2,,3,,
{16}4/5,,4/5,,,7,,7h[16:3],,,8,,1,,2,,
{16}3/4,,3/4,,,6,,6h[16:3],,,7,,8,,1,,
{16}2h[16:3],,,3h[16:3],,,4,,4,,3/5,,2xq5[4:3]/6x,,,,
{1}C1f,
{16}5/7,,5/7,,,2/4,,2/4h[16:3],,,3h[16:3],,,1,,,
{16}2/4,,2/4,,,5/7,,5h[16:3]/7,,,6h[16:3],,,8,,,
{1}C1hf[4:3]/B3/E3/B7/E7,
{16}1xh[16:3],,,2h[16:3],,,3,,7xh[16:3],,,6h[16:3],,,5,,
{16}2xh[16:3],,,3h[16:3],,,4,,8xh[16:3],,,7h[16:3],,,6,,
{16}3x/4x,,,3x/4x,,,2x/6x,,5x/6x,,,5x/6x,,,3xpp6[8:5]/7xpp2[8:5],,
{1},
{4}4/5,B3/E3,4/5,B6/E7,
{4}3/4,B2/E2,5/6,B7/E8,
{4}2/4,B1/E1,5/7,E1/B8,
{4}4/5,E2/E8,E3/E7,E4/E6,
{8}1x>7[2:1]/8x,,,,,,,8x,
{4}8x-4[8:1],,3x/5x,4x/6x,
{2}1x/2x-6[8:1],7x-3[8:1]/8x,
{16}1x/2x,,,4x/5x,,,7x/8x,,1x,8x,1x,8x,1x,8x,1x,8x,
{16}1xh[1:2],,,,4,,,,6,,,7,,,8,,
{16}8,,,,4,,,,6,,,7,,,8,,
{16}8xh[1:2],,,,5,,,,3,,,2,,,1,,
{16}1,,,,5,,,,3,,,2,,,1,,
{16}1x,,,,1x/8x,,,,2h[16:3],,,3h[16:3],,,4,,
{16}4x/5x,,,,4x/5x,,,,7h[16:3],,,6h[16:3],,,5,,
{16}4x/5x,,,,1x/8x,,,,2h[16:3],,,3h[16:3],,,4,,
{1}4>5[2:1],
{16}3x-5[8:1]/6x,,,,,,,,6,,,6,,,6,,
{16}5x/7x-4[8:1],,,,,,,,3,,,3,,,3,,
{16}2x-6[8:1]/4x,,,,,,,,7,,,7,,,7,,
{8}1x/8x-5[8:1],,4x-1[8:1],,8,,8,8,
{16}1x-5[8:1]/7x,,,,,,,,6h[16:3],,,7h[16:3],,,8,,
{16}2x/8x-4[8:1],,,,,,,,3h[16:3],,,2h[16:3],,,1,,
{16}1x/7x,,,1/7,,,4/5,,2x/8x,,,2/8,,,4h[8:1]/5h[8:1],,
{4},3x-8[8:1],6x-1[8:1],2b,
{16}1x/2x,,1x/2x,,,3,,3h[16:3],,,4,,5,,6,,
{16}7x/8x,,7x/8x,,,6,,6h[16:3],,,5,,4,,3/6,,
{16}1x/8x,,1x/8x,,,2,,2h[16:3],,,3,,4,,5,,
{16}6h[16:3],,,7h[16:3],,,8,,8,,1/7,,2b/6b,,,,
{8}8,1x,2x,3x,4,5<7[8:1],5,,
{8},1x,2x,3x,4,5<8[8:1],5,,
{8},1x,2x,3x,4,5<1[16:3],5,,
{8},2,3,4,5,6,1/7,1x>4[8:1]/7x<4[8:1],
{8},,,8x,1h[8:1],8x,3h[8:1],8x,
{8}2h[8:1],8x,4h[8:1],8x,3h[8:1],8x,5h[8:1],8x,
{8}4h[8:1],8x,6h[8:1],8x,4h[8:1],8x,6h[8:1],8x,
{8}4h[8:1],8x,6h[8:1],8x,4h[8:1],8x,6h[8:1],8x,
{8}3b/7b,1x,5h[8:1],1x,7h[8:1],1x,6h[8:1],1x,
{8}8h[8:1],1x,6h[8:1],1x,7h[8:1],1x,5h[8:1],1x,
{8}6h[8:1],1x,4h[8:1],1x,5h[8:1],1x,3h[8:1],1x,
{8}6h[8:1],1x,4h[8:1],1x,7h[8:1],1x,3h[8:1],1x,
{1}7b>6[2:1],
{16}1/8,,1/8,,,2/6,,2h[16:3]/6,,,3h[16:3],,,4h[16:3],,,
{16}5,,4/5,,,3/7,,3/7h[16:3],,,6h[16:3],,,5h[16:3],,,
{16}4x,,,1x/2x,,,4x/5x,,,7x/8x,,,1b,,,,
{16}4/8,,4/8,,,2/6,,2/6h[16:3],,,7h[16:3],,,8h[16:3],,,
{16}4,,4/8,,,2/6,,2h[16:3]/6,,,3h[16:3],,,4h[16:3],,,
{16}8,,4/8,,,2/6,,2/6h[16:3],,,5h[16:3],,,4h[16:3],,,
{4}3pp6[2:1],,,8b,
{4}5q4[4:1]/6<3[4:1],,,1x/2x,
{16}3h[16:3]/8,,,4,,2/5,,,1x-4[8:1]/8x-5[8:1],,,,,,,,
{4}3>6[4:1]/4p5[4:1],,,7x/8x,
{16}1/6h[16:3],,,5,,4/7,,,8x-5[8:1],,1x-4[8:1],,,,,,
{4}6x<3[4:1]*q3[4:1],,,1x/8x,
{16}5h[16:3],,,4,,3/7,,,2x<7[8:1]/6x>3[8:1],,,,,,,,
{8}2,2,3,3,4,4,5,5,
{16}6,,6,,7,,7,,1,8,1,8,1,8,1,8,
{1}C1f,
{1},
{1},
{1},
E
&inote_5=
(135){1},
{16}3/4,,,,2h[16:5]/5,,,,,4,3,,2/5h[4:1],,,,
{16}3,,3,4,,4/6,,7,7,5,,3,3,4,,6,
{16}5/6,,,,4/7h[16:5],,,,,5,6,,4/7,,3/6,,
{8}4/5,B2/E3,4/5,B7/E7,4/5,B3/E3,4/5,,
{16}2-5[8:1]/6,,,,8,,,,4h[8:1]/6h[8:1],,,4h[8:1]/6h[8:1],,,3/7,,
{16}3/7,,6,5,,3/5,,2,2,4,,6,6,5,,2,
{16}2-5[8:1]/5,,,,8,,,,4h[8:1]/6h[8:1],,,4h[8:1]/6h[8:1],,,4/6,,
{16}2,4,2,,7,5,7,,2,4,2,,8b,,1b,,
{16}4/7,,,,B5/B6/E7,,,,3h[8:1]/4h[8:1],,,2h[8:1]/5h[8:1],,,3/4,,
{16}2/5,,,,B3/E3/B4,,,,5h[8:1]/6h[8:1],,,4h[8:1]/7h[8:1],,,5/6,,
{16}4/7,,,,B5/B6/E7,,,,3h[8:1]/4h[8:1],,,2h[8:1]/5h[8:1],,,3/4,,
{8}2/5,,B3/E3/B4,,5/6,,B3/E3/E4,B6/E6/E7,
{16}4b/5b,,,,B3/E4/8,,,,B6/E6/1h[16:3],,,4,,4,3,,
{16}2/5,,,,B6/E6/1,,,,B3/E4/8h[16:3],,,5,,5,6,,
{16}4/7,,2,1,,3,4,,2/5,,7,8,,6,5,,
{8}C1f/8b,,,,4h[16:1]/5h[16:1],3h[16:1]/4h[16:1],2/5,1b,
{16}7/8,,6,5,,4/7-4[8:1],,2,,8,8,,1,8,2,,
{16}1/2,,3,4,,2-5[8:1]/5,,7,,1,1,,8h[8:1],,1b,,
{16}7/8,,6,5,,4/7-4[8:1],,2,,8,8,,2,,3/7,,
{16}4/8,,6x,6,5,7x,4,8x,8-3[8:1]*-5[8:1],,1x/7x,,8b,,,,
{16}1/2,,3,4,,2-5[8:1]/5,,7,,1,1,,8,1,7,,
{16}7/8,,6,5,,4/7-4[8:1],,2,,8,8,,2h[8:1],,8b,,
{16}1/2,,3,4,,7,8,,6,5,,3,3,4,2,,
{16}8h[16:5],,6,6,,1h[4:1],,3,,8,8,,2/7b,,4b/5,,
{16}3/7,,2<7[8:1]/6,,,4,,4,,,5-7[8:1],,,3,,,
{16}2,,3/7>2[8:1],,,5,,5,,,4-2[8:1],,,6,,,
{16}7,,2<7[8:1]/6,,,4,,4,,,5,,,4/6,,,
{16}3/8,,6,5,,4/7,,3,4-1[8:1],,2/5,,6b,,,,
{16}3/7-1[8:1],,4,4,7,,,,5-3[8:1],,8,8,5,,,,
{16}7-1[8:1],,5,5,7,,6,,6,,4/8,,7,5,6,5,
{16}6,,3,4,,2,1,,3/5,,6,5,,7,8,,
{32}8,7,6,5,4,3,2,1,8,,,,2,,4,,3-1[8:1],,,,8,,8,,3b,,,,,,,,
{4}5<7[8:1],B7/B8,4>2[8:1],B1/B2,
{4}5<7[8:1],B7/B8,4>2[8:1],B1/B2,
{4}8<5[8:1],B5/B6,4>1[8:1],B1/B2,
{48}7h[16:3],,,,,,,,,6h[16:3],,,,,,,,,5,,,,,,4,,5,,4,,5,,4,,5,,4>6[2:1],,,,,,3,,,,,,
{8}C1f,,,,,,,6,
{4}6h[4:1],1-5[8:1],8-6[8:1],2-4[8:1],
{2}1x,3h[8:3],
{16}4h[8:1]/5h[8:1],,,3h[8:1]/4h[8:1],,,2/3,,2,2,2,2,2<4[4:1],2,2,2,
{16}2,,,,,,,,4h[8:1]/6h[8:1],,,5h[8:1]/7h[8:1],,,5/7,,
{16}8-5[8:1],,,,6,,,,4h[8:1]/6h[8:1],,,5h[8:1]/7h[8:1],,,5/7,,
{16}8-5[8:1],,,,6,,,,4h[8:1]/6h[8:1],,,5h[8:1]/7h[8:1],,,5/7,,
{16}4/8,,6,5,,4/7,,3,3,4,,3/5,,2,2/4,,
{16}1-4[8:1],,,,3,,,,3h[8:1]/5h[8:1],,,2h[8:1]/4h[8:1],,,2/4,,
{16}1-4[8:1],,,,3,,,,3h[8:1]/5h[8:1],,,2h[8:1]/4h[8:1],,,2/4,,
{16}1-4[8:1],,,,3,,,,3h[8:1]/5h[8:1],,,2h[8:1]/4h[8:1],,,2/4,,
{16}1/5,,6,5,,3,4,2,B5/E5/E6,,,,6<2[4:1],,,,
{16}2>6[4:1],,,,6,,,,1x,,,4x,5x<1[4:1],,5x,,
{16}1>5[4:1],,,,5,,,,7,,,1,8<4[4:1],,8,,
{16}4>8[4:1],,,,8,,,,6,,,4,5-8[8:1],,5,,
{16}4-1[8:1],,,,6,,,8,1,1,,6,5h[16:1]/6h[16:1],,4h[16:1]/5h[16:1],,
{16}3b/4b,,,,B6/E6/1,,,,B3/E4/8h[16:3],,,5,,5,6,,
{16}4/7,,,,B3/E4/8,,,,B6/E6/1h[16:3],,,4,,4,3,,
{16}2/5,,7,8,,6,5,,4/7,,2,1,,3,4,,
{8}C1f/1b,,2x>5[8:1]/6x<1[8:1],,2/6,,4h[8:1],8b,
{16}1/2,,3,4,,2-6[8:1]/5,,1/6,,8,8,,7,5,6,,
{16}7/8,,6,5,,4/7-3[8:1],,5/8,,4,4,,5h[8:1],,8b,,
{16}1/2,,3,4,,2-6[8:1]/5,,1/6,,8,8,,7,5,6,,
{16}2-6[8:1]/5,,4,4,2-4[8:1],5,,5,2q6[8:1]*v5[8:1],,1,,2b,,,,
{16}7/8,,6,5,,4/7-3[8:1],,3/8,,1,1,,2,4,3,,
{16}1/2,,3,4,,2-6[8:1]/5,,1/4,,5,5,,4h[8:1],,1b,,
{16}7/8,,6,5,,2,1,,3,4,,6,6,5,7,,
{16}1h[16:5],,3,3,,8h[4:1],,6,,1,1,,2/7b,,2b/7,,
{8}4/5,2<7[8:1]/7,1,2/6>3[8:1],5,2<7[8:1]/6,1,2/6>3[8:1],
{16}5,,2/6,,1,,1/7,,3,5,4,6,5,,4/8b<5[8:1],,
{8}7,4>1[8:1]/8,3,4/8<5[8:1],7,4/8,3,3/6,
{16}7,5,6,2,4,3,7,8,6,5,1,2,4,3,2b/5,,
{16}4/6,,7,7,5,5,6,6,3,3,4,2,6,6,5,7,
{32}1x,2x,3x,4x,8x,,8,,2,,2,,6,,6,,3,,3h[8:1],,,,1,,1,,2,,8b,,,,
{16}3,4,2,7,5,6,2,4,3,6,5,7,1,1,8,8,
{16}3,3,4,3,3,5,2,2,6,2,2,7,1>8[8:5],1,8,,
{1}C1f,
{16}3/7,,2/6>3[8:1],,,1,,1,,,2-8[8:1],,,4,,,
{16}6,,3<6[8:1]/7,,,8,,8,,,7-1[8:1],,,5,,,
{16}3,,3,4,,2/5,,6,5-8[8:1],,4/7,,3b,,,,
{16}4/5h[8:1],,2h[8:1],,4,4,3,4,3,4,2,4,3,4,2,4,
{16}3,5,4,,8h[8:1],,1,1,5h[8:1],,3,3,2h[8:1]/6h[8:1],,,,
{16}1/7,,2,4,3h[8:1],,7,5,6,5,6,5h[8:1],,8,8h[8:1],,
{16}1,1,2,2,3,3,4,4,5-8[8:1],5,6,,1b,,,,
{4}3/7p4[2:1],B1/E1,,E1/B8,
{16}2h[16:3],,,4,4,3,,2/6,2-7[8:1]/6-3[8:1],,,,2/6,,,,
{4}2q5[2:1]/6,E1/B8,,B1/E1,
{32}7h[16:3],,,,,,5,,5,,6,,6h[8:1],,,,4,3,2,1,8,7,6,5,4x,,,,4x,,,,
{4}2q5[2:1]/6,E1/B8,,B1/E1,
{16}2h[16:3],,,4,4,3,,2/6,2>5[8:1]/6<1[8:1],,,,2/6,,,,
{8}5xh[16:1]/8xh[16:1],5h[16:1]/8h[16:1],4h[16:1]/7h[16:1],3h[16:1]/6h[16:1],2h[16:1]/5h[16:1],1h[16:1]/4h[16:1],2h[16:1]/5h[16:1],3h[16:1]/6h[16:1],
{16}4h[16:1]/7h[16:1],,4h[16:1]/7h[16:1],,5h[16:1]/7h[16:1],,5h[16:1]/7h[16:1],,7,5,7,5,6/7-3[16:1],6/7,6/7,6/7,
{1}6/7,
{1},
{1},
{1},
E
