&title=Alice in 冷凍庫
&wholebpm=176
&artist=Orangestar
&des=Jack
&shortid=11265
&genre=niconicoボーカロイド
&cabinet=DX
&version=maimai DX Splash PLUS
&chartconverter=Neskol
&lv_2=3
&des_2=
&lv_3=6
&des_3=
&lv_4=9+
&des_4=はっぴー
&lv_5=12+
&des_5=Jack
&des_6=
&inote_2=
(176){1},
{1},
{1},
{1},
{1},
{1},
{1},
{1},
{1},
{1}1,
{1},
{1}8,
{1},
{1}1,
{1}1,
{1}8,
{1}8x,
{1}1,
{1}2,
{1}3,
{1}4,
{1}5,
{1}6,
{1}7,
{1}8,
{2}8,8,
{1}8,
{2}7,7,
{1}7,
{2}6,6,
{1}6,
{2}5,5,
{1}4/5,
(215){1}4xh[2:3],
{1},
{1},
{1}3h[2:3],
{1},
{1},
{1}2h[2:3],
{1},
{1},
{1}1h[2:5]/8h[2:5],
{1},
(176){1},
{4},1x-4[4:5],,,
{1},
{1},
{4},8,,,
{4},8-5[4:5],,,
{1},
{1},
{4},1,,,
{4},E1,,,
{4},E2,,,
{4},E3,,,
{4},E4,,,
{4},E5,,,
{4},E6,,,
{4},C1xh[1:1],,,
{1},
{4},8b,,8,
{4},7,,7,
{4},6,,6,
{4},5/6,,,
{4},4,,4,
{4},3,,3,
{4},2,,2,
{4},1/2,,,
{4},1,,1,
{4},2,,2,
{4},3,,3,
{4},3/4,,3/4,
{4},5,,5,
{4},6,,6,
{4},7,,7,
{4},1/8,,1/8,
{4},8,,8,
{4},7,7,7,
{4},6,,6,
{4},5,5,4/5,
{4},4,,4,
{4},3,3,3,
{4},2,,2,
{4},1,1,1/8,
{4},1,1,1,
{4},2,2,2,
{4},3,3,3,
{4},4,4,4/5,
{4},5,5,5,
{4},6,6,6,
{4},7,7,7,
{4},1/8,1/8,1/8,
{4},2x/7x,,,
{1},
{1},
{1},
E
&inote_3=
(176){1},
{1},
{1},
{1},
{1},
{1},
{1},
{1},
{4},,,1x/8x,
{4}7,7,8,8,
{4}1,1,2/8,,
{4}3,3,4,4,
{4}5,4,3/6,,
{4}2,2,1,1,
{4}8,8,1/7,,
{4}6,6,5,5,
{4}4/5,4/5,3b/6b,,
{1}B1,
{1}B2,
{1}B3,
{1}B4,
{1}B5,
{1}B6,
{1}B7,
{1}C1f/B3/B6,
{4}2x,2,1,,
{4}7,7,8,,
{4}2,2,1,,
{4}8,8,1/7,,
{4}6,6,5,,
{4}3,3,4,,
{4}5,5,4,4,
{1}3/6,
(215){4}2xh[4:3],,,1xh[4:3],
{2},8h[4:3],
{4},7,,,
{4}6h[4:3],,,5h[4:3],
{2},4h[4:3],
{4},3,,,
{4}2h[4:3],,,1,
{2},7h[4:3],
{4},8,,,
{4}2h[4:3],,,1,
{2},1h[1:1]/8h[1:1],
(176){1},
{4},7x<4[2:1],,,
{4},3,,3/4,
{4},3>8[2:1],,,
{4},7,,7/8,
{4},6<1[2:1],,,
{4},2,,1/2,
{4},2>5[2:1],,,
{4},6,,4/5,
{4},3h[4:1],4,4,
{4},6h[4:1],5,5,
{4},3h[4:1],4,4,
{4},5h[4:1]/6h[4:1],,5/6,
{4},7h[4:1],8,8,
{4},2h[4:1],1,1,
{4},7h[4:1],8,8,
{4},1/8,1/8,2/7,
{4},3b,3,3/4,
{4}3/4,2,2,1/2,
{4}1/2,7,7,7/8,
{4}7/8,6,5,4/6,
{4},3,3,3/4,
{4},6,6,5/6,
{4},4,4,5,
{4}5,4/5,4/5,3x/6x,
{4},7,7,7/8,
{4}7/8,6,6,5/6,
{4}5/6,3,3,3/4,
{4}3/4,2,1,2/8,
{4},7,7,7/8,
{4},2,2,1/2,
{4},8,8,1,
{4}1,2/7,2/7,3/6,
{4}3/6,4b>1[2:1]/5b<8[2:1],,,
{4},7,7/8,2,
{4}1/2,8-4[2:1],,,
{4},3,3/4,6,
{4}5/6,4-8[2:1],,,
{4},7,7/8,2,
{4}1/2,8<5[2:1],,,
{4},4,3,2,
{4}1,8b<5[2:1],,,
{4},3,3/4,6,
{4}5/6,5/6<1[2:1],,,
{4},2,1/2,7,
{4}7/8,7p3[2:1]/8,,,
{4},2,1/2,7,
{4}7/8,7p3[2:1]/8,,,
{4},2,1/2,7,
{4}7/8,1/6<4[2:3],,,
{1},
{1},
{1},
{1},
E
&inote_4=
(176){1},
{8}6,,5,,4h[4:1]/5,,6,6,
{8},3,3,,5,,4,,
{8}3,,4,,4/5h[4:1],,3,3,
{8},6,6,,4,,5,,
{8}6,,5,,4h[4:1]/5,,6,6,
{8},3,3,,5,,4,,
{8}3,,4,,4/5h[4:1],,3,3h[4:3],
{8},,,,,4,2/5,,
{8}3,3,5,,4/6h[4:1],,5,5,
{8},6,6,,3,4,5,,
{8}6,6,4,,3h[4:1]/5,,4,4,
{8},3,3,,6,5,4,,
{8}3,3,5,,4/6h[4:1],,5,5,
{8},6,6,,3,4,5,,
{8}6,6,4,,3h[4:1]/5,,4,4,
{8},3,3,,4/5,,5,4,
{2}3h[1:4]/6,E5,
{4}E3,C1,E7,,
{4}8,8-4[4:1],,,
{4}E5,E6,E7,,
{2}6h[1:4],E5,
{4}E7,C1,E3,,
{4}1,1-5[4:1],,,
{4}E5,E4,E3,,
{4}3h[2:1],4,5h[2:1],4,
{4}3h[2:1],4,6h[2:1],5,
{4}4h[2:1],5,6h[4:1],5p4[8:5],
{1},
{4}7h[2:1],5,4h[2:1],5,
{4}6h[2:1],5,3h[2:1],4,
{4}5h[2:1],4,2h[2:1],4,
{4}8b,,,2x,
(215){8}2xh[8:3],,,4,,4,3,,
{8}5x,,6x,,7h[8:3],,,5,
{8},5,6,,4x,,3x,,
{8}2h[8:3],,,4,,4,3,,
{8}5x,,6x,,7h[8:3],,,5,
{8},5,6,,7x,,1x/8x,,
{8}2h[8:3]/7,,,4,,4,3,,
{8}5x,,2x/6x,,7h[8:3],,,5,
{8},5,6,,4x,,3x/7x,,
{8}2h[8:3],,,4,,4,3,,
{4}5x,2x/6x,2/6,3/7,
(176){2}3h[4:1]/7h[4:1],C1hf[4:3],
{1},
{1},
{4},6,5,4,
{8}3,3<6[4:1],,,,7,,6,
{8},5,5,,4,,6,,
{8}7,7<4[4:1],,,,2,,3,
{8},4,4,,5,,4,,
{8}3,3<6[4:1],,,,7,,6,
{8},5,5,,8b,,,,
{8}6,5/6,,4,,3/5,,2,
{8}2/4,,8,8,1/7,,2,2h[4:1],
{8},4,,5,,4/6,,7,
{8}5/7,,1,1,8,,7,7h[4:1],
{8},5,,8,,1/7,,2,
{8}2/4,,5,5,4/6,,2,2h[4:1],
{8},4,,6,6,,1/8,,
{1}4-1[4:1]/5-8[4:1],
{8}2,2h[4:1],,1,1,,7h[4:1],,
{8}5,5>2[4:1]*<8[4:1],,,,,,3x,
{8}3x,4x,,5,5,,4<2[8:5]/6,,
{8},,,,,,,5x/6x,
{8},4x/7x,,1x/8x,,2x/5x,2x/5x,,
{1}3x>8[8:3]/4xp7[8:3],
{8}7x/8x,7x/8x,,5/6,,3/4,,1/2,
{4}1/2,3/5,2b/6b,,
{8}6,6h[4:1],,5,5,,3h[4:1],,
{8}4,4-8[4:1],,,,,,1,
{8}1,8h[4:1],,2h[4:1],,4,4>6[8:5],,
{8},,,,,,,2h[4:1],
{8},4h[4:1],,5h[4:1],,7,7,,
{4}1/8,2/4,4/5,5/7,
{4}1/8,2/4,4/5,5/7,
{4}1/8,1b/8b,2/7,3/6,
{8}7,7h[4:1],,8,8,,2h[4:1],,
{8}4,4>1[4:1]*<7[4:1],,,,,,6x,
{8}6x,5x,,4,4,,3/5<2[2:1],,
{8},,,,,,,3x/4x,
{8},2x/5x,,1x/6x,,7x/8x,7x/8x,,
{8}5x-2[4:1]/6x-1[4:1],,,,,,,2,
{8}2,1,,3/4,,5/6,,7/8,
{4}7/8,4/6,3b/7b,,
{8}3,3h[4:1],,4,4,,6h[4:1],,
{8}5,5-1[4:1],,,,,,8,
{8}8,1h[4:1],,7h[4:1],,5,5<2[2:1],,
{8},,,,,,,7h[4:1],
{8},5h[4:1],,4h[4:1],,2,2,,
{4}1/8,5/7,4/5,2/4,
{4}1/8,5/6,1/8,3/4,
{1}1>4[4:1]/8<5[4:1],
{1},
{1},
{1},
E
&inote_5=
(176){1},
{8}3h[1:2],,,,,,,E4,
{8},C1,,E8,,,6,,
{8}6h[1:2],,,,,,,E2,
{8},C1,,E6,,,4,,
{8}4h[1:2],,,,,,,E7,
{8},C1,,E3,,,5,,
{8}5h[8:7],,,,,,,4,
{8},E3,E7,E4,E6,1/8,2x/7x,,
{8}3-5[8:1],6,6,,7,5,7,3,
{8}6,5,6,1,5,3,2/4,,
{8}7-5[8:1],3,3,,2,4,2,6,
{8}3,4,3,8,4,6,5/7,,
{8}2-4[8:1],6,6,,7,5,7,3,
{8}6,5,6,1,5,3,2/4,,
{8}6-4[8:1],3,3,,2,4,2,6,
{8}3,4,3,8,4,6,5/7,4,
{8}4h[2:1],,,3,3h[2:1],,,2,
{8}2<7[4:1],,7<4[4:1],,4,,,8,
{8}8h[4:1],,2h[4:1],,5,6,7h[4:1],,
{8}5,4,3h[4:1]/6-4[8:1],,,,,5,
{8}5h[2:1],,,6,6h[2:1],,,7,
{8}7>2[4:1],,2>5[4:1],,5,,,1,
{8}1h[4:1],,7h[4:1],,3h[4:1],,5,5,
{4}3-5[8:1],7-1[8:1],2-6[8:1],6-2[8:1],
{8}8b,,8,5,5h[4:1]/7,,7,3,
{8}3h[4:1]/6,,6>3[8:1],1,1h[4:1],,8x,2/7,
{4}3<6[4:1]/6,6<1[4:1],1>4[4:1],4,
{8}6,7,8-4[8:1],,,,6x,2,
{8}2h[4:1]/5,,5,4,4h[4:1]/7,,7,6,
{8}3/6h[4:1],,3<6[8:1],8,8h[4:1],,1x,6,
{2}4-2[8:1]/8-4[8:1],1-5[8:1]/5-7[8:1],
{4}4/8-4[8:1],1-5[8:1],6<3[0.3409090909090864##0.3409090909090935],4,
(215){8}4h[8:3],,,6h[4:1],,5,6,,
{8}5/7,,4/6,,3h[8:3]/5,,,5h[4:1],
{8},4,5,,4/6,,3/5,,
{8}2h[8:3]/4,,,4h[4:1],,3,4,,
{8}3/5,,2/4,,1h[8:3]/5,,,8h[4:1],
{8},1,8,,2/7,,3/6,,
{8}4/5h[8:3],,,3h[4:1],,4,3,,
{8}2/4,,3/5,,4/6h[8:3],,,4h[4:1],
{8},5,4,,3/5,,4/6,,
{8}5/7h[8:3],,,5h[4:1],,6,5,,
{4}4/6,5/7,4x/8h[2:1],4x,
(176){4}4x,1/5,C1hf[4:3],,
{1},
{8},E8,,E7,,E6,,E5,
{8},3,3,4,5,6,,4,
{8}5,E2,,E3,,E4,,E5,
{8},6,6,5,4,3,,5,
{8}4,E8,,E7,,E6,,E5,
{8},3,3,4,5,6,,4,
{8}5,E2,,E3,,E4,,E5,
{8},6,6-1[8:1],,2b,,3,,
{8}3,E8,3,E7,3,E6,3,E5,
{8}3,E1,3-5[8:1],,6,,6,,
{8}6,E2,6,E3,6,E4,6,E5,
{8}6,E1,6-3[8:1],,2,,2,,
{8}2,E8,2,E7,2,E6,2,E5,
{8}2,E1,2-6[8:1],,8,,7-3[8:1],,
{8}1,,2,3,4/5,6,7,2/8,
{16}3,4,3,,1b/7xh[8:7],,,,6,,5,,4,,3,,
{8}2,1>4[8:1],,6<1[8:1],6,3<6[8:1],3,8>3[8:1],
{8}8,5-1[8:1],,7h[8:3],,,8,1/7,
{8}2/6,3>8[8:1]/5,,6-3[8:1],6,2-7[8:1],2,5p3[8:3],
{8}5,1h[8:3],,,,,,2-4[8:1]/4-8[8:1],
{8},2-6[8:1],,7h[4:1],,5,4,3/6,
{8}2/7,1h[4:1]/8,,3,2-6[8:1]/4,,8x,,
{8}5/7,6h[8:1],4,2h[8:1],6,8h[8:1],6,4h[8:1],
{16}6,,8x,1x,8x<1[8:3],,,,C1f/B4/B5/8b,,,,,,,,
{8}3/7,3h[4:1]/7,,4-8[8:1],4,2-5[8:1],2,6-1[8:1],
{8}6,3>6[8:3],,8,8h[4:1],,,8,
{8}1/7,2h[4:1]/6,,4,4h[4:1],3,2,1,
{8}8,7,5-2[8:1]/6-1[8:1],,5x/6x,,,7,
{8}8,1/6h[4:1],,5,6,4/7,3,2q5[8:3],
{8}1,8h[8:3],,,,,,2/7,
{8}3/6,4>1[8:1]/5<8[8:1],,4x/5x,,2/7,3,4,
{16}6,5,6,,2xh[8:7]/8b,,,,3,,4,,5,,6,,
{8}7,8<5[8:1],,3>8[8:1],3,6>3[8:1],6,1<6[8:1],
{8}1,4-8[8:1],,2,2h[4:1],,1,2/8,
{8}3/7,4/6q3[8:1],,2,2xh[4:1],,4q6[8:3],,
{8}1,1h[8:3],,,,,,5-1[8:1]/7-5[8:1],
{8},7-3[8:1],,2h[4:1],,4,5,3/6,
{8}2/7,1pp1[8:3]/8qq8[8:3],,,,,,2/7,
{8}3/6,4h[8:1]/5h[8:1],,7h[8:1],5,2h[8:1],4,6h[8:1],
{16}5,,1x,8x,1x>8[8:3],,,,C1f/B4/B5/1b,,,,,,,,
{8}2/6,2/6h[4:1],,5-1[8:1],5,7-4[8:1],7,3-8[8:1],
{8}3,6<3[8:3],,1,1h[4:1],,,1,
{8}2/8,3/7h[4:1],,3,2h[8:3]/6,5,4,3pp6[2:1],
{8}1,1h[8:3],,,,,,7/8,
{8}1/6,2/5-8[8:1],,4-1[8:1],,5,6,7,
{8}8qq5[2:1],8,,4,4h[4:1],,,1x-6[8:1]/2x-5[8:1],
{8}3x/8x,,,7x-4[8:1]/8x-3[8:1],1x/6x,,,4xq5[8:15]/5x<4[8:15],
{1}3x/6x,
{1},
{1},
{1},
{1},
E
