&title=電話革命ナイセン
&wholebpm=145
&artist=ナイセン - momoco-
&des=はっぴー
&shortid=11258
&genre=niconicoボーカロイド
&cabinet=DX
&version=maimai DX Splash PLUS
&chartconverter=Neskol
&lv_2=2
&des_2=
&lv_3=6
&des_3=
&lv_4=8
&des_4=はっぴー
&lv_5=12
&des_5=はっぴー
&des_6=
&inote_2=
(145){1},
{1},
{1},
{1},
{1},
{1},
{1},
{1}1,
{1}1,
{1}8,
{1}8b,
{1}1,
{1}1,
{1}2,
{1}2,
{1}3,
{1}3,
{1}4,
{1}4x/5x,
{2}5,5,
{1}5,
{2}6,6,
{1}6,
{2}7,7,
{1}7,
{2}8,8,
{1}8,
{1}8-5[4:3],
{1},
{1}1-4[4:3],
{1},
{1}8-4[4:3],
{1},
{2}1,1,
{1}1b,
{2}1,1,
{2}2,2,
{2}3,3,
{1}4/5,
{2}5,5,
{2}6,6,
{2}7,7,
{1}1x/8x,
{2}8,8,
{2}7,7,
{2}6,6,
{2}4/5,4/5,
{2}4,4,
{2}3,3,
{2}2,2,
{1}1x/8x,
{1}B1,
{1}B8,
{1}B2,
{1}B7,
{1}B3,
{1}B6,
{1}C1xh[1:1],
{1},
{1}B1/B2,
{1}B3/B4,
{1}B5/B6,
{1}B7/B8,
{2}1,1,
{1}1/2,
{2}8,8,
{1}7/8,
{2}1b,1,
{4}2,2,2,,
{2}3,3,
{4}4,4,4/5,,
{2}5,5,
{4}6,6,6,,
{2}7,7,
{4}8,8,1/8,,
{2}8,8,
{4}7,7,7,,
{2}6,6,
{4}5,5,4/5,,
{2}4,4,
{4}3,3,3,,
{2}2,2,
{4}1/8,1/8,1/8,,
{1}2xh[1:1]/7xh[1:1],
{1},
{1}C1hf[2:3],
{1},
{1},
{1},
E
&inote_3=
(145){1},
{1},
{1},
{1}6xh[1:1],
{1}5h[1:1],
{1}4h[1:1],
{2}3,3/4,
{1}2h[1:1],
{1}1h[1:1],
{1}8h[1:1],
{1}7<4[8:3],
{2}3xh[2:1],4,
{2}6h[2:1],5,
{2}3h[2:1],4,
{4}5,5,4/6,,
{2}7h[2:1],8,
{2}2h[2:1],1,
{2}7h[2:1],8,
{4}1x/8x,1x/8x,2x/7x,,
{1}6<1[8:3],
{1}2>5[8:3],
{1}6<1[8:3],
{2}2,1/2,
{1}3-8[8:3],
{1}7-3[8:3],
{1}2-6[8:3],
{2}7,1/8,
{4}2,2,1,,
{4}7,7,8,,
{4}2,2,1,,
{4}8,8,1/7,,
{4}6,7,8,1,
{4}2x,3x,4x,5x,
{1}4x>1[8:3]/5x<8[8:3],
{1}C1f,
{4}2,2,1/2,1/2,
{4}3,4,3/5,,
{4}6,6,5/6,5/6,
{4}7,1/8,2/7,,
{4}3h[4:1],4,4,,
{4}6h[4:1],5,5,,
{4}4,4,5,5,
{4}4/5,3/6,2b/7b,,
{4}6,6,5/6,5/6,
{4}7,8,1/7,,
{4}2,2,1/2,1/2,
{4}3,4/5,3/6,,
{4}7h[4:1],8,7/8,,
{4}2h[4:1],1,1/2,,
{4}7,8,1,2,
{4}3,4,5,6,
{1}4b/5b<4[4:5],
{1},
{4}E3,B3,B4,,
{4}E7,B6,B5,,
{4}B2,B3,B4,B5,
{4}B6,B7,B8,,
{4}E4/E6,B3/B6,B2/B7,E2/E8,
{1}C1f,
{2}7xh[2:1],8h[2:1],
{2}1h[2:1],2,
{2}3h[2:1],4h[2:1],
{2}5h[2:1],6,
{2}7h[4:1]/8h[4:1],7/8,
{2}1h[4:1]/2h[4:1],1/2,
{4}8,8,1,1,
{4}1/8,1/8,2b/7b,,
{4}3,3/4,3,3/4,
{4}2,1,2/8,,
{4}7,7/8,7,7/8,
{4}6,4/5,3/6,,
{4}2h[4:1],1,1/2,,
{4}7h[4:1],8,7/8,,
{4}1,1,8,8,
{1}1b>4[8:3]/8b<5[8:3],
{4}6,5/6,3,3/4,
{4}6,5/6,4/7,,
{4}3,3,2,2,
{4}1/8,1/8,2/7,,
{4}6,5,4,3,
{4}2x,1x,8x,7x,
{2}5h[4:1]/6h[4:1],3h[4:1]/4h[4:1],
{4}6,5,4,3,
{1}1<6[8:3]/2>5[8:3],
{1}7<4[8:3]/8>3[8:3],
{1}2h[4:3]/5h[4:3],
{4}3/6,2/7,1b/8b,,
{1},
{1},
{1},
E
&inote_4=
(145){1},
{1},
{1},
{2}6h[2:3],4,
{4}5,4,3h[1:2],,
{2}5,5,
{4}4,5,6h[2:3],,
{2}4,4,
{4}5,4,3/6,,
{4}1/8,1>4[4:1]/8<5[4:1],,,
{16}4x/5x,,,4x/5x,,,3x/6x,,,,,,,,,,
{4}5,5,6,6,
{4}5/7,4,3/6,,
{4}4,4,3,3,
{4}2/4,2/4,3/5,4/6,
{4}7,7h[4:1],5,5,
{4}4,4,3/5,,
{4}3,4,5,3/6,
{16}1x/8x,,,1x/8x,,,2x/7x,,,,,,,,,,
{4}5,5>7[8:5],,,
{4},,4,3,
{2}2h[1:1],4,
{2}7h[1:1],5,
{4}4,4<2[8:5],,,
{4},,5,6,
{2}7h[1:1],5,
{2}2h[1:1],4,
{4}8,8<5[4:1],,,
{4}1,1>4[4:1],,,
{4}5,5<8[4:1],,,
{4}4,4>1[4:1],,,
{4}8h[2:1],,1,2/7,
{4}4b,6b,8b,2b,
{4}4/5,2/7,3/6,4/5<4[2:1],
{4}C1f,,,1x/8x,
{4}1x/8x,4x/5x,2b/7b,3/4,
{4}3-8[4:1]/4-7[4:1],,,7/8,
{4}7/8,5/6,3/4,1/2,
{4}C1f/B3/E3/B6/E7,,1x/8x,1x/8x,
{4}7h[4:1],5h[4:1],4h[4:1],2,
{1}2<5[8:3],
{4}8h[2:1],,5,5w1[8:3],
{4},,,1x/8x,
{4}1x/8x,4x/5x,2b/7b,5/6,
{4}5-2[4:1]/6-1[4:1],,,1/2,
{4}1/2,3/4,5/6,7<4[4:1]/8>3[4:1],
{4},,,1/8,
{4}2h[4:1],4h[4:1],5h[4:1],7,
{1}7V53[8:3],
{4}1h[2:1],,8,8,
{4}3/7,3/7,2/6,1/5,
{1}4<7[4:3]/8>3[4:3],
{1},
{2}6h[2:1],8h[2:1],
{2}1h[2:1],3,
{8}6h[4:1],,5,,4,4,5,,
{8}3h[4:1],,4,,5,5,4,,
{8}7h[4:1],,5,,4,4,5,,
{4}2h[4:1],4,3/5,,
{4}6,6h[4:7],5,5,
{4}E5,E4,E3,,
{4}3,3h[4:7],4,4,
{4}E5,E6,E7,,
{4}6,6h[4:5],5,5,
{4}E1,C1,E5,,
{2}B4/B5,B3/E3/B6/E7,
{4}B1/C1f/B2/B7/B8,,,1x/7x,
{4}1x/7x,3x/5x,2b/6b,7<4[4:1],
{4},3>8[4:1],,7h[4:1],
{4}5h[4:1],4h[4:1],2h[4:1],8w4[8:3],
{8},,,,,,3,3,
{8}4,,3/5,,1/7,,6,6,
{4}5,4/6,2/8,1,
{4}1h[2:1],,3,3q8[4:1]/4<7[4:1],
{4},,,2x/8x,
{4}2x/8x,4x/6x,3b/7b,2>5[4:1],
{4},6<1[4:1],,2h[4:1],
{4}4h[4:1],5h[4:1],7,1<6[4:1]*>4[4:1],
{8},,,,,,6,6,
{8}5,,4/6,,2/8,,3,3,
{4}4,3/5,1/7,8,
{2}8<5[4:1],4>1[4:1],
{4}8,8,2/7,3/6,
{4}4>1[4:1]/5p1[4:1],,,3/6,
{4}4q8[4:1]/5<8[4:1],,,3/6,
{4}4>1[4:1]/5<8[4:1],,,2h[4:1]/7h[4:1],
{8},,1x/8x,1x/8x,2x/7x,,,,
{1},
{1},
{1},
E
&inote_5=
(145){1},
{1},
{1},
{2}2>5[4:1],7>2[4:1],
{2}4qq5[2:1],6,
{2}7<4[4:1],2<7[4:1],
{4}5pp4[2:1],,3,3,
{2}2>5[4:1],7>2[4:1],
{2}4qq5[2:1],6,
{4}3/7,3>8[4:1]/7<4[4:1],,,
{16}1x/5x,,,3x/7x,,,C1f/B2/B6,,,,,,8x,,,,
{4}1h[4:1],2h[4:1],3h[4:1],4h[4:1],
{4}5>3[8:1]*<7[8:1],5-1[8:1],,,
{4}7,3/6,1-5[8:1]/8-2[8:1],,
{4}7-5[8:1],5v4[4:1],4-2[8:1],1,
{2}1>4[8:1]/8<5[8:1],1>4[8:1]/8<5[8:1],
{4}1/8h[4:1],6h[4:1],5,4>1[8:1]/7,
{4}6,5<8[8:1],3,3b,
{16}2x/8x,,,4x/6x,,,C1f/B3/B7,,,,,,1,,1,,
{8}7h[8:3],,,5,5V31[2:1],,6,,
{4}6h[4:11],,1,1,
{8}2<7[4:1],,,,,,,7,
{4}7p3[4:1],,,4,
{8}2h[8:3],,,4,4V68[2:1],,3,,
{4}3h[4:11],,8,8,
{8}7>2[4:1],,,,,,,2,
{4}2q6[4:1],,,5,
{4}4/7,8,3,1,
{4}6h[4:1],8h[4:1],1h[4:1],3h[4:1],
{4}4<8[4:1],2,5>1[4:1],7,
{8}4<8[4:1],,2,,5,,1/7,1/7,
{8}1/7-4[8:1],,,3,3h[4:1],,1h[4:1],,
{4}8xh[4:1],6xh[4:1],4xh[4:1],3x>5[2:1],
{4}C1f,,,4/5,
{4}C1f/B2/B3/B6/B7,,,3x/5x,
{8}1-5[8:1]/7-2[8:1],,1/7,,3b/8b,,4-1[8:1],3,
{8}5-8[8:1],6,1x/5,1x,2x/8x,,4-2[8:1]/5-7[8:1],,
{8}4v5[8:1]/5v4[8:1],,,,2x/7x,,1/8pp3[2:1],2/7,
{8}6h[4:3],,,,,,1,1,
{4}1>5[4:1],5<1[4:1],1>5[4:1],5<1[4:1],
{4}1>5[4:1],5,1,5V31[4:1]/6,
{8}1-7[8:1],,6,6,5,,2s6[8:3]/7z3[8:3],2/7,
{4},,1x/8x,3x/5x,
{8}1-5[8:1]/7-2[8:1],,1/7,,3b/8b,,4-1[8:1],3,
{8}5-8[8:1],6,1x,1x,2x/8x,,4pp4[4:1]*qq4[4:1],,
{4}4x,,1/5,4<7[4:1]/8>3[4:1],
{4},,4/8,1-5[8:1]/2-4[8:1],
{4}1x/2x,7-5[8:1]/8-4[8:1],7x/8x,1-5[8:1]/2-4[8:1],
{8}1x/2x,,2/8,3/7,4h[4:1]/6h[4:1],,,5,
{4}5<8[4:1],3,4>1[4:1],6,
{4}5<8[4:1],3,4>1[4:1],6pp4[2:3],
{1}6x,
{1},
{4}E4,E3/E5,E2/E6,E1/E7,
{4}B2/B5,C1f,,2<6[2:1]/8>4[2:1],
{4}2x/8x,,,1<5[2:1]/7>3[2:1],
{4}1x/7x,,,8,
{16}3,,3,4,2x,,6,5,7x,,3,4,2x,,6,5,
{16}7x,,3,4,2x,,6,,4/5,,,,1-5[2:1]/7-2[2:1],,,,
{4},,,1v4[2:1]/6v4[2:1],
{4},,,2h[2:1]/8p3[8:1],
{4},7-2[8:1],,5>2[2:1]/7h[4:3],
{8},,,,,,8,8,
{8}1/7,,2/6,,3/5,,5,5,
{4}4/6,3/7,2-6[8:1]/8h[2:1],,
{4}1b,,4-1[8:1],4-7[8:1],
{4}4w8[8:1],4x,C1f/B3/B4/B5,8x,
{16}1x/7x,,6,5,7,,3,4,2,,6,5,7,,2,4,
{16}3,,7,5,6,,2,4,3,,7,5,6,,3,4,
{16}1b,,6,5,7,,3,4,1b,,6,5,7,,3,4,
{4}1-5[8:1],1<6[8:1]*>4[8:1],1x,3x-8[8:1]/7x,
{8}3/5,,6-1[8:1],,4/6,,3-8[8:1],4,
{8}3/5,,6<3[4:1],5,4/6,,4,,
{8}4-1[8:1],,6,6,5-8[8:1],5,4>5[2:1],4,
{4}C1f,,,4x/6x,
{8}1-5[8:1]/7-2[8:1],,1/7,,3b/8b,,4>1[8:1]/6<1[8:1],5,
{8},,3>8[8:1]/5<8[8:1],4,,,1x>4[4:1]/7x,,
{4}4q1[4:1],1q6[4:1],6<1[4:1],1>8[8:3],
{4}C1f,,1x,7-5[8:1]/8-4[8:1],
{4}7x/8x,1-5[8:1]/2-4[8:1],1x/2x,1-5[8:1]/8-4[8:1],
{8}1x/8x,,1/8,2/7,C1f/B3/B4/B5/B6,,1,,
{4}1>4[4:1],7,8<5[4:1],2,
{4}4>1[4:1],7,5<8[4:1],2pp8[4:3],
{4}2x,6,6,7qq8[4:3],
{4}7x,3,3,2,
{1}1h[1:1]/8h[1:1],
{16},,,,2x/7x,,1b/8b,1b/8b,1b/8b,,,,,,,,
{1},
{1},
{1},
E
