&title=雨とペトラ
&wholebpm=195
&artist=バルーン
&des=はっぴー
&shortid=11261
&genre=niconicoボーカロイド
&cabinet=DX
&version=maimai DX Splash PLUS
&chartconverter=Neskol
&lv_2=3
&des_2=
&lv_3=7
&des_3=
&lv_4=9
&des_4=隅田川星人
&lv_5=12
&des_5=はっぴー
&des_6=
&inote_2=
(195){1},
{1},
{1},
{1},
{1}1x,
{1}1,
{1}1,
{1},
{1}8,
{1}8,
{1}8,
{1}1x/8x,
{2}1,1,
{1}1,
{1}2,
{1}2,
{2}3,3,
{1}3,
{1}4,
{1}4/5,
{2}5,5,
{1}5,
{2}6,6,
{1}6,
{2}7,7,
{1}7,
{2}8,8,
{1}1x/8x,
{1}1-4[4:7],
{1},
{1},
{1},
{1}8-5[4:7],
{1},
{1},
{1},
{1}1-5[4:7],
{1},
{1},
{1},
{1}8-4[4:7],
{1},
{1},
{1},
{2}1b,1,
{4}2,2,2,,
{2}3,3,
{4}4,4,4,,
{2}5,5,
{4}6,6,6,,
{2}7,7,
{4}8,8,1x/8x,,
{2}8x,8,
{4}7,7,7,,
{2}6,6,
{4}5,5,5x,,
{2}4,4,
{4}3,3,3,,
{2}2,2,
{1}1x/8x,
{1}1h[1:1],
{1},
{1}2h[1:1],
{1},
{1}3h[1:1],
{1},
{1}4h[1:1]/5h[1:1],
{1},
{1}B5,
{1}B6,
{1}B7,
{1},
{1}B4,
{1}B3,
{1}B2,
{1},
{1}B5/B6,
{1},
{1}B3/B4,
{1},
{1}B4/B5,
{1},
{1}C1xh[1:1],
{1},
{4}8b,8,8,,
{2}7,7,
{4}6,6,6,,
{2}4/5,4x/5x,
{4}4,4,4,,
{2}3,3,
{4}2,2,2,,
{2}1,1x/8x,
{4}1x,1,1,,
{4}2,2,2,,
{4}3,3,3,,
{2}4/5,4x/5x,
{4}6,6,6,,
{4}7,7,7,,
{4}8,8,1/8,,
{1}1x/8x,
{1}7h[2:1],
{2}7,7,
{1}6h[2:1],
{2}6,6,
{1}5h[2:1],
{2}5,5,
{1}4h[2:1]/5h[2:1],
{2}4/5,4/5,
{1}3h[2:1],
{2}3,3,
{1}2h[2:1],
{2}2,2,
{1}1h[2:1],
{2}1,1,
{1}1h[2:3]/8h[2:3],
{1},
{1},
{1},
E
&inote_3=
(195){1},
{1},
{1},
{1},
{4}3x,3,4,,
{4}6,6,5,,
{4}3,3,4,4,
{4}5,5,4/6,,
{4}7,7,8,,
{4}2,2,1,,
{4}7,7,8,8,
{4}1,8,2b/7b,,
{2}6h[2:1],5,
{2}3h[2:1],4,
{2}6h[2:1],5,
{2}3h[4:1]/4h[4:1],3/4,
{2}2h[2:1],1,
{2}7h[2:1],8,
{2}2h[2:1],1,
{4}8,8,1/7,,
{4}6,6,5,,
{4}3,3,4,,
{4}6,6,5,,
{4}4,4,3/5,,
{4}2,2,1,,
{4}7,7,8,,
{4}1,1,8,8,
{1}2x/7x,
{1}B2/E2,
{1}B3,
{1}B7/E8,
{1}B6,
{2}B4,B3,
{1}B2,
{2}B8,B7,
{1}C1f,
{1}2x-5[2:1],
{1}6-1[2:1],
{1}2-5[2:1],
{1}6-1[2:1],
{2}2,2,
{2}3,3,
{1}4-1[2:1]/5-8[2:1],
{1}C1f,
{4}2,2,1/2,1/2,
{4}7,7,7/8,7/8,
{4}6,6,5,5,
{4}4,4,3/5,,
{4}2x,2x,1x/2x,,
{4}7x,7x,7x/8x,,
{4}1,1,8,8,
{4}1/8,1/8,2x/7x,,
{4}6,6,5/6,5/6,
{4}3,3,3/4,3/4,
{4}2,2,1,1,
{4}8,8,1/7,,
{4}6x,6x,5x/6x,,
{4}3x,3x,3x/4x,,
{4}5,5,4,4,
{4}4/5,4/5,3b/6b,,
{1}4qq1[4:5]/5pp8[4:5],
{1},
{1}1pp4[4:5]/8qq5[4:5],
{1},
{2}3,3,
{2}4,4,
{2}5,4h[8:3]/5h[8:3],
{1},
{1}5<4[4:11],
{1},
{1},
{1},
{1}4>5[4:11],
{1},
{1},
{1},
{1}6h[1:1],
{1}5h[1:1],
{1}4h[1:1],
{1}3x,
{2}2,2,
{2}1,1,
{2}8,8,
{1}1x/8x,
{4}7b,7,7/8,7/8,
{4}2,2,1/2,1/2,
{4}3,3,4,4,
{4}5,5,4/6,,
{4}7,8,7/8,,
{4}2,1,1/2,,
{4}8,8,1,1,
{4}1/8,1/8,2x/7x,,
{4}3,3,3/4,3/4,
{4}6,6,5/6,5/6,
{4}7,7,8,8,
{4}1,1,2/8,,
{4}3,4,3/4,,
{4}6,5,5/6,,
{4}4,4,5,5,
{4}4/5,4/5,3b/6b,,
{4}7,7,8,,
{4}2,2,1,,
{4}7,7,8,8,
{4}1,1,2/8,,
{4}3,3,4,,
{4}6,6,5,,
{4}3,3,4,4,
{4}5,5,4/6,,
{4}3,3,4,,
{4}6,6,5,,
{4}3,3,4,4,
{4}5,5,4/6,,
{4}7,7,8,,
{4}2,2,1,,
{1}1xpp4[4:5]/8xqq5[4:5],
{1},
{1},
{1},
E
&inote_4=
(195){1},
{1},
{1},
{1},
{4}7,7,1,1,
{4}8,8,1/7,,
{4}B8/E8,E6,B1/E2,E4,
{4}E1,C1,E5,,
{4}3,3,5,5,
{4}4,4,3/5,,
{4}B3/E3,E2,B6/E7,E8,
{4}E5,C1,E1,,
{4}6,6,5/7,,
{4}3,3,2/4,,
{4}6,5,3,4,
{1}5pp4[4:3],
{4}3,3,2/4,,
{4}6,6,5/7,,
{4}3,4,6,5,
{1}4-1[8:3]/5-8[8:3],
{4}7,8,1/6,,
{4}2,1,3/8,,
{4}7,7/8,2,1/2,
{1}1/8qq1[4:3],
{4}2,1,3/8,,
{4}7,8,1/6,,
{4}2,1/2,7,7/8,
{4}1/8,2/7,3b/6b,,
{2}B7/E8,B5/E6,
{4}E4,B3,B2,,
{2}B6/E6,B8/E8,
{4}E2,B2,B3,,
{4}6h[2:1],5,5,,
{4}3h[2:1],4,4,,
{1}3>6[1:1]/6,
{2},4/5,
{1}7V53[4:3],
{2},2,
{1}2V46[4:3],
{2},7,
{4}7h[4:1],8,7/8,,
{4}2h[4:1],1,1/2,,
{1}3/6<3[4:3],
{2},C1,
{8}2h[4:3],,4,4,,6,6,,
{4}7h[4:1],5,4v1[4:1]/6<1[4:1],,
{8},,2,,2,,8,1,
{8},1,8,,2b/7b,,,6h[8:5],
{8},5,5,,2,,3,3h[8:5],
{8},4,4,,8,,,5/6,
{8}5/6,,3/4,,2,,1,1,
{8},7/8,7/8,,1x/6x,,,,
{8}7h[4:3],,5,5,,3,3,,
{4}2h[4:1],4,3>8[4:1]/5v8[4:1],,
{8},,7,,7,,1,8,
{8},8,1,,2b/7b,,,3h[8:5],
{8},4,4,,7,,6,6h[8:5],
{8},5,5,,1,,,3/4,
{8}3/4,,1/2,1/2,,3/8,,C1f/B2/B3/B6/B7,
{1},
{8}8xh[8:7],,,,,,,6xq4[8:5],
{1},
{8}7h[8:7],,,,,,,5p7[8:5],
{1},
{4}6,6,5,5,
{4}4,4,3,3,
{8}5,,4,,3x/6x,3x/6x,,C1f,
{1},
{1}5x<4[4:9],
{1},
{1},
{1},
{1}5<4[4:9],
{1},
{1},
{1},
{4}4/5h[1:3],4,4,4,
{4}4,4,4,4,
{4}4,4,4,4,
{4}4,5,3/6,,
{4}1x,1,8,8,
{4}2,2,7,7,
{1}1>4[8:3]/8<5[8:3],
{1}C1,
{8}6h[4:3],,8,8,,2,2,,
{4}3h[4:1],1,2>5[4:1]/8v5[4:1],,
{8},,6,,6,,2,8,
{8},7,1,,2b/6b,,,7h[8:5],
{8},8,8,,3,,2,2h[8:5],
{8},1,1,,5,,,7/8,
{8}7/8,,1/2,,3,,4,4,
{8},5/6,5/6,,4x/7x,,,,
{8}3h[4:3],,1,1,,7,7,,
{4}6h[4:1],8,1v4[4:1]/7<4[4:1],,
{8},,3,,3,,7,1,
{8},2,8,,3b/7b,,,2h[8:5],
{8},1,1,,6,,7,7h[8:5],
{8},8,8,,4,,,1/2,
{8}1/2,,3/4,3/4,,2/5,,C1f/B2/B3/B6/B7,
{1},
{4}7,7/8,2,1/2,
{4}7,7/8,1/6,,
{4}B8/E8,E6,B1/E2,E4,
{4}E1,C1,E5,,
{4}3,3/4,6,5/6,
{4}3,3/4,2/5,,
{4}B3/E3,E2,B6/E7,E8,
{4}E5,C1,E1,,
{4}7,7/8,2,1/2,
{4}7,7/8,1/6,,
{4}B8/E8,E6,B1/E2,E4,
{4}E1,C1,E5,,
{4}3,3/4,6,5/6,
{4}3,3/4,2/5,,
{4}E2/E8,E3/E7,E4/E6,,
{4}E1,C1,E5,,
{1},
{1},
{1},
E
&inote_5=
(195){1},
{24},,,,,,,,,,,,,,,,,,,,,E6,B5,B4,
{8}E4,,2,,8,8,3,4/6h[8:5],
{8},E6,C1,E4,E3,,1/8,,
{8}2-5[8:1],,6,,7,7,5,8h[4:1],
{8},3,3,4,2>5[8:1],,6,,
{8}8<5[8:1],,4,,2h[4:1],,4,4,
{8},6,6,5,8,3,6,5,
{8}7-4[8:1],,3,,2,2,4,1,
{8},6,6,5,4>1[8:1],,7,,
{8}5<8[8:1],,2,,1h[4:1],,4,4,
{8},6,6,5,8,,3/6,,
{8}1-5[8:1],,6,,7,7,5>2[8:1],,
{8}6,,8,8,1/7,,4/6,,
{4}3-6[8:1],6,7-2[8:1],2,
{4}3,3/5,6,5/7,
{4}8<5[8:1],2,3h[4:1],8z4[8:5],
{8}4,,3,,1,,2,2,
{8}4,,6,6,5,8,1,1,
{4}4,3/5,2b/6b,,
{8}7-3[8:1],,3,,2-6[8:1],,6,7,
{4}8-5[8:1],1-4[8:1],8,3-1[8:1]/7-5[8:1],
{4},2-4[8:1]/6-8[8:1],,3-1[8:1]/7-5[8:1],
{4},2/6h[4:1],8h[4:1],1h[4:1],
{4}3,7h[2:1],5,5qq1[4:3],
{4}6,6,7,8-4[8:1],
{4}3,1-5[8:1],6,8<1[2:1],
{4},,,4/5,
{4}8<3[2:1],B5/B6,2,2,
{4}1>6[2:1],B3/B4,7,7,
{4}8<3[2:1],B5/B6,2,2,
{4}1>7[2:1],B3/E4,B6/E6,,
{4}1/7h[2:1],5,2h[2:1],4,
{8}8h[4:1],,6,8,1h[4:1],,3,1,
{8}8,,3/7,3/7,3h[2:1]/7h[4:3],,,,
{8},,2,2,4,4,5,,
{2}3/6h[1:2],B5/E5,
{4}E8,E7,E6,E5,
{2}3h[1:2],B4/E5,
{4}E2,E3,E4,E5,
{4}5,4/6,3,2/4,
{8}6,,8,8,1,5,5<3[8:5],,
{1}C1f,
{16}1/8,,,2/4,,,5/7,,1/8,,,,2x/7x,,,,
{8}1-5[8:1],8-6[8:1],1x,8x,,3,2/4,,
{8}8-4[8:1],1-3[8:1],8x,1x,5-1[8:1]*-2[8:1],,,,
{8},,3/4,,5/6,,7/8,7/8,
{8},3/5,2q7[8:1]/6>3[8:1],,,,,1x/8x,
{8},3,3,4,1-4[8:1],,5,6,
{8},8,8-4[8:1],3,2h[4:1],,,3,
{8}3-7[8:1],,1-5[8:1],,8<1[2:1],,1b,1b,
{16},,,,,,,,1,8,1,8,1,,,,
{8}7-3[8:1],2-5[8:1],7x,2x,,6,4/8,,
{8}1-5[8:1],7-3[8:1],1x,7x,4-7[8:1]*-8[8:1],,,,
{8},,5/6,,3/4,,1/2,1/2,
{8},4/6,3p6[8:1]/7>2[8:1],,,,,4x/5x,
{8},6,6,5,8-5[8:1],,4,3,
{8},1-4[8:1],8-5[8:1],1x,8x,,,4,
{8}3/5,,8,1/8,,4-1[8:1]/5-8[8:1],,4x/5x,
{8},2/7,,1/8,1-5[8:1]/8-4[8:1],,1x/8x,,
{8}2b/6b,,,,,,5,4/6,
{8},B1/E2,B7/E8,B3/E4,B5/E6,,2/4,,
{8}3b/7b,,,,,,4,3/5,
{8},6,6,4,8b,,3x,,
{16}2/6,,,,3/7,,,6,5,,5,,4/6,,,,
{16}3/7,,,,2/6,,,3,4,,4,,3/5,,,,
{16}2/6,,,,3/7,,,4,5,,3>6[8:5]/6,,,,C1f,,
{1},
{1}1-4[1:2],
{1}8-5[1:2],
{1},
{1},
{1}1-4[1:2],
{1}8-5[1:2],
{1},
{4},,,4>1[2:1],
{4}5,5,5,1-4[2:1]/5,
{4}5,5,5,4V25[4:3]/5,
{4}6,6,6,6,
{16}5/6,,,4/5,,,3/4,,3/4,,,,2,,2,,
{8}4,,1/5,,7,7,5,,
{8}2,2,4,,8,8,1>5[4:1],,
{4}5<1[4:1],1>5[4:1],5,1,
{16}4,5,4,5,4,5,4,,3/6,,,,,,,,
{8}8-4[8:1],1-3[8:1],8x,1x,,6,7,2,
{8}1-5[8:1],8-6[8:1],1x,8x,4-7[8:1]*-8[8:1],,,,
{8},,5/6,,3/4,,1/2,1/2,
{8},4/6,3<6[8:1]/7p2[8:1],,,,,1x/8x,
{8},6,6,5,8-5[8:1],,4,3,
{8},1,1-5[8:1],6,7h[4:1],,,6,
{8}6-2[8:1],,8-4[8:1],,1>8[2:1],,8b,8b,
{16},,,,,,,,8,1,8,1,8,,,,
{8}2-7[8:1],6-3[8:1],2x,6x,,2,1,7,
{8}6-3[8:1],2-7[8:1],6x,2x,5-1[8:1]*-2[8:1],,,,
{8},,3/4,,5/6,,7/8,7/8,
{8},3/5,2<7[8:1]/6q3[8:1],,,,,4x/5x,
{8},3,3,4,1-4[8:1],,5,6,
{8},8-5[8:1],1-4[8:1],8x,1x,,,5,
{8}4/6,,1,1/8,,4-1[8:1]/5-8[8:1],,4x/5x,
{8},2/7,,1/8,3/6,,,,
{8}2/7-4[8:1],,3,,2,2,4,1h[4:1],
{8},6,6,5,7<4[8:1],,3,,
{8}1>4[8:1],,5,,7h[4:1],,5,5,
{8},3,3,8,8,5,6,3,
{8}2-5[8:1],,6,,7,7,5,8,
{8},3,3,4,5<8[8:1],,2,,
{8}4>1[8:1],,7,,8h[4:1],,5,5,
{8},3,3,8,8,5,6,4,
{8}3-8[8:1],,6,,7,7,5,8h[4:1],
{8},3,3,4,1v4[8:1],,5,,
{8}8v5[8:1],,4,,2h[4:1],,4,4,
{8},6,6,1,1,4,3,5,
{8}6-1[8:1],,3,,2,2,4,1,
{8},6,6,5,4,,6h[4:3],,
{8}2h[2:1],,,,,,,4/5,
{8},B1/E1,B7/E7,B3/E3,B5/E5,,,,
{1},
{1},
{1},
E
