&title=阿吽のビーツ
&wholebpm=103
&artist=羽生まゐご
&des=はっぴー
&shortid=11270
&genre=niconicoボーカロイド
&cabinet=DX
&version=maimai DX Splash PLUS
&chartconverter=Neskol
&lv_2=1
&des_2=
&lv_3=6
&des_3=
&lv_4=10
&des_4=Jack
&lv_5=12+
&des_5=はっぴー
&des_6=
&inote_2=
(103){1},
{1},
{1},
{1},
{1},
{1}8,
{1}8,
{1}1,
{1}1b,
{2}8,8,
{1}7,
{2}6,6,
{1}5,
{2}4,4,
{1}3,
{2}2,2,
{1}1/8,
{2}1,1,
{2}2,2,
{2}3,3,
{2}4,4/5,
{2}5,5,
{2}6,6,
{2}7,7,
{2}8,1x/8x,
{1}8-5[4:3],
{1},
{1}1-4[4:3],
{1},
{1}8-4[4:3],
{1},
{1}1-5[4:3],
{1},
{1}B8,
{1}B7,
{1}B6,
{1}B5,
{1}B4,
{1}B3,
{1}B2,
{1}C1xh[2:1],
{4},,1b,1,
{2}1,2,
{4}2,,3,3,
{2}3,4/5,
{4}4/5,,5,5,
{2}5,6,
{4}6,,7,7,
{2}7,1/8,
{2}1x/8x,7h[2:1]/8h[2:1],
{2},5h[2:1]/6h[2:1],
{2},3h[2:1]/4h[2:1],
{2},1h[2:1]/2h[2:1],
{2},1,
{2}2,3,
{2}3/4,5,
{2}6,7,
{2}7/8,1-4[4:3]/8-5[4:3],
{1},
{2},B4/B5,
{2},B3/B6,
{2},B2/B7,
{2},C1xh[16:15],
{1},
{1},
{1},
E
&inote_3=
(103){1},
{2}3h[2:1],4,
{2}6h[2:1],5,
{2}3h[2:1],4,
{1}5/6<1[8:3],
{4}2,2,1/2,,
{4}7,7,7/8,,
{4}2,2,1/2,,
{4}1x/8x,2x/7x,3x/6x,4x/5x,
{4}6,6,5,,
{4}3,3,4,,
{4}6,6,5,5,
{1}4>1[8:3],
{4}7,7,8,,
{4}2,2,1,,
{2}7h[4:1]/8h[4:1],1h[4:1]/2h[4:1],
{1}1>4[8:3]/8<5[8:3],
{4}6b,6,5/6,5/6,
{4}3,3,3/4,3/4,
{4}2,2,1,1,
{4}8,8,1/7,,
{4}2,2,1/2,1/2,
{4}3,4,4-8[8:3]/5-1[8:3],,
{2},1/8,
{4}1/8,1/8,2b/7b,,
{4}E6,B6,B7,,
{4}E4,B3,B2,,
{4}B5,B6,B7,B8,
{4}B1,B2,B3,,
{4}6xh[2:1],,5,4,
{4}3h[2:1],,4,5,
{4}6x,7x,8x,1x,
{4}1x/8x,2x/7x,3b/6b,,
{1}5<4[4:5],
{1},
{2}3,2,
{1}1-4[8:3]/8-5[8:3],
{2}6h[2:1],5h[2:1],
{2}4h[2:1],3,
{4}2,1,8,7,
{4}6,4/5,3/6,,
{4}1h[4:1]/8h[4:1],,7b,7/8,
{4}7,7/8,2,1/2,
{4}2,1/2,3,3,
{4}4,4,5,5,
{4}4/6,,3,3/4,
{4}3,3/4,2,1,
{1}1>4[8:3]/8<5[8:3],
{4}4/5,,3/6,2/7,
{2}1h[4:1]/8h[4:1],C1f/B3/B6,
{2},8-4[8:3],
{2},3<6[8:3],
{4},,7,7,
{4}8,8,1-5[8:3],,
{2},6>3[8:3],
{2},1h[4:1]/2h[4:1],
{4}7h[4:1]/8h[4:1],,1/8,1/8,
{2}2b/7b,B6,
{2}B5,B4,
{4}B3,,2,2,
{4}1/2,,7,7,
{4}7/8,,2,2,
{4}1/2,,1x/8x,2x/7x,
{4}3x/6x,4x/5x,,,
{1},
{1},
{1},
E
&inote_4=
(103){1},
{2}3h[2:1],4h[2:1],
{2}5h[2:1],6h[2:1],
{2}5h[2:1],4h[2:1],
{4}E3,E5,E7,B4/B5,
{8}8,7,6h[4:1],,5,6,4/7,,
{8}1,2,3h[4:1],,4,3,2/5,,
{8}7,8,1h[4:1],,8,1,2/7,,
{4}B3/E4,B5/E6,B1/E2,B7/E8,
{8}3,3,2/4,,1-5[8:1],1,8,,
{8}6,6,5/7<8[16:5],,,,,,
{8}3,4,2/5,,6,5,4/7,,
{16}2h[16:3],,,3h[16:3],,,4-1[8:1],,,,8,,8,,,,
{8}3,3,6,6,2-5[8:1],2,,,
{8}6,6,3,3,7-4[8:1],7,,,
{8}3,2,1h[2:1],,6,7,8h[1:1],,
{8}4,,4,,4,4,4x,,
{8}2b/7b,3,4/5,6,7<4[8:1],8,1,,
{8}3/4,2,5/6,7,8<5[8:1],1,2,,
{8}1/5,1/5,4/8,4/8,1/5,4/8,1xh[4:1]/5x,,
{8}8,3/4,1,5/6,4x>1[8:1]/8x<5[8:1],,,,
{8}7/8,6,4/5,3,1/2,3/8,4/7,,
{8}2/5,3,4/7,6,2/5-8[8:1],3,4,,
{2}E2,E8,
{8}1h[8:1]/2h[8:1],,7h[8:1]/8h[8:1],,4/5,4/5,2b/7b,,
{8}3,4,5h[24:5]/7h[24:5],,,E5,E4,E3,
{8}6,5,2h[24:5]/4h[24:5],,,E5,E6,E7,
{8}4,5,3h[24:5]/6h[24:5],,,E5,C1,E1,
{8}2h[24:11],,7h[4:1],,,1x/8x,1x/8x,2x/7x,
{8}3h[2:1],4,5,6,6h[2:1],5,4,3,
{8}2h[2:1],4,5,6,7h[2:1],5,4,3,
{8}1h[2:1],4,5,6,8h[2:1],5,4,3,
{8}1,2xh[8:1]/4xh[8:1],,5xh[8:1]/7xh[8:1],,3x/6x,1b/8b,,
{2}E4,E6,
{1}4pp4[8:3]*qq4[8:3],
{2}E6,E4,
{4}6h[4:1],5h[4:1],4h[4:1],3,
{4}3/4,3/5,3/6,3/7,
{8}5/6,,4/6,,3/6,,2/6,2/6,
{8}7,6,5,4,3,2,1>8[8:3],8,
{2},C1f,
{24}4/5h[4:1],,,4,,,4,,5x,4x,,,2b/7b,,,6,,,4/5,,,3,,,
{8}1/2>5[8:1],8,7x,,6,5,3/4,2,
{8}1>4[8:1]/8,7,6x,,6,5/7,3,2/4,
{8}1-4[8:1]/5-8[8:1],1/5,,,2,5/6,7,3/4,
{8}1x>4[8:1]/5x<8[8:1],,,,1/2,3,4/5,6,
{8}7/8,1/6,2/5,,4/7,6,2/5,3,
{8}4-1[8:1]/7,6,5,,E8,,,,
{4}E2,,7h[8:1]/8h[8:1],1h[8:1]/2h[8:1],
{8}5x/6x,4x/7x,3x/8x,1x/2x,3h[8:7]/8b,,6,6,
{8}7,6,5,4,2/5h[8:3],2,4,4,
{8}3/6,2/7,1/8,,2/4h[8:5],2,1,1,
{8}3,3,2x/5x,,5h[8:5]/7,7,8,8,
{8}6,6,4x/7x,,2/5,4,2/5,3h[2:1],
{8}4,5,6,7,4/7,5,4/7,6h[2:1],
{8}5,4,3,2,1-4[4:1],,5,,
{8}8-5[4:1],,4,,1,1,1/8,1/8,
{8}2/7,3/6,1b/8b,,2h[4:3],,,,
{4}7h[4:1],,E1,C1,
{8}E5,,,,4/5,3,2h[4:1],,
{8}1,2,3/8,,4/5,6,7h[4:1],,
{8}8,7,1/6,,2/7,1,8h[4:1],,
{24}1,,,8,,,2/7,,,,,,4,,4,,4,,6,,6,,6,,
{12}2,2,2,8,8,8,,,,,,,
{1},
{1},
{1},
E
&inote_5=
(103){1},
{8}3<6[4:1],3,,,E4,,E5,,
{8}6>3[4:1],6,,,E6,,E5,,
{8}3<6[4:1],3,,,E4,,E5,,
{24}6,,5,,7,,3,,4,,2,,6,,5,,7,,3/6,,,,,8,
{24}1,,,1,,,2/4,,,5,,5,4,,6,5,,,5/7,,,,,1,
{24}8,,,8,,,5/7,,,4,,4,5,,3,4,,,2/4,,,,,8,
{24}1,,,1,,,2/4,,,5,,5,4,,6,5,,,5/7,,,,,1,
{12}8,5/7,4,3/5,2,1,2/8,7,6,3/5,2,1,
{24}8b,,,,,,4/6h[8:1],,,5,,5,6,,6,4,,,3/5pp5[4:1],,,,,,
{24}1,,,2,,,3h[8:1],,,4,,4,3,,3,5,,,4/6-3[8:1],,,,,,
{24}2-7[8:1],,,,,,6h[24:5],,,,,5,6,,6,4,,,3-7[8:1]/5-1[8:1],,,,,,
{24},,,,,,3h[8:1]/5,,,4,,4,3,,3,5,,,4/6,,,E6,,,
{24}3,,3,1,,1,8q1[4:1],,8,6,,,,,,,,,,,,,,,
{24}7,,7,5,,5,4pp4[4:1]*qq4[4:1],,4,2,,,,,,,,,,,,,,6,
{24}5,,5,7,,,4/8,,,3,,3,4,,4,2,,,1/5>6[8:3],,,3/7,,,
{8},,,,E5,E3/E7,E4/E6,,
{8}3-8[8:1],4,5-2[8:1],6,7-4[8:1],8,1-6[8:1],2,
{8}3-8[8:1],4,5-2[8:1],6,7,8,1,3/6,
{24}2/7,,,B4/E4/B5/E6,,,1/8,,,B2/E2/B7/E8,,,1/8,,,1/8,,,3b/6b,,,,,4,
{24}5,,5,4,,4,7p2[8:1],,7,1,,1,,,,,,,1x/8x,,,,,,
{8}3/7-3[8:1],3-7[8:1]/7,,,1>4[8:1],2/8,,,
{8}2-6[8:1]/6,2/6-2[8:1],,,8<5[8:1]*>3[8:1],2/6,,,
{8}2h[2:1]/6h[2:1],,,,,,4/5,3/6,
{24}1/8,,7,5,,2,4,,6,5,,3,4>1[8:1]*<8[8:1],,,4/5,,,,,,,,,
{24}1x/8x,,,1x/8x,,,7,,7,5,,5,4,,4,2,,,1/4,,,2/5,,,
{24}3/6,,,4/7,,,3,,3,1,,1,8,,8,6,,,5/8,,,1/6,,,
{24}2/7,,,3/8,,,2,,2,4,,4,5,,5,7,,,5/8,,,7,,,
{24}5/6,,4/5,,3/4,,3/4,,4/5,,7,6,5,,3,4,,,3/6,,,3/6,,,
{8}2-8[8:1]/5,1,6-4[8:1],5,3-1[8:1],2,7-5[8:1],6,
{8}4-2[8:1],3,8-6[8:1],7,5,3,2-4[8:1]/4,,
{4}2/6-8[8:1],3-5[8:1]/6,3/7-1[8:1],4/7,
{24}3/5,,,3,4,3,4,,,6,5,6,5w1[8:1],,,3/7,,,,,,,,,
{2}1x-4[4:5],E7,
{2}C1,E3,
{4}8h[2:1],,5,4,
{12}2,3,4,7,6,5,1,3,4,8,6,5,
{4}4h[4:1]/8-3[8:1],8-5[8:1],4-8[8:1]/8,,
{24}1-6[8:1]/5h[4:1],,,,,,1-4[8:1],,,,,,1/5,,,,,5,4-1[8:1],,,3/6,,,
{8}7-4[8:1],7,2-7[8:1],2,5-2[8:1],5,8,8,
{24}6,5,6,3,4,3,6,5,7,3,4,2,6>3[8:1],,,,,,,,,,,,
{8}3<6[8:1]/6,3/6,,,5q1[8:1],4,3q7[8:1],2,
{8}1q5[8:1],8,7q3[8:1],6,5q1[8:1],4,3q7[8:1],2,
{8}1,8,7,4/5,3/6,B1/E2/B8/E8,4/5,B3/E4/B6/E6,
{24}4/5,,4,5,,,2/7,,,,,8,1,,1,8,,8,3-6[8:1],,3,5,,5,
{8},,1b/8b,,4-1[8:1]*-7[8:1],1-4[8:1]/7,,,
{8}5-2[8:1]*-8[8:1],2/8-5[8:1],,,4<7[8:1]*v1[8:1],1>4[8:1]/7,,,
{8}5>2[8:1]*v8[8:1],2/8<5[8:1],,,4h[8:3],,,5,
{24}3/6,,,,,,7,,7,5,,5,4,,4,2,,2,8,,8,1,,,
{24}3/6,,,2/7,,,5>5[2:1]*<4[2:1],4,5,4,5,4,5b,,,,,,,,,,,,
{8},,4/5,3,2/4,6,4/7,6,
{24}3/5,,,2,,,1/6,,,,,,7,,7,5,,5,4,,4,2,,2,
{24}7<4[8:1],,7,5,,,1,,,,,,2,,2,4,,4,5,,5,7,,7,
{24}2>5[8:1],,2,4,,,8,,,,,,5/7,,,3,,,2/5,,,3,,,
{8}4/6,7,3/8,2,1/6,7,5/8,4,
{8}3/7,6,5-8[4:1],4,3,,4-1[4:1],5,
{24}6,,,,,,5,,,5,,,2,4,3,4,,,7,5,6,5,,,
{24}4/5,,,1/8,,,3,4,2,6,5,7,1h[4:7],,,,,,,,,,,,
{1},
{24},,,,,,,,,,,,8,,,8,,,5/7,,,4,,4,
{24}5,,3,4,,2,3,,,,,8,1,,,1,,,2/4,,,5,,5,
{24}4,,6,5,,7,6,,,,,1,8,,,8,,,5/7,,,4,,4,
{24}5,,3,4,,2,3,,,,,8,1,,2/4,,5,,4/6,,7,,8,,
{12}1/7,2,3,4/6,7,1b/8b,,,,,,,
{1},
{1},
{1},
E
