&title=生命不詳
&wholebpm=200
&artist=蜂屋ななし
&des=はっぴー
&shortid=11231
&genre=maimai
&cabinet=DX
&version=maimai DX Splash PLUS
&chartconverter=Neskol
&lv_2=4
&des_2=
&lv_3=8
&des_3=
&lv_4=11+
&des_4=Jack
&lv_5=13+
&des_5=はっぴー
&des_6=
&inote_2=
(200){1},
{1},
{1}1,
{1},
{1}1,
{1},
{1}8,
{1},
{1}8,
{1},
{1}1,
{1}1,
{1}2,
{1}2,
{1}3,
{1}3,
{1}4,
{1}4/5,
{1}5,
{1}5,
{1}6,
{1}6,
{1}7,
{1}7,
{1}8,
{1}8,
{1}1b/8b,
{1},
{1}7h[1:1]/8h[1:1],
{1},
{1}5h[1:1]/6h[1:1],
{1},
{1}3h[1:1]/4h[1:1],
{1},
{1}1h[1:1]/2h[1:1],
{1},
{2}8,8,
{1}7/8,
{2}1,1,
{1}1/2,
{2}3,3,
{1}3/4,
{2}5,5,
{1}4/5,
{1}B4,
{1}B5,
{1}B3,
{1}B6,
{1}B2,
{1}B7,
{1}C1xh[1:1],
{1},
{4}8x,8,8,,
{1}7,
{4}6,6,6,,
{1}4/5,
{4}4,4,4,,
{1}3,
{4}2,2,2,,
{1}1/8,
{4}1,1,1,,
{1}2,
{4}3,3,3,,
{1}4/5,
{4}5,5,5,,
{1}6,
{4}7,7,7,,
{1}1/8,
{2}8,8,
{4}7,7,7,,
{2}6,6,
{4}5,5,4/5,,
{2}4,4,
{4}3,3,3,,
{2}2,2,
{4}1,1,1/8,,
{2}1,1,
{4}2,2,2,,
{2}3,3,
{4}4,4,4/5,,
{2}5,5,
{4}6,6,6,,
{2}7,7,
{4}8,8,8,,
{2}7,7,
{2}7/8,7/8,
{2}6,6,
{1}5/6,
{2}3,3,
{2}3/4,3/4,
{2}2,2,
{1}1/2,
{1}1h[2:1]/2h[2:1],
{1}1/2,
{1}3h[2:1]/4h[2:1],
{1}3/4,
{1}5h[2:1]/6h[2:1],
{1}5/6,
{1}7h[2:1]/8h[2:1],
{1}7x/8x,
{1}1-5[4:3],
{1},
{1}8,
{1}1,
{1}8-4[4:3],
{1},
{1}1,
{1}2x/8x,
{1},
{1},
{1},
E
&inote_3=
(200){1},
{1},
{4}3,3,4,,
{4}6,6,5,,
{4}3,3,4,,
{4}5,5,4/6,,
{4}7,7,8,,
{4}2,2,1,,
{4}7,7,8,,
{4}1/8,1/8,2x/7x,,
{2}3h[2:1],4,
{2}6h[2:1],5,
{2}3h[2:1],4,
{2}5h[4:1]/6h[4:1],5/6,
{2}7h[2:1],8,
{2}2h[2:1],1,
{2}7h[2:1],8,
{2}1h[4:1]/8h[4:1],2/7,
{4}6,6,5/6,,
{4}3,3,3/4,,
{4}6,6,5/6,,
{4}4,4,3/5,,
{4}2,2,1/2,,
{4}7,7,7/8,,
{4}1/8,1/8,1/8,,
{1}2h[2:1]/7h[2:1],
{1}C1f,
{2}1x,8x,
{4}E2,B2,B3,,
{4}E8,B7,B6,,
{4}E4,B3,B2,,
{4}E6,B6,B7,,
{4}E2,E1,E8,,
{4}E6,E5,E4,,
{4}B7,B8,B1,B2,
{1}C1f,
{2}7xh[2:1],8h[2:1],
{2}1h[2:1],2,
{2}3h[2:1],4h[2:1],
{2}5h[2:1],6,
{2}7/8,5/6,
{2}3/4,1/2,
{2}3/4,5/6,
{4}4/5,4/5,3x/6x,,
{1}7z3[4:5],
{1},
{1}2s6[4:5],
{1},
{1}7z3[4:5],
{1},
{2}2,1/2,
{1}1h[2:1]/8h[2:1],
{4}7b,7,7/8,7/8,
{4}2,2,1/2,1/2,
{4}3,3,4,4,
{4}5,5,4/6,,
{2}7h[4:1]/8h[4:1],7/8,
{2}1h[4:1]/2h[4:1],1/2,
{4}8,8,1,1,
{4}1/8,1/8,2x/7x,,
{4}3b,3,3/4,3/4,
{4}6,6,5/6,5/6,
{4}7,7,8,8,
{4}1,1,2/8,,
{4}3/4,3/4,2/5,,
{4}5/6,5/6,4/7,,
{1}7<4[2:1],
{1}3>8[2:1],
{4}7b,7,7/8,1/6,
{4}2,2,1/2,3/8,
{4}4,3,3/4,2/5,
{4}6,6,5/6,4/7,
{4}3,3,2,2,
{4}1,1,8,8,
{4}7,7,6,6,
{4}5,5,4x/6x,,
{4}3b,3,3/4,2/5,
{4}6,6,5/6,4/7,
{4}8,7,7/8,1/6,
{4}2,2,1/2,3/8,
{4}7,7,6,6,
{4}5,5,4h[4:1]/6h[4:1],,
{1}4-1[2:1]/6-1[2:1],
{4},,1x/8x,1x/8x,
{1}2/7-3[2:1],
{1}2-5[2:1],
{1}6-1[2:1],
{2}2,1/8,
{1}2-6[2:1],
{1}7-4[2:1],
{1}3-8[2:1],
{4}7,7,7/8,,
{2}1h[4:1]/2h[4:1],1/2,
{2}7h[4:1]/8h[4:1],7/8,
{2}1h[4:1]/2h[4:1],1/2,
{4}1/8,1/8,2/7,,
{2}3h[4:1]/4h[4:1],3/4,
{2}5h[4:1]/6h[4:1],5/6,
{2}3h[4:1]/4h[4:1],3/4,
{2}5h[4:1]/6h[4:1],4/7,
{4}3,3,3/4,,
{4}6,6,5/6,,
{4}3,3,4,4,
{4}5,5,4/6,,
{4}7,7,7/8,,
{4}2,2,1/2,,
{4}8,8,1,1,
{1}2h[1:1]/7h[1:1],
{1},
{1},
{1},
E
&inote_4=
(200){1},
{1},
{8}3,3,,3/4,,6,,5/6,
{8},7s3[2:1],,,,,,,
{8},2,2,1,,3/8,,7,
{8},1/6,,2>5[4:1],,,,,
{8}6,6,,5/6,,3,,3/4,
{8},2z6[2:1],,,,,,,
{8},7,7,8,,1/6,,2/5,
{8},3/4,,5,5,4,4,,
{8}2b/6b,,5,4,7h[4:1],,5,6,
{8}3h[4:1],,5,4,7h[4:1],,6h[4:1],,
{8}5h[4:1],,3,4,2h[4:1],,4,3,
{4}5-8[16:3],,2h[4:1],3h[4:1],
{8}4h[4:1],,6,5,7h[4:1],,5,6,
{8}3h[4:1],,5,4,7h[4:1],,6h[4:1],,
{8}5h[4:1],,3,4,2h[4:1],,4,3,
{4}5-7[8:1],4,1-3[8:1],8b,
{8}6h[4:1],,4,5,2h[4:1],,4,3,
{8}6h[4:1],,4,5,2h[4:1],,3h[4:1],,
{8}4h[4:1],,6,5,7h[4:1],,5,6,
{8}4-1[16:3],,,,7h[4:1],,5,5,
{8}6h[4:1],,4,4,5h[4:1],,3,3,
{8}4h[4:1],,2,2,5-8[16:3],,,,
{8}2h[4:1],,4,4,3h[4:1],,5,5,
{2}4-2[8:1]*-6[8:1],8-2[8:1]*-6[8:1],
{1}C1f,
{8},,,5,5,,3/7,,
{4}1-5[16:3],8,7h[8:1],6h[8:1],
{4}5h[8:1],4h[8:1],3h[8:1],2/4,
{4}5/7>2[4:1],4,3,1/2,
{8}7/8,,5/6,,3,3,4,,
{4}2h[8:1],3h[8:1],4h[8:1],5h[8:1],
{8}6h[8:1],,7h[8:1],,8x,1x,2x/7x,,
{4}B2/B3/E4,B6/B7/E8,B1/E2/B8,B4/B5/E6,
{8}C1,,1/8,,2x/7x,2x/7x,2x/7x,,
{4}4h[4:1],5,7h[4:1],8,
{8}2h[4:1],,1,,3,4,5,3/6,
{8},1h[4:1]/8h[4:1],,,2h[4:1]/7h[4:1],,,3h[4:1]/6h[4:1],
{8},,4/5,,2x/7x,2x/7x,2b/7b,,
{4}4h[4:1]/5,5,3h[4:1]/5,5,
{4}2h[4:1]/5,5,1-3[8:1]/5-7[8:1],,
{4}4/8h[4:1],4,4/7h[4:1],4,
{4}4/6h[4:1],4,4>1[4:1]/5<8[4:1],,
{8},,,,E1,E8,,,
{8}E6,E5,,,E3,E2,,,
{8}E8,E7,,,E5,E4,,,
{8}E2,E1,,,B4/B5/E6,,B1/E2/B8,,
{8}E5,E6,,,E8,E1,,,
{8}E3,E4,,,E6,E7,,,
{8}E1,E2,,,E4,E5,,,
{4}B1/E2/E8/B8,4x/5x,3x/6x,2x/7x,
{2}1b>4[8:1]/8b<5[8:1],2xh[8:3]/7xh[8:3],
{8}2x/7x,,4/5,4/5,,7/8,,1/2,
{2}1-5[8:1]/2-4[8:1],7-5[8:1]/8-4[8:1],
{4}1b,1,1/5-8[8:1],1,
{8}1/2,,3-8[8:1],3,,,7-4[8:1],7,
{8},,1x>4[4:1]/5x<8[4:1],1x/5x,,,,,
{8}4x/7x,,2x/5x,2x/5x,,1x/8x,1b/8b,,
{4},B1/E2/B8/E8,C1/E3/E7,B4/E4/B5/E6,
{8}1b/8b,,2,1,3h[4:1]/8h[4:1],,,,
{8}1h[4:1]/6h[4:1],,,1/6,,2/5,,3/4-8[8:1],
{8}3/4,,,1-5[8:1],1,,,4p5[2:1]/6<3[2:1],
{4}4/6,,,4h[4:1],
{4}2h[4:1],8h[4:1],6h[4:1],5<4[2:1],
{8},,,,,,7,7h[8:5],
{8}5,,4,,3,,2,2h[8:5],
{4}4,5,6,4/5,
{4}6x/7x,5x/8x,6h[8:1]/7h[8:1],4h[8:1]/5h[8:1],
{4}2x/3x,1x/4x,2h[8:1]/3h[8:1],4h[8:1]/5h[8:1],
{4}6-4[8:1],2,2-6[8:1],8,
{4}8-2[8:1],4,4-8[8:1],7,
{4}7h[4:1],6h[4:1],5h[4:1],4h[4:1],
{4}3h[4:1],2h[4:1],1h[4:1],8h[4:1],
{1}7pp2[1:1],
{8},,,,4,5,4/5,,
{4}2x/3x,1x/4x,2h[8:1]/3h[8:1],4h[8:1]/5h[8:1],
{4}6x/7x,5x/8x,6h[8:1]/7h[8:1],4h[8:1]/5h[8:1],
{4}2x/3x,1x/4x,2h[8:1]/3h[8:1],4h[8:1]/5h[8:1],
{8}6>3[4:1],,2,,1,1,8x,,
{4}3h[4:1],4h[4:1],5h[4:1],6h[4:1],
{4}7h[4:1],8h[4:1],1h[4:1],2qq7[1:1],
{1},
{8},,,4,4,5,5,,
{8}3b/7b,,4,5,2h[4:1],,4,3,
{8}6h[4:1],,4,5,1h[4:1],,2h[4:1],,
{8}3h[4:1],,5,4,7h[4:1],,5,6,
{4}4>1[16:3],,8h[4:1],7h[4:1],
{8}6h[4:1],,4,5,2h[4:1],,4,3,
{8}6h[4:1],,4,5,1h[4:1],,2h[4:1],,
{8}3h[4:1],,5,4,6h[4:1],,5pp3[2:1],,
{2},1b,
{8}3h[4:1],,5,4,7h[4:1],,5,6,
{8}3h[4:1],,5,4,8h[4:1],,7h[4:1],,
{8}6h[4:1],,4,5,2h[4:1],,4,3,
{8}5<8[16:3],,,,1h[4:1],,4,4,
{8}2h[4:1],,5,5,3h[4:1],,6,6,
{8}4h[4:1],,7,7,5-1[16:3],,,,
{8}7h[4:1],,5,5,6h[4:1],,4,4,
{2}5-2[8:1]*-8[8:1],1<6[8:1]*>4[8:1],
{4}1b/5h[4:1],4h[4:1],3h[4:1],2h[4:1],
{8}1h[4:1],,8h[4:1],,7,8,1x/6x,,
{4}2h[2:1],4,6h[2:1],4,
{4}3h[2:1],4,5h[2:1],4,
{4}4h[4:1],5h[4:1],6h[4:1],7h[4:1],
{8}8h[4:1],,1h[4:1],,2,1,3x/8x,,
{4}7h[4:1],6,2h[4:1],3<6[1:1],
{1}C1xh[1:1],
{1},
{1},
{1},
E
&inote_5=
(200){1},
{16}8,,8h[4:1],,,,1,,E2,E3,E4,E5,E6,,,,
{8}7,6/8h[4:1],,6,5,4h[4:1]/6,,6,
{8}3,2/4,1-4[8:1]/5,5,6,6,7,7,
{8}8-5[8:1],8,4-1[8:1],4,6,6>3[8:1],,2h[4:1],
{8},4h[4:1],,5h[4:1],,8,8,,
{8}2,1h[4:1]/3,,3,4,3/5h[4:1],,3,
{8}6,5/7,4/8-5[8:1],4,3,3,2,2,
{8}1-4[8:1],1,5-8[8:1],5,3,3<6[8:1],,7h[4:1],
{8},4,,2/6,1-3[8:1]/7-5[8:1],,1/7,,
{4}4/6h[4:7],4,5,5,
{4}3,3,4,2v7[8:1],
{4}5,5/8v1[8:1],5,2-6[8:1]/5,
{4}5,5,4,4,
{4}3h[4:7]/5,5,4,4,
{4}6,6,5,7v1[8:1],
{4}4,2v8[8:1]/4,4,4/7-3[8:1],
{16}4,,,,4,,,,5-8[8:1],,4,4,5x,,,,
{8}3h[4:1]/6,,5,5,2h[4:1]/4,,5,5,
{8}4h[4:1]/6,,5,5,3h[4:1]/6,,7v2[8:1],,
{4}4,1v8[8:1]/4,4,4/7-3[8:1],
{4}4,4,4/5,3/6,
{8}3/6h[4:1],,4,4,5/7h[4:1],,4,4,
{8}3/5h[4:1],,4,4,4/6h[4:1],,2v8[8:1],,
{4}5,5/7v1[8:1],5,2-6[8:1]/5,
{4}5,5/7-3[8:1],5,5<4[1:1],
{1}1b,
{8},,,4/5,4-1[8:1]/5-8[8:1],,,,
{4}2q7[8:1],B4/E5,8q5[8:1],B2/E3,
{8}6>3[8:1],,B4/B5,,1,2x/8x,2x/8x,,
{4}7p2[8:1],B5/E5,1p4[8:1],B7/E7,
{8}3<6[8:1],,B4/B5,,8,1x/7x,1x/7x,,
{4}5q2[8:1],B7/E8,3q8[8:1],B5/E6,
{8}1q6[8:1],,B3/E4,,7,6x/8x,1x/5x,,
{16}7x,6,5h[8:1],,2x,3,4h[8:1],,8x,7,6h[8:1],,4x,3,2h[8:1],,
{8}1<5[8:1]*>5[8:1],,,,4/6,3x/7x,3x/7x,,
{8}2h[4:1]/8,,4pp3[2:1],,1,1,,8,
{8},7,7,,8,1x/7x,2x/6x,,
{8}1/7h[4:1],,5qq6[2:1],,8,8,,1,
{8}1,,1,2/8,3/7,B6/E6/E7,B4/E4,,
{8}3<6[8:1],,8,8,7>2[8:1],,4,4,
{8}3<6[8:1],,8,8,5/7,4x,3x/5x,,
{8}6>3[8:1],,1,1,2<7[8:1],,5,5,
{8}6>3[8:1],,1,1,2/4,5x,4x>5[1:6]/6x,,
{8}7,,,,E6,B6,,,
{8}E4,B3,,,C1,,,,
{8}B2,E2,,,B7,E8,,,
{8}E4,B3,,,C1,,,,
{8}E8,B8,,,E2,B1,,,
{8}E4,B4,,,C1,,,,
{8}1,1-4[4:1],,,8,8-5[4:1],,,
{4}4,2b/7b,4b/5b,1b/8b,
{8}2-6[8:1]/6,,2-4[8:1]/7,7,8h[4:1],,5,4/6,
{8}3h[4:1]/7,,1,1<6[8:1],,1>4[8:1],,8,
{8}8h[4:1],,6-2[8:1],6,7h[4:1],,4-8[8:1],4,
{4}6h[4:1],3-6[8:1],7-2[8:1],3pp2[4:1],
{8}7,,8,8,1h[4:1],,3<6[8:1],3,
{8}8,,2,2,B6/E6,B4/E4,B8/E8,,
{8}2<7[8:1],,5,5>2[8:1],,8,8<5[8:1],,
{4}1,1,2/4,4/5,
{8}5/7-3[8:1],,2/7-5[8:1],2,1h[4:1],,4,3/5,
{8}2/6h[4:1],,5,7,4x/7x,3x/6x,2x/5x,1,
{8}1h[4:1],,3-7[8:1],3,2h[4:1],,5-1[8:1],5x,
{16}1x,2,3,4,7,6,5,4,1,2,3,4,5-1[8:1],,,,
{4}5/8-4[8:1],3-6[8:1]/8,3/7>2[8:1],4-8[8:1]/7,
{8}4/6,,7b,,B3/E4,B5/E6,B1/E2,,
{8}7>2[8:1],,4,4<7[8:1],,1,1,2,
{8}2<7[8:1],,4,4,,5,4/6-2[8:1],,
{8}3-6[8:1]/6,,3/7pp5[8:3],,4,4,3-7[8:1],,
{8}3/6-3[8:1],,2qq4[8:3]/6,,5,5,6,,
{4}5/7,1/8,2/4,4/5,
{16}5/7,,,8,1,,,,2/4<8[4:1],,,,8>4[4:1],,,,
{4}4<8[4:1],8>4[4:1],4<8[4:1],8>8[2:1],
{4}C1,8>8[2:1],C1,8>4[4:1]*p4[4:1],
{8},,,C1f/B4/B5,,,,1/8,
{8},4/5,,3/6,,2/7,2/7,,
{8}6-3[8:1],,2qq4[8:3]/6,,5,5,6-2[8:1],,
{8}3-6[8:1]/6,,3/7pp5[8:3],,4,4,3,,
{8}2/4,,1/8,1-5[8:1]/8-4[8:1],,1/8,,2x/6x,
{8}2x/6x,3,4x/7x,6,3/5-8[8:1]*p1[8:1],4,,,
{4}2x/7x,6h[4:1],8h[4:1],1h[4:1],
{4}3h[4:1],6-2[8:1],4-8[8:1],5-1[8:1],
{8}3b,,4,4,,2-6[8:1]/6,,5,
{8},3/7,,4/5,1-4[8:1]/8-5[8:1],,1/8,,
{4}3/7p3[8:1],2,2q6[8:1]/6,7,
{4}3/7p3[8:1],2,1h[4:1],4<8[4:1],
{4}3,5>1[4:1],6,4<8[4:1],
{8}3,,1,,4,4,3/5,,
{4}2/6-2[8:1],4,3-7[8:1]/7,5,
{4}2/6-2[8:1],4,3/7,4/6,
{4}3h[4:1],1h[4:1],8h[4:1],6h[4:1],
{8}3-7[8:1],,5-1[8:1],,4,4,3/8,,
{8}2q6[8:1]/6,,8,8,3/7p3[8:1],,1,1,
{8}2q6[8:1]/6,,8,8,7x,7x,5x>1[4:1]/6x,,
{4}6,4<8[4:1],3,5>1[4:1],
{8}6,,7h[4:1],,5,5,4/6,,
{8}3-7[8:1]/7,,4,5,2/6-2[8:1],,5,4,
{8}3-7[8:1]/7,,4,5,8x,1x/7x,2x/6x,,
{4}3h[4:1],1h[4:1],8h[4:1],6h[4:1],
{4}4,3-6[8:1]/7-2[8:1],,1/5,
{4}4/8-5[4:1],C1/B7/E7,1-4[4:1],C1/B2/E3,
{8}8-5[4:1],,C1/B7/E7,,1x,2x,3x/8xh[4:1],,
{4}1-4[4:1],C1/B2/E3,8-5[4:1],C1/B7/E7,
{4}1-4[4:1],C1/B2/E3,8,8h[4:1],
{4}1-4[4:1],C1/B2/E3,8-5[4:1],C1/B7/E7,
{8}1-4[4:1],,C1/B2/E3,,8x,7x,1xh[4:1]/6x,,
{8}8-5[4:1],,C1/B7/E7,,1,2,3>6[1:1]/8,,
{1}C1xh[1:1],
{1},
{1},
{1},
E
