&title=永遠にゲームで対戦したいキリタン
&wholebpm=126
&artist=GYARI
&des=小鳥遊さん
&shortid=11262
&genre=niconicoボーカロイド
&cabinet=DX
&version=maimai DX Splash PLUS
&chartconverter=Neskol
&lv_2=2
&des_2=
&lv_3=6
&des_3=
&lv_4=9
&des_4=はっぴー
&lv_5=12+
&des_5=小鳥遊さん
&des_6=
&inote_2=
(126){1},
{1},
{1},
{1},
{1},
{1},
{1}1,
{1}8,
{1}1,
{1}8,
{1}1,
{1}1/8,
{1}C1hf[8:9],
{1},
{1},
{1}1h[1:1],
{1},
{1}8h[1:1],
{1},
{1}1h[1:1]/8h[1:1],
{1},
{1}B1,
{1}B8,
{1}B2,
{1}B7,
{1}B3,
{1}B6,
{1}B4,
{1}B5,
{1}C1xh[1:1],
{1},
{2}1,1,
{1}1,
{2}2,2,
{1}2,
{2}3,3,
{1}3,
{2}4,4,
{1}4x/5x,
{1}5-8[4:3],
{1},
{1}1-4[4:3],
{1},
{1}5-8[4:3],
{1},
{2}1,1,
{1}1/8,
{2}8,8,
{4}7,7,7,,
{2}6,6,
{4}5,5,4/5,,
{2}4x,4,
{4}3,3,3,,
{2}2,2,
{4}1,1,1/8,,
{1}2h[1:1],
{1},
{1}3h[1:1],
{1},
{1}4h[1:1],
{1},
{1}4h[1:1]/5h[1:1],
{1},
{1}4x/5x,
{4}5b,5,5,,
{4}6,6,5/6,,
{4}4,4,4,,
{4}3,3,3/4,,
{4}2,2,2,,
{4}1,1,1/8,,
{4}7,7,7,,
{4}8,8,1/8,,
{4}7,7,7,,
{4}6,6,5/6,,
{4}4,4,4/5,,
{4}5,5,4,4,
{4}4/5,4/5,4/5,4h[8:3]/5h[8:3],
{1},
{1},
{1},
E
&inote_3=
(126){1},
{1},
{1},
{1},
{1},
{1},
{1}3h[1:1],
{1}4h[1:1],
{1}5h[1:1],
{2}6x,4/5,
{2}3/6,2V41[8:7]/7V58[8:7],
{1},
{4}1x/8x,1x/8x,1x/8x,1xpp4[8:9]/8xqq5[8:9],
{1},
{1},
{1}2xq6[2:1],
{1}7xp3[2:1],
{2}2h[2:1],1,
{2}7h[2:1],8,
{2}2h[2:1],1,
{1}1h[8:5]/8h[8:5],
{4}2b,2,1,1,
{4}8,8,7,7,
{2}5h[4:1]/6h[4:1],3h[4:1]/4h[4:1],
{4}4/5,4x/5x,3x/6x,,
{4}7,7,8,8,
{4}1,1,2,2,
{2}3h[4:1]/4h[4:1],5h[4:1]/6h[4:1],
{4}4/5,4x/5x,3x/6x,,
{2}E2/E8,B2/B7,
{2}B3/B6,E4/E6,
{4}2x,2,1,,
{4}7,7,8,,
{4}2,2,1,,
{4}8,8,1/7,,
{4}6,6,5,,
{4}3,3,4,,
{4}6,6,5,,
{4}4/5,4/5,3x/6x,,
{2}2h[2:1],1h[2:1],
{2}8h[2:1],7x,
{2}6h[2:1],5h[2:1],
{2}4h[2:1],3,
{2}B1/B2,B7/B8,
{2}B5/B6,B3/B4,
{1}C1hf[8:11],
{1},
{4}2x,2,1/2,1/2,
{4}3,4,3/5,,
{4}6,6,5/6,5/6,
{4}7,8,1/8,,
{4}7,7,7/8,7/8,
{4}6,5,4/6,,
{4}3,3,3/4,3/4,
{4}5,4/5,3b/6b,,
{1}7<4[2:1],
{1}3>8[2:1],
{1}7<4[2:1],
{4}3,3,2x/4x,,
{1}1>4[2:1],
{1}5<8[2:1],
{1}1>4[2:1],
{1}5<4[4:5],
{1},
{4}2,1/2,7,7/8,
{4}6,5,4/6,,
{4}7,7/8,2,1/2,
{4}3,4/5,3x/6x,,
{4}6,5/6,3,3/4,
{4}2,1,2/8,,
{4}3,3/4,6,5/6,
{4}7,1/8,1b>4[2:1]/8b<5[2:1],,
{4},,,4/5,
{1}4qq1[4:5]/5pp8[4:5],
{1},
{2}B2/B7,B3/B6,
{2}E4/E6,C1hf[8:5],
{1},
{1},
{1},
E
&inote_4=
(126){1},
{1},
{1}4-1[1:1],
{1},
{1}4-1[1:1],
{1},
{4}6,6,6x,6,
{4}6,6,6,6,
{4}5,5,5,5<8[2:1],
{1},
{1},
{1}1>4[2:1],
{16}7h[16:3],,,5h[16:3],,,4h[16:3],,,2h[16:3],,,8,,8,,
{8},C1f/B3/B4/B5/B6,,,,,,,
{8},,,,,,,3/6,
{4}3/6h[1:2],,,5,
{4},5,,5,
{4}3h[1:2],4,4,4,
{4}5,5,4,4,
{4}6h[4:3],5,5,5,
{8}4/7,,2/5,2/5,,1x/8x,,,
{8}6,6,5,7,,4/8,4/8,,
{8}3,3,4,2,,1/5,1h[4:1]/5h[4:1],,
{4},5h[4:1]/6h[4:1],,3h[4:1]/4h[4:1],
{4},C1,E2/E8,,
{8}3,3,4,2,,1/5,1/5,,
{8}6,6,5,7,,4/8,4h[4:1]/8h[4:1],,
{4},3h[4:1]/4h[4:1],,5h[4:1]/6h[4:1],
{4},B2/B7,C1f,,
{1}1>8[4:3],
{12},,,,,,1x/8x,1x/8x,2x/7x,2x/7x,,,
{8}6h[4:1],,5,,6,5,4,,
{8}3/7,,2/6,,8,8,1,,
{8}3h[4:1],,4,,3,4,5,,
{4}5/6,2/8,3/4,1/7,
{8}2,2,4,,8,8,1/7,,
{4}5/6,1b/8b,3/4,1b/8b,
{8}7,7,5,,1,1,2/8,,
{1}3<6[4:1],
{4}5/6,5/6h[1:1],5,8,
{4}8,3h[1:1],4,1,
{4}1,7h[1:1],5,8,
{4}8,2h[1:1],4,1,
{4}1,6h[4:3],4,5,
{8}8b,,,5,5,4,4,3h[8:3]/6h[8:3],
{2},E5,
{8}C1hf[8:3],,,,,,,1b/8b,
{8}1b/8b,7,7,5,4/6,4/6,3,3,
{8}4,5,6,3h[4:1]/7h[4:1],,,,1b/8b,
{8}1b/8b,2,2,4,3/5,3/5,6,6,
{16}5,,4,,3,,3,4,,4/5,,3/6,,,1b/8b,,
{8}1b/8b,7,7,5,4/6,4/6,3,3,
{8}4,5,6,3/7,3/7,3/7,,1b/8b,
{8}1b/8b,2,2,4,3/5,3/5,2/6,2h[8:1]/6h[8:1],
{8},3h[8:1]/7h[8:1],,2h[8:1]/6h[8:1],,C1hf[8:3],,,
{1},
{8}6,6,5,,3,2/4,2/4,,
{4}1h[4:1],3h[4:1],4q5[2:1],,
{12},,,,,,8,8,1,1,,,
{8}2/7,,3,3,4,4,5,5,
{8}6,6,7,7,1/8,1/8,2/7pp3[8:5],,
{16},,,,,,,,,,,,,,,1x,
{4},4>1[4:1]/5<8[4:1],,,
{16},,2x/7x,,,1x/8x,,1x/8x,,,,,,,3b/6b,,
{8}3b/6b,2,1,8,1/7,1/7,2,2,
{8}3,4,5,3h[4:1]/6h[4:1],,,,2b/7b,
{8}2b/7b,8,8,1,2/7,2/7,3,3,
{16}4,,5,,6,,6,5,,4/5,,3/6,,,2b/8b,,
{8}2b/8b,1,2,3,4/6,4/6,7,8,
{8}1,2,3,4/5,4/5,3/6,,1b/7b,
{8}1b/7b,8,7,6,4/5,4/5,3/6,3/6,
{16},,1/8,,1/8,,,,7h[16:3],,,6h[16:3],,,5,,
{4}5,3/4,1/2,7/8,
{1}5bq4[2:1]/6b<3[2:1],
{12}2x/5x,2x/5x,,4x/7x,4x/7x,,2x/5x,2x/5x,,1b/8b,,,
{16}7h[16:3],,,6h[16:3],,,5h[16:3],,,4h[16:3],,,3,,,,
{16}2h[16:3],,,3h[16:3],,,4h[16:3],,,5h[16:3],,,6,,,,
{8},1b/7b,,,,,,,
{1},
{1},
{1},
E
&inote_5=
(126){1},
{8},,,,,,B5,B4,
{16}E4,,,,B2,,,B3/B4,,,,,B7,,,B5/B6,
{16},,,,C1,,,B4/B5,,,,,,,,,
{16}B1/B8,,,,B7,,,B5/B6,,,,,B2,,,B3/B4,
{4},E1,C1,B4/B5,
{16}3h[16:23],,,,5,,,4,,,,,5,,,4,
{16},,,,5,,,4<6[8:1],,,,,,,,,
{16}6h[16:15],,,,4,,,5,,,,,4,,,5<4[16:33],
{2},E7,
{2}E1,E3,
{24},,,,,,,,,,,,,,,5,4,5,4,,,,,,
{16}C1f/1xh[8:1],,,C1f/8xh[8:1],,,C1f/2xh[8:1],,,C1f/7xh[8:1],,,1/8,,1/8>7[8:11],,
{8},C1f,,,,,,,
{8},,,,,,,3/6,
{1}3>6[2:1]/6,
{16}5h[4:1],,,,4,,,3/5,,4/6,,,4/5,,3/6,,
{16}2x/7x,,1h[16:3],,,2h[16:3],,,3h[16:3],,,4h[16:3],,,5,,
{16}5/6,,7h[16:3],,,8h[16:3],,,1h[16:3],,,2,,,4,5,
{16}4,,8h[16:3],,,7h[16:3],,,6h[16:3],,,5h[16:3],,,4,,
{16}3/4,,,,6,5,,3,4,,2b/7b,,,,,,
{16}3,4,3<6[8:1],,2/5,,3,,7-3[8:1],,6/8,,7,,,,
{16}2,1,2<7[8:1],,3/8,,2,,6-2[8:1],,5/7,,6,,,,
{4}4pp5[4:1],2,4pp5[4:1],2,
{16}4,,,,1/3,,,6/8,6/8h[4:1],,,,C1f,,,,
{16}7,8,7>2[8:1],,1/6,,7,,3-7[8:1],,2/4,,3,,,,
{16}6,5,6>3[8:1],,4/7,,6,,2-6[8:1],,1/3,,2,,,,
{4}5qq4[4:1],7,5qq4[4:1],7,
{16}5,,,,6/8,,,1/3,1h[4:1]/3,,,,C1f,,,,
{1}C1xh[4:5]/1b>8[1:1],
{12},,,,,,1/8,1/8,1/8,2x/7x,,,
{16}4/5,,3,4,3,4,3,4,3-8[8:1]*>8[8:1],,3,,,,,,
{16}7,,4/6,,5,4,5,4,5-7[8:1],,5-1[8:1],,,,,,
{8}8v1[8:1],2,3,4,5s1[16:3],5,3,3,
{16}4,4,,7,7,,6,,5V72[4:1]/7V52[4:1],,,,,,,,
{16},,3,4,3,4,3,4,2x,,1x,,8x,,7x,,
{8}5/6,3/4,4-2[8:1]/5-1[8:1],3/6,4b-8[8:1]/5b-7[8:1],,4b/5b,,
{16}1,,2,,3/4,,4/5,,6x,6x,6x,6x,6x,6x,6x,,
{96}4/5,,,,,,,,,,,,,,,,,,,,,,4x,,,,,,5x,,,,,4x,,,,,5x,,,,,4x,,,,,,,,,6x,,,,,,,3x,,,,4x,,,,5x,,,,6x,,,,,,4x,,,,,,,,,,,,,,,,,,,
{4}3bq5[2:1]/6h[4:1],,6,6,
{4}3V51[8:3]/7V51[8:3],,,2/8,
{4}3/7,B7/B8/E8,B5/B6/E6,B2/B3/E3,
{4}C1f,6xh[4:1],7xh[4:1],8xh[4:1],
{4}1x>8[4:3],E3,E5,E7,
{16}C1f/E1,,,,,,3,6,3,,4/5,,4/5,,4h[8:5]/5h[24:19],,
{1},
{24}3x/6x,,3x/6x,,4x,5x,4x,5x,,C1f,,,,,,,,,,,,1b/8b,,,
{16}2b/7b,,6,5,7,8,5,4h[8:1],,1,2,4,3,5,,1/8h[8:1],
{16},6,7,5,6,,1-5[16:1]/5,1/5-1[8:1],,6,6,,7,,8b,,
{16}8b,,2,4,3,7,5,6h[8:1],,8,7,4,5s1[16:3],,1,1,
{16},2,2,,3,,8,8-5[8:1]*z4[8:1],,1/7,,8,,,2b,,
{16}2b,,3,4,2,1,4,5h[8:1],,8,7,5,6,4,8,1h[8:1],
{16},4,3,5,4,6,5pp5[4:1],7,,4,4,,3,,1b,,
{16}1b,,7,5,6,2,4,3h[8:1],,1,2,5,4,7,8,6,
{8},6h[8:1]/7h[8:1],,6h[8:1]/7h[8:1],,C1f,,,
{32}1x/8x,,,,2,3,4,,6,,6,,,,5/7,,,,3,,4,,3,,5,,4,,5,,4h[8:1],,
{32},,6,,5,,6,,4,,5,,4,,3x/6x,,,,7,,8,,7,,1,2,3,,6,,6,,
{16}5,,4/7,,5,4,,3/6,,,2/4,,3,4,,2/5,
{24},,,4,,,5,,,6,,,3x/7x,,3x/7x,,3x/7x,,2x/6x,,2x/6x,,2x/6x,,
{16}1b/5b,,,,3/4,,2,1,,3,3,,6,5,,4/7,
{32},,,,3/6,,,,5,,4,,,,4/5,,,,3/6,,,,2/7,,,,1/8h[8:1],,,,1x,8x,
{32}1x,8x,1x,8x,1x,8x,1x,8x,1x,8x,1x,8x,1x,8x,1x,8x,1x,8x,1x,8x,1x,8x,1x,8x,1x,8x,1x,,,,2bqq6[16:9]/7b,,
{1},
{16},,4x/5x,,,4x/5x,,C1f/B2/B7,,,,,,,1b/8b,,
{16}2b/7b,,3,4,2,1,4,5h[8:1],,8,7,5,6,4,,1h[8:1]/8,
{16},3,2,5>7[16:5],4,6,1,1,,,4,,4,,1b/2b,,
{16}1b/2b,,7,5,6,2,4,3h[8:1],,1,2,5,4,7,8,6h[8:1],
{16},2,5,3,6,4,7,1/8,,3/4,,B1/C1f/B2/B5/B6,,,7b/8b,,
{16}7b/8b,,6,5,7,8,5,4h[8:1],,1,2,4,3,5,1,8h[8:1],
{16},6,7,4,5,2,3V51[4:1],2,,5,5,,6,,8b,,
{16}1b/8b,,2,4,3,7,5,6h[8:1],,8,7,4,5,2,1,C1hf[16:5],
{16},,,,B2/B7,,,,1x/8x,,,5x/7x,,,2x/4x,,
{4}4x-1[8:1]/5x-8[8:1],4/5,4b>1[8:1]/8b<5[8:1],4bpp7[4:3]/8bpp3[4:3],
{1}4b/8b,
{12}1x,1,1,3x,3,3,5x,5,5,7x,7,7,
{16}1xh[8:1]/8xh[8:1],,,2xh[8:1]/7xh[8:1],,,3xh[8:1]/6xh[8:1],,,4xh[8:1]/5xh[8:1],,,3/5,,4/6,,
{48}1xh[8:1]/7xh[8:1],,,,,,,,,3xh[8:1]/4xh[8:1],,,,,,,,,2xh[8:1]/8xh[8:1],,,,,,,,,5xh[8:1]/6xh[8:1],,,,,,,,,2/7,,,,,,3,,4,,5,,
{8}6,C1f/B2/B3/B6/B7,,,,,,,
{1},
{1},
{1},
E
