&title=幽霊東京
&wholebpm=124
&artist=Ayase
&des=隅田川星人
&shortid=11264
&genre=niconicoボーカロイド
&cabinet=DX
&version=maimai DX Splash PLUS
&chartconverter=Neskol
&lv_2=1
&des_2=
&lv_3=6
&des_3=
&lv_4=8+
&des_4=隅田川星人
&lv_5=12
&des_5=隅田川星人
&des_6=
&inote_2=
(124){1},
{1},
{1}1,
{1},
{1}8,
{1},
{1}1,
{1}1,
{1}2,
{1}2,
{1}3,
{1}3,
{1}4,
{1}4/5,
{1}5,
{1}5,
{1}6,
{1}6,
{1}7h[1:1],
{1},
{1}8h[1:1],
{1},
{1}7,
{1}6,
{1}5,
{1}4/5,
{1}B4,
{1}B5,
{1}B3,
{1}B6,
{1}B2,
{1}B7,
{1}B1,
{1}C1hf[1:1],
{1},
{2}1,1,
{1}1,
{2}2,2,
{1}2,
{2}3,3,
{1}3,
{2}4,4,
{1}4/5,
{1}4x/5x,
{1}6h[1:1],
{1},
{1}7h[1:1],
{1},
{1}1h[1:1]/8h[1:1],
{1},
{1}1/8,
{1}1x/8x,
{1}1-4[4:3],
{1},
{1}8-5[4:3],
{1},
{1}4-1[4:3],
{1},
{1}8,
{1}1h[1:1]/8h[1:1],
{1},
{2}8b,8,
{1}8,
{2}7,7,
{1}7,
{2}6,6,
{1}6,
{2}5,5,
{1}5,
{2}4,4,
{1}4x/5x,
{2}3,3,
{1}3,
{2}2,2,
{1}2,
{2}1,1,
{1}1h[4:3]/8h[4:3],
{1},
{1},
{1},
E
&inote_3=
(124){1},
{1},
{4}3x,3,4,4,
{4}5,5,4/6,,
{4}7,7,8,8,
{4}1,1/8,2x/7x,,
{2}6h[2:1],5,
{2}3h[2:1],4,
{2}6h[2:1],5,
{2}3h[4:1]/4h[4:1],3/4,
{4}2,2,1,,
{4}7,7,8,,
{4}2,2,8,8,
{4}1,1/8,2x/7x,,
{4}6b,6,5,5,
{4}4,4,3/5,,
{4}2,2,1,1,
{4}8,8,1x/7x,,
{4}6h[4:1],5,5,,
{4}3h[4:1],4,4,,
{4}6h[4:1],5,5,,
{2}3h[4:1]/4h[4:1],3/4,
{4}2,2,1/2,,
{4}7,7,7/8,,
{4}2,2,8,8,
{1}1/8-4[8:3],
{1}3x>8[8:3],
{1}7x<4[8:3],
{2}3xh[2:1],4h[2:1],
{2}5h[2:1],6,
{1}7x<4[8:3],
{1}3x>8[8:3],
{4}7,7,6,6,
{4}5,5,4/5,3x/6x,
{4},,1,8,
{4}7b,7,7/8,7/8,
{4}6,6,5/6,5/6,
{4}3,3,3/4,3/4,
{4}2,2,1/2,1/8,
{4}2/7,3/6,4h[4:1]/5h[4:1],,
{4}6,5,4,3,
{4}4/5,3/6,2/7,1-4[8:3]/8-5[8:3],
{4},,,4x/5x,
{2}3xh[4:1]/6xh[4:1],C1f,
{1}8x<3[1:1],
{4},,,2,
{1}1x>6[1:1],
{4},,,7,
{2}7h[2:1],8h[2:1],
{2}1h[2:1],2x,
{2}3h[2:1],4h[2:1],
{2}5h[2:1],6,
{4}7,7,8,8,
{4}1,1,2/8,,
{4}3,3,4,4,
{4}5,5,4x/6x,,
{2}B4,B3,
{2}B2,B1,
{2}B8,B7,
{2}B6,B5,
{4}C1,,1/8,1/8,
{4}7b,7/8,2,1/2,
{4}3,3/4,6,5/6,
{4}3,3/4,2,1/2,
{4}7,7/8,1,1/8,
{4}2/7,3/6,4h[4:1]/5h[4:1],,
{4}3,4,5,6,
{4}4/5,3/6,2/7,1>4[8:3]/8<5[8:3],
{4},,,4x/5x,
{4}3/6,2/7,1/8,2b>6[8:5]/7b,
{1},
{4}7,7,7/8,,
{4}2,2,1/2,,
{4}3,3,3/4,,
{4}6,6,5/6,,
{4}3,3,3/4,,
{1}4>1[8:3]/5<8[8:3],
{1},
{1},
{1},
E
&inote_4=
(124){1},
{4},,5h[4:1],4,
{4}4x/5x,6,5/7,6,
{4}4/5,3,E3/E5,,
{4}4/5,3,2/4,3,
{4}4/5,3/6,2b/7b,,
{4}5/7h[1:1],6,5,4,
{4}2h[4:1],4h[4:1],5h[4:1],7,
{4}1h[1:1]/6,4,5,4,
{4}7h[4:1],5h[4:1],4h[4:1],2,
{8}3,3,4,,3/4,,2/5,,
{8}6,6,5,,5/6,,4/7,,
{2}3h[4:1]/5h[4:1],4h[4:1]/6h[4:1],
{1}3V15[2:1]/7V15[2:1],
{4}4x/6x,3,1/2,3,
{8}4/5,,3/6,,8x,8x,1x,,
{4}3/5,6,7/8,6,
{8}4/5,,3/6,,1x,1x,8x,,
{4}2/6h[1:1],5,4,3,
{4}2h[4:1],4h[4:1],5h[4:1],7h[4:1],
{4}8<5[4:1]*>3[4:1],,,4,
{4}3/5,2/6,3/7,4/6,
{8}7,7,5,,4/6,,3/7,,
{8}2,2,4,,3/5,,2/6,,
{2}4h[4:1]/7h[4:1],2h[4:1]/5h[4:1],
{4}1>4[4:1]/8<5[4:1],,,4/5,
{8}3x<6[4:1],,,,,7,7,,
{8}3x<6[4:1],,,,,8,8,,
{4}2xh[4:1],1,7h[4:1],8,
{8}7/8,,1/2,,1/8,1/8,2/7,,
{8}6x>3[4:1],,,,,2,2,,
{8}6x>3[4:1],,,,,1,1,,
{8}2/3,,4/5,,6/7,,1/8,1/8,
{8},2/5,,4/7,4/7,,1/8,,
{8}2b/7b,,,4/5,4/5,,7-4[16:3]/8-4[16:3],,
{8},,,3,2/4,,1>4[16:3]/8<5[16:3],,
{8},,,4/5,4/5,,1-5[16:3]/2-5[16:3],,
{8},,,3/7,3/7,,1>4[16:3]/5<8[16:3],,
{8},,,4/8,4/8,,2/6,,
{4}4/7,2/5,1h[4:1]/8h[4:1],,
{8}3,3,5,,4/6,,2/7,,
{4}3/4,1/2,7/8,5/6,
{4}E2/E8,E3/E7,E4/E6,,
{8}5/7,,2/4,,1/8,,4/5,4b/5b<4[8:9],
{1},
{4},,,4/5,
{4}3h[4:7]/6,4,,4,
{4},5,,4,
{4}2h[2:1]/5,E2,E4,,
{4}4/6h[2:1],E6,E8,,
{4}3h[2:1]/5,E4,E2,,
{4}4/5,4/5,C1f,,
{4}7x,7x/8x,2,1/2,
{8}1/8,,2/7,,1,1,8,,
{4}3,3/4,6,5/6,
{8}4/5,,3/6,,5,5,4,,
{1}4xh[1:1]/5x,
{1}5xh[1:1],
{2}3xh[2:1],6xh[2:1],
{8}2x,,7x,,1x,1x,8x,8x,
{1}2xq5[2:1]/7x,
{8}C1f,,,1x/2x,1x/2x,,4>1[16:3]/5<8[16:3],,
{8},,,1/8,1/8,,3-8[16:3]/7-4[16:3],,
{8},,,2/6,2/6,,4w8[16:3]/8,,
{8},,,2x/6x,2x/6x,,4/8,,
{4}5/7,2/4,1h[4:1]/8h[4:1],,
{8}3,3,4h[4:1],,1,,2/8,,
{4}3/4,5/6,7/8,1/2,
{4}E2/E8,E3/E7,E4/E6,,
{8}5/6,,3/4,,1/8,1/8,2/7,,
{8}C1f/B2/B3/B6/B7,,,,1x/8x,,4/7,4h[4:1]/7h[4:1],
{4},2h[8:1]/5h[8:1],B6/B7/E7,B2/B3/E3,
{8}C1,,,,7,7,8,,
{8}5/6h[4:1],,8x,,3,3,4,,
{8}2xh[4:1]/5xh[4:1],,,,6,6,5,,
{8}7h[4:1],,8x,,3,3,4,,
{4}2/5,4/7,3h[4:1]/6h[8:3],,
{1},
{1},
{1},
E
&inote_5=
(124){1},
{4},,3h[4:1],C1,
{16}1xh[4:1]/6xp4[4:1],,,,,,,,2,,,3/5,,,4/6,,
{8}5/7h[4:1],6,5h[4:1],6,7h[8:1],8x,7x/8x,,
{16}1h[4:1]/6p4[4:1],,,,,,,,2,,,3/5,,,4/6,,
{8}5/7h[4:1],6,5h[4:1],6,7,1x/8x,2b/7b,,
{8}4-2[8:1],,6V84[4:1],,3,,1,1,
{8}2/4,3,4/5,6,5/7,6,4/5,,
{8}3/6-8[8:1],,3V15[4:1],,1,8,7,6,
{8}5/7,6,4/5,3,2/4,3,4x/5x,,
{16}6,5,6,,4/7,,3,4,3h[4:1],,,,C1,,,,
{16}7,8,7,,1/6,,2,1,2h[4:1],,,,C1,,,,
{2}7<5[8:1]/8h[4:1],1h[4:1]/2>4[8:1],
{8}5,,4,4,5,5,C1,,
{16}3q5[4:1]/8h[4:1],,,,,,,,7,,,4/6,,,3/5,,
{8}2h[4:1]/4,3,4h[4:1],3,2,B6/B7/E7,B6/B7/E7,,
{16}3xq5[4:1]/8xh[4:1],,,,,,,,7,,,4/6,,,3/5,,
{8}2h[4:1]/4,3,4h[4:1],3,2,B6/B7/E7,B6/B7/E7,,
{8}4>2[8:1],,6V84[4:1],,1,,2,3,
{8}2/4,3,4/5,6,5/7,6,4/5,,
{8}3x<6[4:1]/6x,3x,6xqq3[8:3],6x,7x,,8,,
{8}2/4,3,4/5,6,5/7,6,4x/5x,,
{16}3,4,3,4,2,,6,5,6,5,7h[8:1],,C1,,,,
{16}2,1,2,1,3,,7,8,7,8,6h[8:1],,C1,,,,
{2}1h[4:1]/2q6[8:1],7p3[8:1]/8h[4:1],
{4}1>8[16:5]/8q1[16:5],,,2/6,
{16}5xh[8:1]/7xh[8:1],,,4xh[8:1]/6xh[8:1],,,3x/5x,,,,E3,,E4,,,,
{16}5xh[8:1]/7xh[8:1],,,4xh[8:1]/6xh[8:1],,,3x/5x,,,,B3,,E5,,,4x/6x,
{16},,,,3/5,,,6h[16:3],,,5,,4/7,,,,
{8}3/5,,4/6,,3/4,3/4,2/5,,
{16}4xh[8:1]/6xh[8:1],,,3xh[8:1]/5xh[8:1],,,2x/6x,,,,E8,,E1,,E2,,
{16}3xh[8:1]/5xh[8:1],,,4xh[8:1]/6xh[8:1],,,3x/7x,,,,E4,,E5,,E6,,
{8}2,1,8,7,6,5,4,3x/7x-3[8:1],
{8},1xs5[4:1],,5x,6x,,8x,,
{16}6,5,,3,4,,2,,4/7,,6,,3qq4[4:1]/5pp4[4:1],,2,,
{8}3b/5b,,,6,2/5,3,4qq5[4:1]/6pp5[4:1],7,
{8}4/6,,,3,4/7,6,3qq8[4:1]/5pp8[4:1],2,
{8}3/5,,,7,2/6,3,4>5[4:1]/5p4[4:1],6,
{8}4b/5b,,,3,2/4,3,5/7,6,
{16}2/4,,3,8,,6,1,,3-8[8:1]/7-4[8:1],,,,3/7,,,,
{8}2/4,3,4/5,6,5/7,6,4/5,3,
{8}2q6[8:1]/4,2,1,8,7p3[8:1],7,8,1,
{4}1x<6[8:1]*>4[8:1],1xw5[8:1],1x,3x/7x,
{8}C1f/7x,,C1f/2x,,C1f/8,8,C1f/1,1,
{1}C1f/8b<1[8:7],
{4},,8z4[4:1],2h[1:2],
{4},E4,,E6,
{4},E1,C1,E5,
{16}6h[4:1],,,,5,6,,4/7,,,3,4,,2/5,,,
{16}6h[4:1],,,,5,6,,4/7,,,3,4,,2/5,,,
{16}2h[4:1],,,,1,2,,3/8,,,7,8,,1/6,,,
{16}2h[4:1],,,,1,2,,3/8,,,4/5,,3b/6b,,,,
{8}7-5[8:1],,2V48[4:1],,8,,7,6,
{8}4/5,3,1/2,8,4/7,B6/E6,B3/E4,,
{8}2x-4[8:1],,7V51[4:1],,1,2,3,4,
{8}5/6,7,1/8,2,3/5,B5/E5,B1/E1,,
{4}6xh[1:1],C1,,C1,
{4}3xh[1:1],C1,,C1,
{4}7xh[2:1],C1,2xh[2:1],C1,
{16}7xh[4:1],,,,8xh[4:1],,,,1xh[8:1],,2xh[8:1],,3x,4x,5x,6x,
{4}7x<8[16:5],,,5w1[8:1],
{48}5b,C1f,,,,,,,,,,,,,,,,,7,,,,,,3/5,,,,,,B2/E2,,,,,,4qq5[4:1]/6pp5[4:1],,,,,,B7/B8,,,,,,
{8}4/6,,,2,4/6,B6/B7,3qq4[4:1]/5pp4[4:1],B1/B2,
{8}3/5,,,7,4/5,B2/E2,4>5[4:1]/5p4[4:1],B7/E8,
{8}4b/5b,,,3,2/4,3,5/7,6,
{16}2/4,,3,8,,6,1,,3-8[8:1]/7-4[8:1],,,,3/7,,,,
{8}2/4,3,4/5,6,5/7,6,4/5,3,
{8}2V46[16:3]/4,2,1,8,7V53[16:3],7,8,1,
{4}1x<6[8:1]*>4[8:1],1xw5[8:1],1x,3x/7x,
{8}2h[8:1]/5h[8:1],,4h[8:1]/7h[8:1],,1/8,1/8,2pp8[16:5]/7qq1[16:5],4/5,
{8}2b/7b,,,,1x/8x,,5/7,5h[4:1]/7h[4:1],
{32},,,,,,,,2h[8:1]/4h[8:1],,,,,,,,E8,E7,E6,,,,,,E2,E3,E4,,,,,,
{32}E1,C1,E5,,,,,,1x/8x,,,,7,,7,,5h[4:1],,,,8,,,,6h[4:1],,,,8,,,,
{16}5,,,,1x/8x,,2,2,4h[4:1],,1x,,3xh[8:1],,1,,
{16}2/8,,,,4x/5x,,7,7,5h[4:1],,E8,,6h[4:1],,E1,,
{16}5,,,,4x/5x,,2,2,4h[4:1],,E2,,3h[4:1],,E1,,
{8}4,2/5,4/7,1/8,7>2[8:1],2v4[8:1],4,,
{1},
{1},
{1},
E
