&title=下克上々
&wholebpm=164
&artist=豚乙女
&des=隅田川星人
&shortid=11278
&genre=東方Project
&cabinet=DX
&version=maimai DX Splash PLUS
&chartconverter=Neskol
&lv_2=3
&des_2=
&lv_3=6
&des_3=
&lv_4=10
&des_4=はっぴー
&lv_5=13
&des_5=隅田川星人
&des_6=
&inote_2=
(164){1},
{1},
{1},
{1},
{1},
{1}1,
{1}1,
{1}8,
{1}8,
{1}1h[1:1],
{1},
{1}8h[1:1],
{1},
{1}1,
{1}1,
{1}2,
{1}2,
{1}3,
{1}3,
{1}4,
{1}4/5,
{2}5,5,
{1}5,
{2}6,6,
{1}6,
{2}7,7,
{1}7,
{2}8,8,
{1}1x/8x,
{1}8-5[4:3],
{1},
{1}1-4[4:3],
{1},
{1}8-4[4:3],
{1},
{1}1-5[4:3],
{1},
{1}8,
{1}8x,
{2}8,8,
{2}7,7,
{2}6,6,
{2}5,4x/5x,
{2}4,4,
{2}3,3,
{2}2,2,
{2}1,1,
{2}8x,8x,
{1}1x/8x,
{1}1h[1:1]/2h[1:1],
{1},
{1}3h[1:1]/4h[1:1],
{1},
{1}5h[1:1]/6h[1:1],
{1},
{1}7h[1:1]/8h[1:1],
{1},
{1}1x/8x,
{1}8-5[4:3],
{1},
{1}4-1[4:3],
{1},
{2}8,8,
{1}7/8,
{2}1,1,
{1}1/2,
{4}8b,8,8,,
{2}7,7,
{4}6,6,6,,
{2}5,4/5,
{4}4,4,4,,
{2}3,3,
{4}2,2,2,,
{2}1,1,
{2}8,8,
{2}1/8,2b/7b,
{1}1h[2:1],
{2}1,1,
{1}2h[2:1],
{2}2,2,
{1}3h[2:1],
{2}3,3,
{1}4h[2:1],
{2}4,4,
{2}4/5,4/5,
{1}3b/6b,
{1}B5/E6,
{1}B4/E4,
{1}B3/B6,
{1}C1xh[16:15],
{1},
{1},
{1},
E
&inote_3=
(164){1},
{4}3,3,3/4,,
{4}6,6,5/6,,
{4}3,3,3/4,,
{4}5,5,4/6,,
{4}7,7,7/8,,
{4}2,2,1/2,,
{4}7,7,7/8,,
{4}1/8,1/8,2/7,,
{2}3/4,5/6,
{1}4h[2:1]/7h[2:1],
{2}5/6,3/4,
{1}2b/5b,
{2}6h[2:1],5,
{2}3h[2:1],4,
{2}6h[2:1],5,
{2}3h[4:1]/4h[4:1],3/4,
{2}2h[2:1],1,
{2}7h[2:1],8,
{2}2h[2:1],1,
{2}1h[4:1]/8h[4:1],2x/7x,
{4}6,6,5,,
{4}3,3,4,,
{4}6,6,5,,
{4}4,4,3/5,,
{4}2,2,1,,
{4}7,7,8,,
{4}2,2,1,,
{4}1/8,1/8,2x/7x,,
{2}E3,E4,
{1}C1/B2/B7,
{2}E7,E6,
{1}C1/B3/B6,
{1}1x>4[2:1],
{1}5x<8[2:1],
{4}2,2,1,,
{4}7,7,8,,
{4}1,1,8,8,
{4}1/8,1/8,2/7,,
{4}2b,2,1/2,1/2,
{4}7,7,7/8,7/8,
{4}6,6,5,5,
{1}3h[8:3]/6h[8:3],
{4}7b,7,7/8,7/8,
{4}2,2,1/2,1/2,
{4}3,3,4,4,
{4}5,5,6,6,
{4}7x,6x,5x,4x,
{4}3x,2x,1b/8b,,
{1}7-3[2:1],
{1}2-6[2:1],
{1}7-4[2:1],
{2}3,3/4,
{1}5-8[2:1],
{1}1-4[2:1],
{1}5<8[2:1],
{4}2,1/2,7,7/8,
{4}1,1/8,2/7,,
{2}B8/E8,B6/E7,
{1}B4/B5,
{2}B1/E2,B3/E3,
{1}C1f/B4/B5,
{2}E5,B4/B5,
{1}C1/B3/B6,
{1}2h[2:1]/7h[2:1],
{16}1x/8x,,,1x/8x,,,1x/8x,,,,,,,,,,
{4}7b,7/8,7,7/8,
{4}2,1/2,2,1/2,
{4}3,3,4,4,
{1}3h[8:3]/6h[8:3],
{4}2b,1/2,2,1/2,
{4}7,7/8,7,7/8,
{4}6,6,5,5,
{4}4,4,3,3,
{4}2x,3x,4x,5x,
{4}6x,7x,1b/8b,,
{4}1/2h[2:1],,1,8,
{4}7h[2:1],,8,1,
{1}2-6[2:1],
{1}7-4[2:1],
{4}3h[2:1],,4,5,
{4}6h[2:1],,5,4,
{4}3,2,1,8,
{4}7,6,5,4,
{4}4/5,4/5,3/6,3/6,
{4}2/7,2/7,1b/8b,,
{4}7h[4:1],8,7/8,,
{4}2h[4:1],1,1/2,,
{4}7h[4:1],8,7/8,,
{4}1/8,1/8,2/7,2/7,
{1},
{1},
{1},
E
&inote_4=
(164){1},
{8}3h[4:1]/6,,4,4,,2h[4:1]/5h[4:1],,,
{8}3/6h[4:1],,5,5,,4h[4:1]/7h[4:1],,,
{8}3h[4:1]/6,,4,4,,2h[4:1]/5h[4:1],,,
{8}3/6h[4:1],,5,5,,4h[4:1]/7h[4:1],,,
{8}6,6,4,4,5,5,4/5,,
{8}3,3,5,5,4,4,4/6,,
{8}5,5,2,2,4,4,3,3,
{8}6,6,4,4,7,7,2/7,,
{2}1-5[4:1],8-4[4:1],
{4}1-5[4:1],,6,6,
{2}7-3[4:1],2-6[4:1],
{16}8x,,,1x/7x,,,2x/6x,,,,,,,,,,
{4}1/8,6>3[4:1],,,
{1}2z6[2:1],
{4}8,8-5[4:1],,,
{1}4qq1[2:1],
{4}8,1v4[4:1]/7v4[4:1],,,
{4}5-8[4:1],4-1[4:1],,,
{4}7,7p3[4:1],,,
{4}4,4-1[4:1]*v5[4:1],,,
{16}6,,6,,5,,,,4x/7x,,,3x/6x,,,2x/5x,,
{16}2,,3,,4,,,,2x/5x,,,3x/6x,,,4x/7x,,
{16}7,,6,,5,,,,4x/7x,,,3x/6x,,,2x/5x,,
{16}2,,3,,4,,,,3x/6x,,,4x/7x,,,5x/8x,,
{16}8,,7,,6,,,,3x/5x,,,4x/6x,,,3x/7x,,
{16}3,,4,,5,,,,4x/6x,,,3x/5x,,,2x/6x,,
{16}6,,5,,4,,,,3x/5x,,,4x/6x,,,3x/7x,,
{16}3,,4,,5,,,,3x/6x,,,2x/7x,,,1x/8x,,
{2}1/8h[1:1],6,
{2}1h[1:1],3,
{2}5h[1:1],7,
{2}4h[1:1],2,
{4}5,5<8[4:1],,,
{4}4,4>1[4:1],,,
{4}5,5<8[4:1],,,
{2}2h[2:1],4h[2:1],
{2}5h[2:1],7h[2:1],
{8}2,1x/8x,1x/8x,1x/8x,1x/8x,,,,
{16}2h[16:3],,,3h[16:3],,,4,,5h[16:3],,,6h[16:3],,,7,,
{4}5/8-4[4:1],,1x,1,
{2}3<6[4:1],7>2[4:1],
{1}3q5[8:5],
{16}7h[16:3],,,6h[16:3],,,5,,4h[16:3],,,3h[16:3],,,2,,
{4}1-5[4:1]/4,,8x,8,
{2}6-3[4:1],2-7[4:1],
{4}6h[4:1],5,4,3h[4:5],
{8}6,6,6,,4,4,4,,
{8}5,5,4,,2b/7b,,,,
{16}7x/8x,,,7x-4[16:3]/8x-3[16:3],,,,,,,,,,,,,
{16}1x/2x,,,1x-6[16:3]/2x-5[16:3],,,,,,,,,,,,,
{16}7x/8x,,,7x<4[16:3]/8xv3[16:3],,,,,,,,,,,,,
{16}1/2,,,3/8,,,4/7,,,5/6,,,,,,,
{16}3/7,,,3-8[16:3]/7-4[16:3],,,,,,,,,,,,,
{16}2/6,,,2-5[16:3]/6-1[16:3],,,,,,,,,,,,,
{16}3/7,,,3-6[16:3]/7-2[16:3],,,,,,,,,,,,,
{16}1h[16:3],,,2h[16:3],,,3h[16:3],,,4h[16:3],,,5x,,5x,,
{16}6h[16:3],,,7h[16:3],,,8x,,,,,,,,,,
{2}E4/E6,E3/E7,
{4}E2/E8,,,3/5,
{2}E3/E6,E2/E7,
{4}E1/E8,,,4/6,
{2}E4/E7,E3/E8,
{4}E1/E2,,,3/5,
{1}C1f/B2/B6,
{16}1x/8x,,,2x/7x,,,3x/6x,,,,,,,,,,
{16}6h[16:3],,,7h[16:3],,,8,,4h[16:3],,,3h[16:3],,,2,,
{8}1/4q8[4:1],,,,3x,,4,4,
{2}6>3[4:1],2<7[4:1],
{1}6p4[8:5],
{16}3h[16:3],,,2h[16:3],,,1,,5h[16:3],,,6h[16:3],,,7,,
{8}5p1[4:1]/8,,,,6x,,5,5,
{2}3-6[4:1],7-2[4:1],
{4}3h[4:1],4,5,6h[4:5],
{8}3,3,3,,5,5,5,,
{8}4,4,5,,2b/7b,,,,
{8}6,6,5,,4/7,,8,,
{8}3,3,4,,2/5,,1,,
{8}8<5[4:1],,,,3,3,4,,
{8}1>4[4:1],,,,6,6,5,,
{2}7<4[4:1],3>8[4:1],
{16}7h[16:3],,,6h[16:3],,,5,,4h[16:3],,,3h[16:3],,,2,,
{1}2qq5[8:5],
{4}6,5/7,3,2/4,
{4}1/8,6/7,4/5,2/3,
{4}1/8,4/5,2b/7b,,
{8}6,6,4/7,4/7,,2h[4:1]/5h[4:1],,,
{8}3,3,2/5,2/5,,4h[4:1]/7h[4:1],,,
{8}6,6,4/7,4/7,,2h[4:1]/5h[4:1],,,
{8}3,3,2/5,2/5,,4/7-3[8:1],,,
{1},
{1},
{1},
E
&inote_5=
(164){1},
{16}6,5,6h[8:1],,1,,3,4,3h[8:1],,8,,,,,,
{16}6,5,6h[8:1],,1,,3,4,3h[8:1],,8,,,,,,
{16}7,8,7h[8:1],,4,,2,1,2h[8:1],,5,,,,,,
{16}7,8,7h[8:1],,4,,2,1,2,,4/8,,,,,,
{16}6,5,6,5,7,,3,4,3,4,2,,,,,,
{16}6,5,6,5,8,,3,4,3,4,1,,,,,,
{16}7,8,7,8,6,,2,1,2,1,3,,,,,,
{16}7,8,7,8,5,,1,8,1,8,2/7,,,,,,
{2}5x-1[8:1]/7x,2x/4x-8[8:1],
{1}5xpp1[2:1]*qq1[2:1]/7x,
{2}3x/4x<7[8:1],5x>2[8:1]/6x,
{16}4b/7b,,,2b/5b,,,B1/C1f/E1/B4/B5/E5/B8,,,,,,,,,,
{16},,3x,,4,,3/5,,2h[16:3],,,3h[16:3],,,4,,
{16},,6,,5,,4/6,,7h[16:3],,,6h[16:3],,,5,,
{16},,3,,4,,3/5,,2h[16:3],,,3h[16:3],,,4,,
{16},,6,,5,,4/6,,7h[16:3],,,8h[16:3],,,1,,
{16},,2,,1,,2>5[4:1]/8,,7,,,6,,,8,,
{16},,7,,8,,1/7<4[4:1],,2,,,3,,,1,,
{16},,2,,1,,2>5[4:1]/8,,7,,,6,,,8,,
{16},,7,,8,,1/7<4[4:1],,2,,,3,,,2,,
{16}3b,,2/4,,6,,5/7,,3h[8:1],,4,3,,,2/5,,
{16}6,,5/7,,3,,2/4,,6h[8:1],,5,6,,,4/7,,
{16}2,,1/3,,7,,6/8,,2h[8:1],,1,2,,,3/8,,
{16}7,,6/8,,2,,1/3,,7h[8:1],,8,7,,,1/5,,
{16}3h[8:1],,4,,3h[8:1],,2,,3h[8:1],,4,3,,,2/5,,
{16}6h[8:1],,4,,6h[8:1],,8,,6h[8:1],,5,6,,,4/7,,
{16}2h[8:1],,1,,2h[8:1],,3,,2h[8:1],,1,2,,,3/8,,
{8}7h[8:1],1,7h[8:1],5,4/8w4[8:1],,8b,,
{8}2xh[8:3]/6x,,4,6h[8:3],,5,4,3>8[4:1],
{8},8<5[4:1],,5>2[4:1],,1,,,
{8}7h[8:3],,8,2h[8:3],,1,8,7<4[4:1],
{8},4>1[4:1],,1<6[4:1],,5,,,
{8}3,4,5,6<1[8:1],,2,2,,
{8}3,4,5,6<2[16:3],,3,3,,
{8}3,4,5,6<3[4:1],,5,4,4h[4:1],
{8},3,4,5,6,7,8,1,
{8}2/5V71[4:1],,1V35[4:1],,5,,1,1h[4:1],
{16},,7,,8,1,8,,3b/6b,,,,,,,,
{16}4/5,,2-5[8:1],1,,1,2,,6,,7-4[8:1],8,,8,7,,
{16}2,,2,1,,7,8,,1v4[8:1]/6<1[8:1],,,,1/6,,,,
{16}3/8,,2,1,,3,4,,2/5,,6,5,,7,8,,
{24}1/6,,,1/6<1[8:1],,,,,,2x/6,3x,4x,5x,,,,,,3b/7b,,,,,,
{16}1/8,,6-1[8:1],5,,5,6,,2,,3-8[8:1],4,,4,3,,
{16}6,,6,5,,3,4,,2>5[8:1]/5<8[8:1],,,,2/5-1[8:1],,,,
{16}5x/7x,,8,,2/7,,3,4,,6,5,,4/6,,3/7,,
{16}8,,1/7,,2/6,,3,4,,6,5,,4/6,,3/7,,
{4}2/8-5[8:1]*<5[8:1],8-3[8:1]*>3[8:1],8,5/6,
{16}8,1,8,1,8,1,8,1,2b/7b,,,,,,,,
{32}8x,7x,6x,,,,7x,6x,5x,,,,6x,5x,4x,,,,,,,,,,2b/6b,,,,,,,,
{32}1x,2x,3x,,,,2x,3x,4x,,,,3x,4x,5x,,,,,,,,,,3b/7b,,,,,,,,
{32}8x,7x,6x,,,,7x,6x,5x,,,,6x,5x,4x,,,,,,,,,,2b/6b,,,,,,,,
{4}1xpp5[8:3]*qq5[8:3]/5x,,,3b/7b,
{32}8b,7x,6x,,,,7b,6x,5x,,,,6b,5x,4x,,,,,,,,,,2b/6b,,,,,,,,
{32}1b,2x,3x,,,,2b,3x,4x,,,,3b,4x,5x,,,,,,,,,,1b/8b,,,,,,,,
{4}3bqq5[8:3]/6bpp4[8:3],,,2/7,
{16}6,5,,3,4,,7,5,,2,4,,4/5,,4/5,,
{16}3,2b/4b,,6,5b/7b,,1/8,2b/7b,,,,,,,,,
{2}3x/4x<8[4:1],5x>1[4:1],
{4}4xw8[4:1],,,2x/6x,
{2}4xh[4:1]/7xh[4:1],2xh[4:1]/5xh[4:1],
{1}3xqq8[2:1]/7xqq4[2:1],
{2}5x/6x<8[8:1],3x>8[8:1],
{4}6x<3[16:5],,,4x/5x,
{4}2xV48[8:3]/7xV51[8:3],,,2/7,
{16}2h[8:1]/4h[8:1],,,5h[8:1]/7h[8:1],,,C1/E1/E5,,,,,,,,,,
{16}2b/7b,,7v4[8:1],8,,8,7,,3,,2v5[8:1],1,,1,2,,
{16}7,,7,8,,2,1,,3>8[8:1]/8q5[8:1],,,,3/8,,,,
{16}1/6,,7,8,,6,5,,4/7,,3,4,,2,1,,
{24}3/8,,,3>8[8:1]/8,,,,,,3/7x,6x,5x,4x,,,,,,2b/6b,,,,,,
{16}1/8,,3v8[8:1],4,,4,3,,7,,6v1[8:1],5,,5,6,,
{16}3,,3,4,,6,5,,4>1[8:1]/7<4[8:1],,,,4-8[8:1]/7,,,,
{16}2x/4x,,1,,2/7,,6,5,,3,4,,3/5,,2/6,,
{16}1,,2/8,,3/7,,6,5,,3,4,,3/5,,2/6,,
{4}1>4[8:1]*v4[8:1]/7,1<6[8:1]*v6[8:1],1,3/4,
{16}1,8,1,8,1,8,1,8,2b/7b,,,,,,2,1,
{16}2,,3/8,,4/7,,6,5,,7,8,,1/6,,2/5,,
{16}3/4,,2/5,,1/6,,7,8,,6,5,,4/7,,3/8,,
{16}1/2h[16:3],,,3h[16:3],,,4,,4-8[8:1],,,,8,,,,
{16}1/7h[16:3],,,6h[16:3],,,5,,5-1[8:1],,,,1,,,,
{16}2V48[4:1],,,8,,,6,,7V51[4:1],,,1,,,3,,
{16}4-8[16:3],,,8>3[8:1],,,7,,5-1[16:3],,,1<6[8:1],,,3,,
{8}2,,3/5,2,4/6,7,3/5,2,
{8}1/8,,5/6,4/7,,3/4,2-5[8:1]/5,,
{4}2/6-1[8:1],3-8[8:1]/6,3/7-4[8:1],1-6[8:1]/7,
{4}1/8w4[8:1],8,2b/6b,,
{16}3,4,3,4,1h[8:1],,6,5,6,5,8h[8:1],,B6/E6,,,,
{16}3,4,3,4,1h[8:1],,6,5,6,5,8h[8:1],,B5/E5,,,,
{16}2,1,2,1,4h[8:1],,7,8,7,8,5h[8:1],,B7/E8,,,,
{16}2,1,2,1,3,8,3,8,4,7,4,7,5-8[8:1],6,5,6,
{1},
{1},
{1},
E
