&title=ラットが死んだnew words
&wholebpm=146
&artist=P.I.N.A.
&des=はっぴー
&shortid=11269
&genre=niconicoボーカロイド
&cabinet=DX
&version=maimai DX Splash PLUS
&chartconverter=Neskol
&lv_2=2
&des_2=
&lv_3=7
&des_3=
&lv_4=9+
&des_4=隅田川星人
&lv_5=12+
&des_5=はっぴー
&des_6=
&inote_2=
(146){1},
{1},
{1},
{1},
{1},
{1},
{1},
{1},
{1},
{1}1,
{1}1,
{1}1,
{1},
{1}8,
{1}8,
{1}8,
{1},
{2}1,1,
{1}1,
{2}2,2,
{1}2,
{2}3,3,
{1}3,
{2}4,4,
{1}4/5,
{2}5,5,
{1}5,
{2}6,6,
{1}6,
{2}7,7,
{1}7,
{2}8,8,
{1}1x/8x,
{1}1-4[4:3],
{1},
{1}8-5[4:3],
{1},
{1}1-5[4:3],
{1},
{1}8,
{1}8,
{2}1,1,
{2}2,2,
{2}3,3,
{2}4/5,4/5,
{2}5,5,
{2}6,6,
{2}7,7,
{1}1x/8x,
{1}7h[1:1]/8h[1:1],
{1},
{1}5h[1:1]/6h[1:1],
{1},
{1}3h[1:1]/4h[1:1],
{1},
{1}1h[1:1]/2h[1:1],
{1},
{1}B1,
{1}B8,
{1}B2,
{1}B7,
{1}B3,
{1}B6,
{1}B4,
{1}B5,
{1}C1xh[1:1],
{1},
{4}8b,8,8,,
{2}7,7,
{4}6,6,6,,
{2}4/5,4/5,
{4}4,4,4,,
{2}3,3,
{4}2,2,2,,
{2}1/8,1/8,
{4}1,1,1,,
{2}2,2,
{4}3,3,3,,
{2}4/5,4/5,
{4}5,5,5,,
{4}6,6,6,,
{4}7,7,7,,
{4}8,8,1/8,,
{1}1-4[4:3]/8-5[4:3],
{1},
{1}C1f,
{1},
{1},
{1},
E
&inote_3=
(146){1},
{1},
{1},
{1},
{1},
{1},
{1},
{1},
{1},
{1}3xh[1:1],
{1}4h[1:1],
{1}5h[1:1],
{1}6,
{1}7h[1:1],
{1}8h[1:1],
{1}1h[1:1],
{1}2,
{4}3,3,4,4,
{4}5,5,4/6,,
{4}7,7,8,8,
{4}1,1,1/8,,
{4}7,7,6,6,
{4}5,5,4/6,,
{4}3,3,2,2,
{4}1,1/8,2/7,,
{4}6h[2:1],,5,5,
{4}4,4,3/5,,
{4}2h[2:1],,1,1,
{4}8,8,1/8,,
{4}7h[2:1],,8,8,
{4}1,1,2/8,,
{4}3h[2:1],,4,4,
{4}5,4/5,3/6,,
{4}E3,B3,B4,,
{4}E7,B6,B5,,
{4}B2,B3,B4,B5,
{4}B6,B7,C1,,
{4}E8,B7,B6,,
{4}E2,B2,B3,,
{4}B7,B8,B1,B2,
{1}C1/B3/B6,
{4}2b,2,1/2,1/2,
{4}7,7,7/8,7/8,
{4}6,6,5,5,
{4}4,4,3/5,,
{4}6,6,5/6,5/6,
{4}3,3,3/4,3/4,
{4}2,2,1,1,
{4}1/8,1/8,2x/7x,,
{1}8-4[8:3],
{1}3-8[8:3],
{1}7-4[8:3],
{4}3,3,3/4,,
{1}2-6[8:3],
{1}7-3[8:3],
{1}1-4[8:3],
{4}5,5,4x/5x,,
{1}6h[1:1],
{1}5h[1:1],
{1}4h[1:1],
{1}3,
{1}2q6[2:1],
{1}7p3[2:1],
{2}2,1,
{4}8,8,7,7,
{2}5h[4:1]/6h[4:1],3h[4:1]/4h[4:1],
{4}4/5,4/5,4/5,4x/5x,
{4}6b,6,5/6,5/6,
{4}3,3,3/4,3/4,
{4}2,2,1,1,
{4}8,8,1/7,,
{4}2,2,1/2,1/2,
{4}7,7,7/8,7/8,
{4}6,6,5,5,
{4}4/5,4/5,3x/6x,,
{4}2b,1/2,2,1/2,
{4}7,7/8,7,7/8,
{4}6,6,5,5,
{4}4,4,3/5,,
{4}6,5/6,6,5/6,
{4}3,3/4,3,3/4,
{4}2,1,8,7,
{4}6,5,4,3,
{1}4>1[2:1]/5<8[2:1],
{1}1>4[2:1]/8<5[2:1],
{1}C1f,
{1},
{1},
{1},
E
&inote_4=
(146){1},
{1},
{1},
{1},
{1},
{1}3>5[4:5],
{1},
{1}6<4[4:5],
{1},
{2}3h[1:1],B3/B4,
{2}6h[1:1],B5/B6,
{2}3h[1:1],B3/B4,
{2}6h[1:1],B5/B6,
{8}2h[1:1],,,4,4,,6,,
{8}7h[1:1],,,5,5,,3,,
{8}2h[1:1],,,4,4,,6,,
{1}7p4[2:1],
{4}3/4,2,1/8,7,
{8}6,6,5/7p3[4:1],,,,,,
{4}2,3/5,7,4/6,
{4}B3,C1,B7,,
{4}5/6,7,1/8,2,
{8}3,3,2q6[4:1]/4,,,,,,
{4}7,4/6,2,3/5,
{4}B6,C1,B2,,
{4}7/8,6,4/5,3,
{8}2,2,1/3v6[4:1],,,,,,
{4}5/7,6,2/4,3,
{4}B3/E4,C1,B6/E6,,
{4}1/2,3,4/5,6,
{8}7,7,6v3[4:1]/8,,,,,,
{4}2/4,3,5/7,6,
{4}4/5,3/6,2/7,,
{2}4/6V84[2:1],3h[4:3],
{4}4,4,2/5,,
{4}B5,B4,B3,B2,
{4}B1,B8,B7,,
{2}3V15[2:1]/5,6h[4:3],
{4}5,5,4/7,,
{8}6,6,5,,4/5,,3p4[2:1]/6q5[2:1],,
{1},
{16}5h[16:3],,,6h[16:3],,,7<4[8:1],,7,,,,,,3,,
{16}3h[16:3],,,2h[16:3],,,1>4[8:1],,1,,,,,,6,,
{16}6h[16:3],,,5,,,4/7,,3h[16:3],,,4,,,2/5,,
{8}1,1,2/8,,7/8,7/8,1/6,,
{16}6h[16:3],,,7h[16:3],,,8<5[8:1],,8,,,,,,4,,
{16}4h[16:3],,,3h[16:3],,,2>5[8:1],,2,,,,,,,,
{8}6,6,5/7,,3,3,2/4,,
{4}3/5,4/6,1b/8b,,
{2}2-4[8:1],7-5[8:1],
{4}4,3x/5x,2/6,,
{2}3-1[8:1],6-8[8:1],
{4}1,2/8,3/7,,
{1}2s6[2:1],
{1}7<2[2:1],
{1}1q4[8:5],
{4}5,3-5[8:1]/6-4[8:1],,,
{1}5h[2:1]/6h[2:3],
{1}3h[2:3],
{1}C1xh[1:1],
{1}1s5[2:1],
{2}B6,B3,
{4}B6,B5,B4,B3,
{2}2xq6[4:1],7xp3[4:1],
{4}2x,3x,4x,5x,
{4}4h[8:1]/6h[8:1],4h[8:1]/6h[8:1],4h[8:1]/6h[8:1],4h[8:1]/6h[8:1],
{8}3,3,5,,3/5,,2b/6b,,
{16}1h[16:3],,,3h[16:3],,,4-1[8:1],,4,,,,,,8,,
{16}8h[16:3],,,6h[16:3],,,5-8[8:1],,5,,,,,,2,,
{16}2h[16:3],,,1,,,3/8,,7h[16:3],,,8,,,1/6,,
{8}5,5,4/6,,1-5[8:1]/8-4[8:1],,,,
{16}2h[16:3],,,4h[16:3],,,5>2[8:1],,5,,,,,,7,,
{16}7h[16:3],,,5h[16:3],,,4<7[8:1],,4,,,,,,,,
{8}2,2,1/3,,7,7,6/8,,
{2}3-8[8:1]/7-4[8:1],2x/6x,
{16}1h[16:3],,,2h[16:3],,,4v1[8:1],,4,,,,,,8,,
{16}8h[16:3],,,7h[16:3],,,5v8[8:1],,5,,,,,,,,
{16}2h[16:3],,,1,,,3/8,,7h[16:3],,,8,,,1/6,,
{8}5,5,4/6,,1-4[8:1]/8-5[8:1],,,,
{16}2h[16:3],,,4h[16:3],,,5-2[8:1],,5,,,,,,7,,
{16}7h[16:3],,,5h[16:3],,,4-7[8:1],,4,,,,,,,,
{8}2,1,2/8,,7,8,1/7,,
{8}6,5,4/6,,3/5,,2/7<2[8:5],,
{1},
{1}C1hf[1:1],
{1},
{1},
{1},
E
&inote_5=
(146){1},
{2}5h[4:3],4<6[8:1],
{2}5h[4:3],4<6[8:1],
{2}5h[4:3],4>2[8:1],
{2}6h[4:3],3<5[8:1],
{2}4h[4:3],5>3[8:1],
{2}4h[4:3],5>3[8:1],
{2}4h[4:3],5<7[8:1],
{2}3h[4:3],6>4[8:1],
{8}2,2,6,6,3-5[8:1],5,3/6,6,
{8}7,7,3,3,6-4[8:1],4,3/6,3,
{8}2,2,6,6,3-5[8:1],5,3/6,6,
{8}7,7,3,3,6,6,4,5,
{8}7,7,3,3,6-4[8:1],4,3/6,3,
{8}2,2,6,6,3,3,5,4,
{8}2,2,6,6,3,4,5/7,6,
{16}4/5,,,3/6,,,3h[4:1]/6h[4:1],,,,,,B4/E4/B5/E6,,,,
{8}2/8,7,6/8,5,6/8,1,2>5[8:1]/8,3,
{8}7>2[8:1],,4<7[8:1],,1,,6,6,
{8}3/5,2,1/3,4,3/5,6,5>2[8:1]/7,4,
{4}8<5[8:1],3>8[8:1],6h[4:1],5,
{8}1/7,2,1/3,4,1/3,8,1/7<4[8:1],6,
{8}2<7[8:1],,5>2[8:1],,8,,3,3,
{8}4/6,7,6/8,5,4/6,3,2/4<7[8:1],5,
{4}1p7[8:3],6,C1,,
{8}2/8,7,6/8,5,6/8,1,2>5[8:1]/8,3,
{8}7>2[8:1],,4<7[8:1],,1,,6,6,
{8}3/5,2,1/3,4,3/5,6,5-2[8:1]/7,4,
{8}8qq8[4:1],,1pp1[4:1],,,,8,8,
{8}1/7,2,1/3,4,1/3,8,1/7<4[8:1],6,
{8}2<7[8:1],,5>2[8:1],,8,,3,3,
{8}4/6,7,6/8,5,4/6,3,2/4-7[8:1],5,
{8}1-4[8:1],,8-5[8:1],,1h[4:1],,8,8,
{8}4/7,3,2-5[8:1]/6<1[8:1],,2x/6x,,4/8,4h[4:1]/8,
{8},6,3>8[8:1]/7-4[8:1],,3x/7x,,8,1,
{8}2/5,6,4/7,8,1,2,3,4/7,
{8}6,2/5,2>5[8:1]/5-8[8:1],,2x/5x,,4,3,
{8}2/5,6,3>8[8:1]/7-4[8:1],,3x/7x,,1/5,1/5h[4:1],
{8},3,2-6[8:1]/6<1[8:1],,2x/6x,,1,8,
{8}4/7,3,2/5,1,8<1[8:3],,C1f,,
{8},,,,4-1[8:1]/5-8[8:1],3/6,,,
{16}2b/7b,,3,4,,2,1-4[8:1]*-6[8:1],,3/7,,,,,,3,,
{16}2/7,,6,5,,7,8-3[8:1]*-5[8:1],,2/6,,,,,,6,,
{16}2/7,,3,4,,2,1,,4/6,,7,7h[8:1],,6h[8:1],,5,
{16}5,,2,4,3,,7,5,6,,3-7[8:1],4,2,,8x,,
{16}8x,,6,5,,7,8<5[8:1]*>3[8:1],,2/6,,,,,,6,,
{16}2/7,,3,4,,2,1<6[8:1]*>4[8:1],,3/7,,,,,,,,
{16}7,5,6,,3,,2/4,,1>4[8:1],,5<8[8:1],,1x,,5x,,
{8}4x,3/7,2/6,1/5,4<7[8:1]/8>3[8:1],,4b/8b,,
{16}2h[16:3],,,3h[16:3],,,4,,4/5,,5/6,,5/6,,4/5,,
{16}3h[16:3],,,2h[16:3],,,1,,1/8,,7/8,,6/7,,5/6,,
{16}4h[16:3],,,3h[16:3],,,2,,8h[16:3],,,7h[16:3],,,6,,
{16}5h[16:3],,,6h[16:3],,,7,,8,,1,,3/5>8[4:1]*v8[4:1],,,,
{8},,,,3,5,4<1[4:1]*v1[4:1]/6,,
{8},,,3,3,4,5,6,
{16}6h[16:3],,,7h[16:3],,,8,,3h[16:3],,,2h[16:3],,,1,,
{16}3h[16:3],,,4h[16:3],,,5,,6>3[8:1],,,,,,,,
{16}1-4[8:1],,4,,1/5,,,,,6,5,,4/7,,,,
{16}8-5[8:1],,5,,4/8,,,,,3,4,,2/5,,,,
{16}1-4[8:1],,4,,1/5,,,,,6,5,,4/6,,,,
{16}8-5[8:1],,5,,4/8,,,,,3,4,,3/5,,,,
{16}2-6[8:1],,6,,2/7,,,,,7,8,,1/6,,,,
{16}5,,3,,2/6,,1,1,,2/8,,3/7,,,6,5,
{16}6,,3,4,3,,6,5,7,,3,4,2-6[8:1],,2,,
{8}1-5[8:1],1,8-4[8:1],8,7-3[8:1],7,1,1b,
{24}E3,B3,E4,,,,E7,B6,E6,,,,B2,B3,E4,,,,B7,B6,E6,,,,
{24}E2,B2,E3,,,,E8,B7,E7,,,,E4,B4,B5,E6,,,C1f,,,,,,
{16}1,,7,8,,6,5>2[8:1]*<8[8:1],,3/7,,,,,,7,,
{16}3/6,,2,1,,3,4>1[8:1]*<7[8:1],,2/6,,,,,,2,,
{16}3/6,,7,8,,6,5,,3/5,,2,2h[8:1],,3h[8:1],,4,
{16}4,,7,5,6,,2,4,3,,6>3[8:1],5,7,,1x,,
{16}1x,,2,1,,3,4>1[8:1]*<7[8:1],,2/6,,,,,,2,,
{16}3/6,,7,8,,6,5>2[8:1]*<8[8:1],,3/7,,,,,,,,
{16}2,4,3,,7,,6/8,,5<8[8:1],,1>4[8:1],,5x,,1x,,
{8}8x,3/7,2/6,1/5,4/8h[4:1],,1b,,
{16}3/7,,2,1,,3,4v1[8:1]*v7[8:1],,2/6,,4,,,,2,,
{16}3/6,,7,8,,6,5-2[8:1]*-8[8:1],,3/7,,5,,,,,,
{16}3/6,,7,8,,5,4,5,3,6,3,6,4,5,4,5,
{16}2,,2,4,3,,7,5,6,,3>8[8:1],4,2,,6,,
{16}6,,7,8,,6,5-8[8:1]*v2[8:1],,3/7,,5,,,,7,,
{16}3/6,,2,1,,3,4>1[8:1]*v7[8:1],,2/6,,4,,,,2,,
{16}7,5,6,,4-1[8:1],,5-8[8:1],,4x,,5x,,1,1,8,,
{8}2/7,3/6,4-7[8:1]/5-2[8:1],3/6,,,1>8[4:5]/8,,
{4}5b,E7,,E5,
{4},E3,C1hf[2:1]/B4/B5,8-4[8:1],
{1}8b,
{1},
{1},
{1},
E
