&title=ヒミツCULT
&wholebpm=190
&artist=t+pazolite
&des=サファ太
&shortid=11291
&genre=ゲームバラエティ
&cabinet=DX
&version=maimai DX Splash PLUS
&chartconverter=Neskol
&lv_2=3
&des_2=
&lv_3=8
&des_3=
&lv_4=11
&des_4=隅田川星人
&lv_5=13+
&des_5=サファ太
&des_6=
&inote_2=
(190){1},
{1},
{1},
{1},
{1},
{1},
{1}1,
{1},
{1}8,
{1},
{1}1,
{1},
{1}2,
{1},
{1}3,
{1},
{1}4/5,
{1},
{1}5,
{1}5,
{1}6,
{1}6,
{1}7,
{1}7,
{1}8,
{1}1x/8x,
{1}8h[1:1],
{1},
{1}1h[1:1],
{1},
{1}8h[1:1],
{1},
{1}1h[1:1]/8h[1:1],
{1},
{1}8,
{1}8,
{1}7,
{1}7,
{1}6,
{1}6,
{1}5,
{1}4/5,
{1}4,
{1}3,
{1}2,
{1}1x/8x,
{2}1,1,
{1}1,
{2}2,2,
{1}2,
{2}3,3,
{1}3,
{2}4,4,
{1}4/5,
{2}5,5,
{1}5,
{2}6,6,
{1}6,
{2}7,7,
{1}7,
{2}8,8,
{1}1/8,
{1}1-4[4:5],
{1},
{1},
{1}8,
{1}8-5[4:5],
{1},
{1},
{1}4/5,
{1}B4,
{1}B5,
{1}B3,
{1}B6,
{1}B2/B3,
{1}B6/B7,
{1}C1xh[1:1],
{1},
{1}1x/8x,
{2}8,8,
{2}7,7,
{1}5/6,
{2}4,4,
{2}3,3,
{2}2,2,
{1}1x/2x,
{2}1,1,
{2}2,2,
{2}3,3,
{2}4,4,
{2}5,5,
{2}6,6,
{2}7,7,
{1}1b/8b,
{1}1h[2:1]/8h[2:1],
{2}1/8,1x/8x,
{4}7,7,7,,
{4}6,6,6,,
{4}5,5,5,,
{4}4,4,4,,
{4}3,3,3,,
{4}2,2,1/2,,
{4}1,1,1,,
{4}2,2,2,,
{4}3,3,3,,
{4}4,4,4/5,,
{4}5,5,5,,
{4}6,6,6,,
{4}7,7,7,,
{2}1/8,1x/8x,
{1}2b/7b,
{1},
{1}B1,
{1}B8,
{1}B2/B3,
{1}B6/B7,
{1}B4/B5,
{1}C1xh[1:1],
{1},
{1},
{1},
E
&inote_3=
(190){1},
{1},
{1}3h[1:1],
{1}4h[1:1],
{1}5h[1:1],
{2}6,5/6,
{2}7h[2:1],8,
{2}2h[2:1],1,
{2}7h[2:1],8,
{4}1/8,1/8,2x/7x,,
{1}6-1[2:1],
{1}2-6[2:1],
{1}7-3[2:1],
{2}2,1/8,
{1}7p3[2:1],
{1}2q6[2:1],
{1}7<4[2:1],
{4}3,2,1x/8x,,
{4}7,7,7/8,,
{4}2,2,1/2,,
{4}7,7,8,8,
{4}1,1,2/8,,
{4}3,3,3/4,,
{4}6,6,5/6,,
{4}3,3,4,4,
{4}5,5,4/6,,
{2}B4,B3,
{2}B2,B1,
{2}B8,B7,
{2}B6,C1,
{4}8x,8x,1,1,
{4}2,2,3,3,
{8}4,4,4,,5,5,5,,
{1}3b/6b,
{4}6xh[2:1],,5,4,
{4}3h[2:1],,4,5,
{4}6h[2:1],,5,4,
{4}3/4,3/4,2/5,,
{4}2xh[2:1],,1,8,
{4}7h[2:1],,8,1,
{4}2h[2:1],,1,8,
{4}1/8,1/8,2/7,,
{4}6,5,4,3,
{4}2,1,8,7,
{8}6,6,6,,4,4,4,,
{1}3x/5x,
{4}7,7,7/8,7/8,
{4}6,5,4/6,,
{4}3,3,3/4,3/4,
{4}2,1,1x/8x,,
{4}2,2,1/2,1/2,
{4}3,4,3/5,,
{4}6,5/6,3,3/4,
{4}5,4/5,3b/6b,,
{4}2,1/2,2,1/2,
{4}3,3/4,2/5,,
{4}6,5/6,6,5/6,
{4}7,1/8,2x/7x,,
{4}7,7/8,7,7/8,
{4}6,5/6,4/7,,
{4}3,3/4,6,5/6,
{4}4,4/5,3b/6b,,
{1}2h[1:1],
{1}1h[1:1],
{1}8h[1:1],
{2}7,1/6,
{1}6h[1:1],
{1}5h[1:1],
{1}4h[1:1],
{4}3,3,4/5,,
{4}6,6,5,5,
{4}4,4,3/5,,
{4}2,2,1,1,
{4}8,8,1/7,,
{4}6,5,4,3,
{4}2,1,8,7,
{8}6,6,6,,3,3,3,,
{1}4>1[2:1]/5<8[2:1],
{4}1/8,1/8,2b/7b,,
{4}E8,B7,B6,,
{4}E2,B2,B3,,
{4}E6,E5,E4,,
{4}B6,B7,E8,,
{4}B3,B2,E2,,
{4}E8,E1,E2,,
{4}B2/B7,B3/B6,E4/E6,,
{4}7xh[2:1],,5x,4x,
{4}3h[2:1],,4,5,
{4}6h[2:1],,5,4,
{4}3,4/5,3x/6x,,
{4}7,8,1,2,
{4}3,4,5,6,
{8}7,7,7,,2,2,2,,
{1}1b-5[2:1]/8b-4[2:1],
{2}3/6,2h[8:3]/7h[8:3],
{4},1x/8x,2b/7b,,
{4}6,5/6,6,5/6,
{4}3,3/4,2/5,,
{4}2,1/2,2,1/2,
{4}3,3/4,2/5,,
{4}6,5/6,3,3/4,
{4}5,4/5,3x/6x,,
{4}7,7/8,2,1/2,
{4}3,3/4,2/5,,
{4}6,5/6,3,3/4,
{4}2,1/2,3/8,,
{4}7,7/8,2,1/2,
{4}3,3/4,2/5,,
{4}6,5/6,3,3/4,
{4}5,4/5,3/6,3/6,
{1}2bV48[4:5]/7bV51[4:5],
{1},
{1}7-5[8:3],
{1}3-5[8:3],
{1}6-4[8:3],
{1}2-4[8:3],
{1}5<4[2:3],
{1},
{1},
{1},
E
&inote_4=
(190){1},
{1},
{1}4h[8:3]/5h[8:3],
{1}3h[8:3]/4,
{1}5/6h[8:3],
{4}4h[8:3]/5h[8:3],,4x/5x,3x/6x,
{2}5h[8:3]/7h[8:3],5/7,
{2}2h[8:3]/4h[8:3],2/4,
{4}5h[8:3]/7h[8:3],,5/7,5/7,
{1}3-1[4:1]/6-8[4:1],
{2}B2/E2,B7/E8,
{4}E6,E5,E4,,
{2}B2/E3,B7/E7,
{4}E2,E1,E8,,
{2}B6/E6,B2/E2,
{4}E5,C1,E1,,
{2}B7/E8,B3/E4,
{4}E1,C1,E5,,
{8}6x,,5/7h[8:3],,,6,6,,
{8}3,,2h[8:3]/4,,,3,3,,
{8}6,,5/7h[8:3],,,6,6,,
{4}5,4/5,3x/6x,,
{8}7/8,,6,6,,4,4,,
{8}3/5,,2,2,,8,8,,
{8}4/7,,3/5,3/5,,4/6,4/6,,
{8}1,8,1,,1/8,,2x/7x,,
{4}5/6<1[4:1],,2,2,
{4}3>8[4:1]/4,,7,7,
{4}5/6<1[4:1],,2,2,
{4}3h[4:1]/4,1h[4:1],8h[4:1],6,
{4}5x/6x,4/7,3x/4x,2/5,
{4}1x/2x,3/8,7x/8x,1/6,
{8}2x,2,8x,8,1x,1,7x,,
{4}2xv5[4:1]/8xv5[4:1],,,3b/7b,
{4}2h[1:2]/6,5,4,5,
{4}6,5,4,5,
{4}7h[4:3],4,5,4,
{4}B6/E7,B2/E3,E1/B8,B4/E5,
{4}2x/6xh[4:11],8,E3,C1,
{4}1,8,E3,C1,
{4}1,8,E3,C1,
{4}E1/B8,B4/E5,B6/E7,B2/E3,
{4}8xh[4:1],7h[4:1],6h[4:1],5h[4:1],
{4}4xh[4:1],3h[4:1],2h[4:1],1h[4:1],
{8}8,8,2,2,7,7,1,1,
{4}8x<4[16:5]*>4[16:5],,,C1,
{8}2x-4[8:1],,8-6[8:1],,5-1[8:1],,8,8,
{8},2/5,2/5,,3,4x,4x,,
{8}2q6[8:1],,8,,7p3[8:1],,1,1,
{8},2/4,2/4,,5/7,,1x/8x,,
{8}7-5[8:1],,1-3[8:1],,4-8[8:1],,1,1,
{8},4/7,4/7,,6,5x,5x,,
{8}7h[4:1]/8,,5,,1/2h[4:1],,4,4,
{8},5/7,5/7,,1/8,,2b/5b,,
{8}7-5[8:1],,3-1[8:1],,8-4[8:1],,3,3,
{8},2/5,2/5,,1,8x,8x,,
{8}2q6[8:1],,1,,7p3[8:1],,8,8,
{8},2/4,2/4,,5/7,,1x/8x,,
{8}2-4[8:1],,6-8[8:1],,1-5[8:1],,6,6,
{8},4/7,4/7,,8,1x,1x,,
{8}3,2/4,,6,5/7h[4:1],,3,3,
{8},2/5,2/5,,B3/E4/B6/E6,,1b/8b,,
{1}2xh[8:3]/7xh[8:3],
{1}5/6h[8:3],
{1}3h[8:3]/4,
{4}4h[8:3]/5h[8:3],,4x/5x,3x/6x,
{2}5h[8:3]/7h[8:3],5/7,
{2}2h[8:3]/4h[8:3],2/4,
{4}5h[8:3]/7h[8:3],,5/7,4/6,
{1}3v8[8:3]/5v8[8:3],
{4}6h[1:1],5,5,5,
{4}3h[1:1],4,4,4,
{4}7h[1:1],5,5,5,
{4}2h[1:1],4,4,4,
{4}8h[8:1],1h[8:1]/7h[8:1],2h[8:1]/6h[8:1],3h[8:1]/5h[8:1],
{4}1h[8:1],2h[8:1]/8h[8:1],3h[8:1]/7h[8:1],4/6,
{8}5,6,7,8,1,2,3,4,
{1}5<4[2:1],
{4}C1,E6,E4,1b/8b,
{4}7x/8x,C1/B7,1x/2x,C1/B2,
{4}7x/8x,C1/B7,1x/2x,3x/8x,
{8}7,7,5,,4/6,,3/7,,
{4}2x/8x,C1/B2/B8,1x/7x,B1/C1/B7,
{4}2x/8x,C1/B2/B8,1x/7x,B1/C1/B7,
{4}2x/8x,C1/B2/B8,1x/7x,2x/6x,
{8}3,3,5,,4/6,,1b/8b,,
{4}3>8[4:1]/4,,7,7,
{4}5/6<1[4:1],,2,2,
{4}3>8[4:1]/4,,7,7,
{4}5/6h[4:1],8h[4:1],1h[4:1],3,
{4}3x/4x,2/5,5x/6x,4/7,
{4}7x/8x,1/6,1x/2x,3/8,
{16}7x,,7,,2x,,2,,8x,1x,8x,1x,8x,1x,8x,1x,
{1}8xz4[8:3],
{8}2/5,,,,4/7,,,1x/8x,
{8},3x/6x,3x/6x,,1x/8x,,C1f,,
{8}2x>5[8:1],,6,,7p3[8:1],,1,1,
{8},2/4,2/4,,5/7,,1x/8x,,
{8}2-4[8:1],,7-3[8:1],,5-1[8:1],,8,8,
{8},2/5,2/5,,3,4x,4x,,
{8}1/2,,3/5,,7/8,,4/6,4/6,
{8},2/5,2/5,,1/8,,3b/6b,,
{8}7-5[8:1],,2-6[8:1],,4-8[8:1],,1,1,
{8},4/7,4/7,,2/5,,1/8,,
{8}7<4[8:1],,3,,2q6[8:1],,8,8,
{8},5/7,5/7,,2/4,,1x/8x,,
{8}2-4[8:1],,7-3[8:1],,5-1[8:1],,8,8,
{8},2/5,2/5,,4/8,,2/6,2/6,
{8},1x/3x,,7,6/8,,4/5,4/5,
{8},1/8,1/8,,6/7,,2/3,,
{1}1b>8[4:5]/8b<1[4:5],
{1},
{4}3h[1:1],4,5,6,
{4}7h[1:1],6,5,4,
{4}3h[1:1],4,5,6,
{4}7h[1:1],6,5,4,
{4}3,4,5,6,
{4}7,8,1,2,
{1}3qq6[1:1]/7,
{1},
{1},
{1},
E
&inote_5=
(190){1},
{1},
{1}4h[2:3]/5-8[4:5],
{1},
{1}4-1[4:5]/5h[2:3],
{1},
{4}6h[1:1],,4,5,
{2}5,4/7,
{4}3h[1:1],,5,4,
{2}4,1b/7b,
{8}6h[4:3],,,4h[8:5],,,,,
{8}5h[4:3],,,3h[8:5],,,,,
{8}4h[4:3],,,2h[8:5],,,,,
{4}3,4,3/5,,
{8}6h[4:3],,,4h[8:5],,,,,
{8}5h[4:3],,,3h[8:5],,,,,
{8}4h[4:3],,,2h[8:5],,,,,
{4}3,4,4/5,,
{8}4/5,,6h[8:3],,,5,5/6,,
{8}4/6,,3h[8:3],,,4,3/4,,
{8}5,,4/6h[8:3],,,5,5/6,,
{8}4,,3h[8:3]/5,,,4,3/4,,
{8}5,,4h[4:1]/6h[4:1],,,4/6,4/6,,
{8}3,,2h[4:1]/5h[4:1],,,2/5,2/5,,
{8}6,,4h[4:1]/7h[4:1],,,4/7,4/7,,
{8}6,4,5,,5,,4/6,,
{8}3/7p3[4:1],,,,2,2,2/4,,
{8}3<6[4:1]/6,,,,7,7,5/7,,
{8}4/7<4[4:1],,,,2,2,1/2,,
{8}7,7,7/8,,1/6,,2/5,,
{4}3-5[4:1],2,1-3[4:1],8,
{4}7-1[4:1],6,5-7[4:1],4,
{8}3,3,8,8,1/7,2/6,3/5,,
{4}B2/B3/B4/E4,B5/B6/E6/B7,1/8,2b/7b,
{8}6h[2:1],,B7/E8,,4,3,6,5,
{8}2h[2:1],,B2/E2,,5,6,3,4,
{8}7h[2:1],,B7/B8,,4,3,6,5,
{16}E2,B2,B3,E4,E7,B7,B8,E1,E3,B3,B4,E5,1x,,,,
{8}2h[2:1],,B1/E2,,4,5,3x,4,
{8}7h[2:1],,B7/B8,,4,3,6x,5,
{16}2h[4:1],,,,B1/B2,,,,5,4,5,,6,,6,,
{16}3,4,3,,2,,2,,8,1,8,,2b/7b,,,,
{4}3/6,4/5,3/4,4/6,
{4}2/4,4/7,1/4,4/8,
{16}4,8,4,8,3,7,3,7,2,6,2,6,1,5,1,5,
{4}8b,,,1-5[8:1]/8-4[8:1],
{8}1b/8b,,2x/7x,,4/6,3,2-5[8:1]/8,1,
{8}2/7-1[8:1],6,4/7,3,2x/5x,,3/6>3[8:1],7,
{8}3/6,,2-6[8:1],1,2>5[8:1],8,2,7,
{8}7-3[8:1],4-1[8:1],7,4,8b,,1/7,2/6,
{8}3-5[8:1]/5-7[8:1],,3/5>1[4:1],,8x,7,6,5,
{8}1-4[8:1],6<1[8:1],1,6,3b,,1/2,3,
{8}4/8-2[8:1],,3-5[8:1],3,7-3[8:1],7,3,2,
{8}1/5,6,4/7,3,2b/5b,,3>8[8:1]/7<4[8:1],,
{8}3b/7b,,2x/6x,,4/5,6,3/7-4[8:1],8,
{8}2-8[8:1]/7,3,2/5,6,4x/7x,,3<6[8:1]/6,2,
{8}3/6,,7-3[8:1],8,7<4[8:1],1,7,2,
{8}2-6[8:1],5-8[8:1],2,5,1b,,2/8,3/7,
{8}4-2[8:1]/6-4[8:1],,4<8[4:1]/6,,1x,2,3,4,
{8}8-5[8:1],3>8[8:1],8,3,C1f,,1/8,2b/7b,
{8},4,3/5,6,5/7,8,4,3,
{8}2-5[8:1]/6-1[8:1],1/5,2/6,,3b/7b,,,,
{1}5-8[4:3],
{1}4-1[4:3],
{1}5-8[4:3],
{1}4-1[4:3],
{1}5<8[4:3],
{1}4>1[4:3],
{1}5<8[4:3],
{2}C1xh[2:1],8x,
{16}3h[16:3],,,4,3,,4,,2h[16:3],,,4,2,,4,,
{16}1h[16:3],,,4,1,,4,,2,,2,,4,,3,,
{16}6h[16:3],,,5,6,,5,,7h[16:3],,,5,7,,5,,
{16}8h[16:3],,,5,8,,5,,7,,7,,5,,6,,
{8}4,4,3/5,3,2,2,1/4,1,
{8}8,8,3/7,7,6,6,2/5,5,
{16}4,6,4,6,3,5,3,5,2,6,2,6,1,7,1,7,
{4}8x,,,4/5,
{16}3,6,3,6,4,5,4,5,3,6,2,7,1b,,,,
{8}2-4[8:1],,B4/E5,,6,7,3,3,
{8}7-5[8:1],,B5/E5,,3,2,1/7,7,
{16}2,6,2,6,3,5,3,5,4,4,4,4,4b,,,,
{8}2-4[8:1],,B4/E5,,5,6,1,1,
{8}7-5[8:1],,B5/E5,,4,3,8,8,
{16}3-5[8:1],,,,5,,,,7,4,6,5,7,,7,,
{16}2,5,3,4,1,,1,,7,4,6,5,8b,,,,
{4}1/2x-4[8:1],C1,1/2-4[8:1],5,
{4}7-5[8:1]/8,C1,7-5[8:1]/8,4,
{4}3-1[8:1]/4,C1,3-1[8:1]/4,8,
{16}7,3,7,3,8,2,8,2,1,1,1,1,1b,,,,
{4}2-4[8:1]/5,B1,B5/8-6[8:1],C1,
{4}1-3[8:1]/4,B8,B4/7-5[8:1],C1,
{32}1,,2,,3,,4,,5,,6,,7,,8,,1,2,3,4,5,6,7,8,1,2,3,4,5,6,7,8,
{4}1x/5xp4[8:3],,,1-5[8:1],
{8}1b/5b,,8-4[8:1],,4b/8b,,2x/6x,2x/6x,
{8},4/5,3/6,2/7,1x/8xw4[8:1],,8b,,
{8}2x-6[8:1],,2/6>3[8:1],7,8,8,1,7-5[8:1],
{8}3>8[8:1],7-3[8:1],3,7,1b,,2/8,3/7,
{8}4-2[8:1]/6-4[8:1],,4V68[4:1]/6,,1x,2,3,4,
{8}8p4[8:1],3>8[8:1],8,3,6b,,7/8,6,
{8}1-7[8:1]/5,,6-4[8:1],6,2-6[8:1],2,6,7,
{8}4/8,3,2/5,6,4b/7b,,3/5,2/6,
{8}1-5[8:1]/7-3[8:1],,1b/7b,,4x,3/5,2-5[8:1]/6,1,
{8}2/7-1[8:1],6,4/7,3,2x/5x,,3/6>3[8:1],7,
{8}3/6,,2-6[8:1],1,2>5[8:1],8,2,7,
{8}7-3[8:1],4>1[8:1],7,4,8b,,1/7,2/6,
{8}3-5[8:1]/5-1[8:1],,3/5,,4/8,4/8,3/7,3/7,
{8}2b/6b,1x,3bv8[8:1]/7b<4[8:1],8x,3b/7b,,1x/5x,3x/7x,
{8},1/2,3/8,4/7,3/4,2/5,1/6,7/8,
{8}1-5[8:1],6,1,7,6-2[8:1]/8-4[8:1],,6b/8b<1[2:3],,
{1}8b,
{1},
{8}6h[4:1],5,4,3h[4:1],5,4,2,2/5,
{8}3h[4:1],4,5,6h[4:1],4,5,5/6,,
{8}3h[4:1],4,4,5h[4:1],4,4,3/5,,
{8}6h[4:1],5,5,4h[4:1],5,5,4/6,,
{8}3,3,4,4,5,5,6,5/6h[2:1],
{8},5,,4,,3/6-4[8:1],,,
{1},
{1},
{1},
E
