&title=ハジマリノピアノ
&wholebpm=190
&artist=ゆゆうた
&des=はっぴー
&shortid=11243
&genre=オンゲキCHUNITHM
&cabinet=DX
&version=maimai DX Splash PLUS
&chartconverter=Neskol
&lv_2=5
&des_2=
&lv_3=7+
&des_3=
&lv_4=10+
&des_4=ぴちネコ
&lv_5=13+
&des_5=はっぴー
&des_6=
&inote_2=
(190){1},
{1},
{1},
{1},
{1},
{1},
{4},1,,,
{4},1,,,
{4},8,,,
{4},8,,,
{4},1x,,,
{4},1/2,,,
{4},8,,,
{4},7/8,,,
{1}1x-4[4:3],
{1},
{1}8x-5[4:3],
{1},
{4},1x,,1,
{4},2,,2,
{4},3,,3,
{4},4/5,,4/5,
{4},6,,6,
{4},7,,7,
{4},8,,8,
{4},1/8,1/8,,
{1}1h[1:1]/8h[1:1],
{1},
{2}8,8,
{1}8,
{2}7,7,
{1}7,
{2}6,6,
{1}6,
{2}5,5,
{1}4/5,
{2}4,4,
{1}4,
{2}3,3,
{1}3,
{2}2,2,
{1}2,
{2}1,1,
{1}1x/8x,
{1}B1,
{1}B8,
{1}B2,
{1}B7,
{1}B3,
{1}B6,
{1}B4,
{1}B5,
{1}B3/E4,
{1}B6/E6,
{1}B2/B3,
{1}B7/E8,
{1}C1xh[1:1],
{1},
{2}1x,1x,
{2}8x,8x,
{1}1b/8b,
{4}1,1,1,,
{2}2,2,
{4}3,3,3,,
{2}4,4/5,
{4}5,5,5,,
{2}6,6,
{4}7,7,7,,
{2}1/8,1x/8x,
{4}8,8,8,,
{4}7,7,7,,
{4}6,6,6,,
{2}4/5,4/5,
{4}3,3,3,,
{4}2,2,2,,
{4}1,1,1,,
{4}8,8,1b/8b,,
{1}8-5[4:3],
{1},
{1}1-4[4:3],
{1},
{1}8-4[4:3],
{1},
{1}1-5[4:3],
{1},
{1}8h[1:1],
{8},,,,,,,7xh[1:1]/8xh[1:1],
{1},
{8},,,,,,,5xh[1:1]/6xh[1:1],
{1},
{8},,,,,,,3xh[1:1]/4xh[1:1],
{1},
{8},,,,,,,1xh[1:1]/2xh[1:1],
{1},
{4},2x,,3,
{4},4,,5,
{4},6,,7,
{4},1/8,1/8,,
{1}8-4[4:3],
{1},
{1}2x-6[4:3],
{1},
{4},8x,,8,
{4},7,7,7,
{4},6,,6,
{4},5,5,4/5,
{4},3,3,3,
{4},2,2,2,
{4},1,1,1,
{4},8,8,1x/8x,
{4},2,2,1/2,
{4},7,7,7/8,
{4},1,1,1/8,
{1}2xh[1:1]/7xh[1:1],
{1},
{1}C1f,
{1},
{1},
{1},
E
&inote_3=
(190){1},
{1},
{1}3xh[1:1],
{1}4h[1:1],
{1}5h[1:1],
{1}6,
{1}7h[1:1],
{1}8h[1:1],
{1}1h[1:1],
{2}2,3/4,
{2}6h[2:1],5,
{2}3h[2:1],4,
{2}6h[2:1],5,
{2}3h[4:1]/4h[4:1],3/4,
{1}2>7[4:5],
{1},
{1}8<3[4:5],
{1},
{4}2,2,1,,
{4}7,7,8,,
{4}2,2,1,,
{4}8,8,1/7,,
{2}B7/B8,B1/B2,
{2}B3/B4,B5/B6,
{4}7x,7,8,8,
{4}1,1,2,2,
{1}3q5[4:5],
{1},
{4}6h[2:1],5,5,,
{4}3h[2:1],4,4,,
{4}6h[2:1],5,5,,
{1}3<6[8:3],
{4}7h[2:1],8,8,,
{4}2h[2:1],1,1,,
{4}7h[2:1],8,8,,
{1}1-5[8:3]/8,
{4}6,6,5/6,,
{4}3,3,3/4,,
{4}6,6,5,5,
{4}4,4,3/5,,
{4}2,2,1/2,,
{4}7,7,7/8,,
{4}2,2,1,1,
{4}1/8,1/8,2b/7b,,
{1}6-1[8:3],
{4}2,2,1/2,,
{1}3-8[8:3],
{4}7,7,7/8,,
{1}7-4[8:3],
{4}3,3,3/4,,
{1}2-5[8:3],
{4}6,4/5,3x/6x,,
{2}B7,B8,
{2}B1,B2,
{2}B3,B4,
{2}B5,C1,
{1}E7,
{1}E3,
{4}5,5,4,4,
{4}4/5,4/5,3/6,,
{4}2/7,2/7,1b/8b,,
{4}7,7,7/8,7/8,
{4}2,2,1/2,1/2,
{4}3,3,4,4,
{4}5,5,4/6,,
{4}7/8,7/8,7/8,,
{4}1/2,1/2,1/2,,
{4}8,8,1,1,
{4}8,1,2x/7x,,
{4}3,3,3/4,3/4,
{4}6,6,5/6,5/6,
{4}7,7,8,8,
{4}1,1,2x/8x,,
{4}3/4,3/4,2/5,,
{4}5/6,5/6,4/7,,
{4}8,8,1,1,
{4}1/8,1/8,2x/7x,,
{1}1pp4[4:5]/8qq5[4:5],
{1},
{1}6h[2:1],
{1}4h[2:1]/5h[2:1],
{1}B1/B2,
{1}B3/B4,
{1}B5/B6,
{1}B7/B8,
{1}C1f,
{1}2x-6[8:3],
{1}7x-3[8:3],
{1}2x>5[8:3],
{2}6,5/6,
{1}7p3[8:3],
{1}2q6[8:3],
{2}7x,7x/8x,
{4}1/8,1/8,1/8,,
{4}7,7,7/8,1/6,
{4}2,2,1/2,3/8,
{4}4,4,5,5,
{4}4/5,4/5,3/6,,
{1}1/2pp5[4:5],
{1},
{1}6pp1[4:5],
{1},
{4}2,1/2,3/8,,
{4}7/8,7/8,1/6,,
{4}1,1,8,8,
{4}1/8,1/8,2/7,,
{1}6<1[8:3],
{1}2-5[8:3],
{1}6-3[8:3],
{1}2-6[8:3],
{1}7<2[4:5],
{1},
{4}1/8,2/7,3/6,4/5,
{1}4qq1[4:5]/5pp8[4:5],
{1},
{1}C1f,
{1},
{1},
{1},
E
&inote_4=
(190){1},
{1},
{8}5h[2:1],,,,4,,3,3h[8:5],
{8},,,,6,,5,5h[8:5],
{8},,,,3,,4,4h[8:5],
{8},,,,5,,6,6h[8:3],
{8},,5,,4,,3,3h[8:3],
{8},,4,,5,,6,6h[8:3],
{8},,5,5,,6,,5/7,
{8},4/6,,3/5,,2/4,,1b/5b,
{4},6x,6,5/6,
{8}3,,3/4,,6,,7,7h[4:1],
{8},5,,2h[4:1],,4,,7xh[8:7],
{4},B5,C1,B1,
{8}2x/8x,2>4[8:1]/8<6[8:1],,,,,1x/7x,1>3[8:1]/7<5[8:1],
{4},,8,8,
{8}1x/7x,1>3[8:1]/7<5[8:1],,,,,2x/8x,2>4[8:1]/8<6[8:1],
{4},,1,1,
{8}3b/6b,,,,1,,2,2-6[8:1],
{8},,,,8,,7,7-3[8:1],
{8},,,,1,,2/7,2<5[8:3]/7h[8:5],
{8},,,,,,2x/6x,2b/6b,
{8},7,7,5x,,5x/7x,,2x/4x,
{8},6x/8x,,1x/3x,,5,,6h[4:1],
{8},8x,8x,,3h[4:1],,1x,,
{4}5h[4:1],8x,4h[4:1],1x,
{1}C1xh[2:1],
{4}2/8,1/7,4/6,3/5,
{8}2x/6x,,,,6,,7,7h[4:1],
{8},5,,2h[4:1],,4,,7h[4:1],
{8},6h[4:1],,5h[4:1],,4h[4:1],,3q6[16:9],
{1},
{8}4x/8x,,,,3,,2,2h[4:1],
{8},4,,7h[4:1],,5,,2h[4:1],
{8},3h[4:1],,4h[4:1],,5h[4:1],,6p3[16:9],
{1},
{8}1x/5x,,3/6,,8,8,,1>4[4:1],
{8},,,8<5[4:1],,,,2>5[4:1],
{8},,,1<6[4:1],,,,3xh[8:3],
{4},B7,B2,B4/B5/E5,
{8}1x/8x,,3/6,,1,1,,8<5[4:1],
{8},,,1>4[4:1],,,,7<4[4:1],
{8},,,8>3[4:1],,,,6xh[8:3],
{4},B2,B7,B4/B5/E5,
{16}2x/8x,,,2x/8x,,,2x/8x,,1,,1pp6[8:5],,,,,,
{4},,,6b,
{16}5x/7x,,,5x/7x,,,5x/7x,,6,,6qq2[8:5],,,,,,
{4},,,2b,
{16}1x/3x,,,1x/3x,,,1x/3x,,2,,2pp8[8:5],,,,,,
{4},,,8b,
{16}1x/7x,,,1x/7x,,,1x/7x,,8,,8,,,,2x/6x,,
{8},4x/7x,,2x/5x,,1b/8b,,,
{8}5/6h[2:1],,4,,2,1,8,,
{8}1/2h[2:1],,8,,6,5,4,,
{8}3h[2:1]/4,,5,,7,8,1,,
{8}7h[2:1]/8,,1,,3,4,5,,
{4}E4/E6,E7,E8,E1,
{4}E2,E3,E5,1b/8b,
{4}3/4,1b/8b,5/6,1b/8b,
{4}3h[4:1]/4,1h[4:1],8h[4:1],6h[4:1],
{2}B4/B5,C1f/E3/E7,
{4}2-4[8:1],8,1-5[8:1],4,
{4}3h[4:1],1h[4:1],8h[4:1],6,
{4}7-5[8:1],1,8-4[8:1],5,
{8}6,,3/7,,1x,1x,8x,,
{4}1>4[4:1],7,8<5[4:1],2,
{4}1>4[4:1],7,8h[4:1],3,
{2}1x-6[8:1]/2x,3x-8[8:1],
{4}5x-1[8:1],,2b,4b/7b,
{4}6-4[8:1],8,7-3[8:1],5,
{4}6h[4:1],8h[4:1],1,1x/2x,
{4}3-5[8:1],1,2-6[8:1],4,
{4}3h[4:1],1h[4:1],8,7x/8x,
{2}7x/8x-3[8:1],6x-1[8:1],
{4}4x-8[8:1],,7b,2b/5b,
{12}4x,,4x,5x,,5x,2x,,2x,7x,,7x,
{12}1xh[4:1],,,8x,1x,8x,1x,,,2x/7x,,,
{1}3b>6[4:3]/6b<3[4:3],
{8},,,,,,,E2/B8,
{8},,,B4/E6,,,,C1/B2/B7,
{4},B1,C1,B5,
{8}4h[8:5]/6<2[8:3],,,,,,,3>7[8:3]/5h[8:5],
{1},
{8}3/6,,2,2h[4:1],,7h[4:1],,4h[4:1],
{8},5,,5h[4:3],,4,,4h[4:1],
{4},4>1[4:1]/5<8[4:1],,,
{8}1x/8x,,,,E4/E6,,,1x/2x,
{8},,,,B3/B4/E4,,,7x/8x,
{8},,,,B5/B6/E6,,,1x/2x,
{8},,,,B2/B3/B4/B5,,,6b/8b,
{8},,,,B4/B5/B6/B7,,,1b/3b,
{8},,,,B4/E4/B5/E6,,,C1f,
{8},,,B3/E3/B6/E7,,,,2x/8x,
{8},1x/7x,,8x<4[4:1],,,,1b,
{8},3,3/4,,2,2,1,8x,
{8},4/6,4/6,,7,7,8,1x,
{8},7,8,6x,,2,1,3xh[8:7],
{4},B4,C1,B8,
{8}1x/7x,1>3[8:1]/7<5[8:1],,,,,6x/8x,6>4[8:1]/8>2[8:1],
{4},,7b/8b,1b/2b,
{8}2x/8x,2>4[8:1]/8<6[8:1],,,,,1x/3x,1<7[8:1]/3<5[8:1],
{4},,1b/2b,7b/8b,
{8}4x/5x,,,,6h[4:1],,8,8-4[8:1],
{8},,,,3h[4:1],,1,1-5[8:1],
{8},,,,6,,2/7,2h[8:5]/7>4[8:3],
{8},,,,,,3x/7x,3b/7b,
{8},2,2,4x,,2x/4x,,5x/7x,
{8},1x/3x,,6x/8x,,4,,3h[4:1],
{8},1x,1x,,5/6h[4:1],,8x,,
{4}4h[4:1]/5,2x,4/5h[4:1],7x,
{1}C1xh[2:1],
{4}7/8,1/2,3/4,5/6,
{16}3x/6x,,3/6,,3x/6x,,3/6,,4x,5,4,5,4x,,,,
{1}4x<3[4:3]/5xh[1:1],
{2},C1,
{1}B2/B3/B4/E4/B5/B6/E6/B7,
{1},
{1},
{1},
E
&inote_5=
(190){1},
{8},,,,,,,1,
{8}1-5[8:7],,,,,,6,6-2[8:7],
{8},,,,,,1,1-5[8:7],
{8},,,,,,8,8-4[8:7],
{8},,,,,,3,3<6[8:7],
{8},,,,,,8,8h[8:3],
{8},,,,6,5,4,3h[4:1],
{8},,4,,3,4,5,6,
{8},8,,5,,6,,3,
{8},5,5,,4/6,,3/5,,
{4}5/6,2/4,3/7,3/4,
{4}5/7,2/5,3/7,3/4,
{4}5/6,3/5,4/6,3,
{16}1/5,,2,3,4,,1/5,,2,3,4,,1/5,,2,3,
{16}4,,1/5,,2,3,4,,1/5,,2,,4,,6,,
{16}4/8,,7,6,5,,4/8,,7,6,5,,4/8,,7,6,
{16}5,,4/8,,7,6,5,,4/8,,7,,3b/5b,,,,
{8}2-6[8:1],,8h[4:1],,6,5,4,3-8[8:1],
{8},4,5h[4:1],,8,1,2,3/6-1[8:1],
{8},5,5h[4:1],,1,8,7,4-8[8:1]/6,
{8},5,5,,1,1-5[8:1],,6,
{8},6,5,4/7-2[8:1],,4,,3-7[8:1]/8,
{8},4,,4/6-3[8:1],,1,8,7,
{8},5,5<1[4:1],,1>5[4:1],,5<1[4:1],,
{4}1>5[4:1],5,1,3/7,
{16}2/6,,,,,,,,3,,,4,,,5,,
{16}4,,4,,5,,5,,E4,E6,E3,E7,C1f,,,,
{8}8,,8,,6,5,4/6,3,
{8}6,3,4/6,5,6,5,4/6,3,
{8}6,3,4/6,5,6,4,3/6,2,
{8}6,2,3/6,4,5/6,4,3/6,,
{8}3/6,,3/6,4,5/6,4,3/6,2,
{8}6,2,3/6,4,6,4,3/6,5,
{8}6,3,4/6,5,6,3,6,5,
{8}6,4,4/6,,4/5,,3/6,,
{8}2-7[8:1],,4,,3,4,5,6h[4:1],
{8},8,1,2-6[8:1],,6,7,8-4[8:1],
{8},4,3,2-6[8:1],,6,7,8h[4:1],
{8},4,3/7,6,1/5,2,3/6,,
{8}7-2[8:1],,5,,6,5,4,3h[4:1],
{8},1,8,7-3[8:1],,3,2,1-5[8:1],
{8},5,6,7-3[8:1],,3,2,1h[4:1],
{8},5,2/6,3,4/8,7,3b/6b,,
{16}1/8,,,2/4,,,5-1[8:1]/7,,4,,3,,2,,8h[4:1],,
{8},5,4/7,6,3/5,2,1/4,,
{16}1/8,,,5/7,,,2/4-8[8:1],,5,,6,,7,,1h[4:1],,
{8},4,2/5,3,4/6,7,5/8,,
{16}1/8,,,2/4,,,5-1[8:1]/7,,3,,4,,2,,8h[4:1],,
{8},5,4/7,6,3/5,2,1/4,,
{16}1/8,,,5/7,,,2/4-8[8:1],,6,,5,,7,,1h[4:1],,
{8},4-8[8:1],,2-6[8:1],,5,5,,
{16}6,,6,5,7,,2,,4,5,3,,7,,2,4,
{16}1,,5,4,6,,1,,4,5,3,,6,,6,4,
{16}8,,3,4,2,,6,,7,5,6,,3,,3,5,
{16}1,,6,5,7,,2,,5,4,6,,7,,3,4,
{1}2bV46[4:3],
{4}2-6[4:1],,7x,1b/8b,
{16}6-1[8:1]/7,,,4,6,,,,2/3-8[8:1],,,5,3,,,,
{16}6/7,,,,4/5,,,,2/3-8[8:1],,,5,3,,,,
{16}6-1[8:1]/7,,,4,6,,,,2/3,,4,,5/6,,7,,
{4}1-5[8:1]/8,1/6>3[8:1],6/8-3[8:1],1-5[8:1]/8,
{4}1/4-7[8:1],4/5>2[8:1],5/8-4[8:1],3-7[8:1]/8,
{4}3/5-2[8:1],1<6[8:1]/5,1/4-1[8:1],4/8-5[8:1],
{8}3<6[8:1]/8,,3,,8,8,1,2,
{4}3/4-1[8:1],4/5-8[8:1],5/6,7,
{8}5-8[8:1]/6,,4-1[8:1]/5,,3/4,,2,4,
{4}5<8[8:1],8,5>2[8:1],2,
{4}5<8[8:1],8,5,4b/6b,
{16}3/4,,5,,3/4,,2,,3/4,,5,,5/6,,7,5,
{16}6,,4,,5/6,,7,,5/6,,4,,3/4,,2,4,
{16}3,,5,,3/4,,2,,3/4,,5,,5/6,,7,5,
{16}6,,4,,5/6,,7,,5/6,,4,,3/4,,2,4,
{16}3,,1,,3/7,,6,5,4,,8,,2/6,,3,4,
{16}5,,1,,3/7,,6,5,4,,8,,2/6,,3,4,
{12}5,,1,1-5[8:1],,5,5,,8,8-4[8:1],,4,
{12}4,,3,3-8[8:1],,8,8,,6,6-1[8:1],,1,
{1}1,
{8},,,,,,,6h[1:1],
{8},,,,,,,5h[8:3],
{4},4xh[4:1],3xh[4:1],5,
{8}2/6,,,,4,3>7[8:3],,5,
{4},,5,3>7[8:3],
{8}6,,,,,,,1b,
{4},5,5,5,
{8}4,4,6,6,3,3,5,,
{16}2,3,4,5,2,3,4,5,2,3,4,5,1,,1,,
{16},,7,6,5,4,7,6,5,4,7,6,5,4,8,,
{16},,3,4,5,6,3,4,5,6,3,4,5,6,2,,
{16},,6,5,4,3,6,5,4,3,6,5,4,3,7,,
{16},,1,2,3,4,1,2,3,4,1,2,3,4,8,,
{16},,8,7,6,5,8,7,6,5,8,7,6,5,1,,
{16},,1-5[8:1],2,3,4,5,,,,8-4[8:1],7,6,5,4,,
{8},1-4[8:1],,1/5-8[8:1],,3<6[8:1]/5,,3/7b,
{8},8,8,,6,4>1[8:1],5,7,
{8},6,6-3[8:1],,3,5<8[8:1],4,2,
{8},3-7[8:1],5,4,,6-2[8:1],4,5,
{8},3,3,,1/2,,5/6,,
{16}3/7,,6,5,4,,3/7,,2,1,8,,3/7,,6,5,
{16}4,,3/7,,2,1,8,,3/7,,3/7,,4/6,,3/5,,
{16}2/6,,3,4,5,,2/6,,7,8,1,,2/6,,3,4,
{16}5,,2/6,,7,8,1,,2/6,,2/6,,3/5,,4/6,,
{16}7,,7,,5,,E5,E4,E3,,6>3[8:1],,7,,8,,
{16},,2,,4,,E5,E6,E7,,3<6[8:1],,2,,1,,
{16},,7,,5,,E5,E4,E3,,6>3[8:1],,7,,8,,
{16},,2,,4,,E5,E6,E7,,3<6[8:1],,2,,1,,
{8},7,5,4-1[8:1]/6,,4/7>2[8:1],,3-7[8:1]/7,
{8},3/8-4[8:1],,2-7[8:1]/8,,2/6,5,4,
{16},,3,,1/5,,2,3,4,,1/5,,3/7,,6,5,
{16}4,,3/7,,2/6,,3,4,5,,2/6,,4/8,,7,6,
{16}5<8[8:1],,,,,,,,1/2,,,3/4,,,5/6,,
{8}5/6,7,4/6,3,2/4,5,5/6,7,
{16}1,8,1,8,1,7,1,6,1-5[8:1],5,1,4,1>8[2:3],,,,
{1}C1f,
{4},,5,4-1[8:1],
{1}4b,
{1},
{1},
{1},
E
