&title=トランスダンスアナーキー
&wholebpm=195
&artist=暁Records
&des=はっぴー
&shortid=11280
&genre=東方Project
&cabinet=DX
&version=maimai DX Splash PLUS
&chartconverter=Neskol
&lv_2=4
&des_2=
&lv_3=7+
&des_3=
&lv_4=10+
&des_4=サファ太
&lv_5=13
&des_5=はっぴー
&des_6=
&inote_2=
(195){1},
{1},
{1},
{1},
{1},
{1}8,
{1}8,
{1}1,
{1}1,
{2}8,8,
{1}8,
{2}1,1,
{1}1b,
{2}2,2,
{1}2,
{2}3,3,
{1}3,
{2}4,4,
{1}4,
{2}5,5,
{1}4/5,
{2}6,6,
{1}6,
{2}7,7,
{1}1x/8x,
{1}8,
{1}7,
{1}6,
{1}4/5,
{1}4,
{1}3,
{1}2,
{1}1x/8x,
{2}1,1,
{1}2,
{2}2,2,
{1}3/4,
{2}5,5,
{1}6,
{2}6,6,
{1}7/8,
{1}1-4[4:3],
{1},
{1}8-5[4:3],
{1},
{1}1-5[4:3],
{1},
{1}8-4[4:3],
{1},
{1}1x,
{2}8,8,
{2}7,7,
{2}6,6,
{1}4x/5x,
{2}4,4,
{2}3,3,
{2}2,2,
{1}1x/8x,
{2}1,1,
{2}2,2,
{2}3,3,
{1}4x/5x,
{2}5,5,
{2}6,6,
{2}7,7,
{1}1b/8b,
{2}2,2,
{1}1/2,
{2}7,7,
{1}7/8,
{1}5h[1:1]/6h[1:1],
{1},
{1}3h[1:1]/4h[1:1],
{1},
{1}1h[1:1]/2h[1:1],
{1},
{1}1h[1:1]/8h[1:1],
{1},
{1}1x/8x,
{1}B1,
{1}B8,
{1}B2,
{1}B7,
{1}B3,
{1}B6,
{1}B4,
{1}C1f,
{2}1x,1,
{2}2,2,
{2}3,3,
{2}4x/5x,4/5,
{2}5,5,
{2}6,6,
{2}7,7,
{2}1/8,1x/8x,
{4}8,8,8,,
{2}7,7,
{4}6,6,6,,
{2}4/5,4b/5b,
{4}4,4,4,,
{2}3,3,
{4}2,2,2,,
{2}1/8,1/8,
{4}1,1,1,,
{2}2,2,
{4}3,3,3,,
{2}4x/5x,4b/5b,
{4}5,5,5,,
{2}6,6,
{4}7,7,7,,
{4}8,8,1x/8x,,
{4}1,1,1,,
{2}2,1/2,
{4}8,8,8,,
{2}7,7/8,
{4}6,6,6,,
{2}4/5,4/5,
{4}3,3,3,,
{2}4/5,3x/6x,
{1},
{1},
{1},
E
&inote_3=
(195){1},
{1},
{1},
{1},
{1},
{2}3h[2:1],4h[2:1],
{2}5h[2:1],6,
{2}7h[2:1],8h[2:1],
{2}1h[2:1],2,
{2}3h[2:1],4,
{2}6h[2:1],5,
{2}7h[2:1],8,
{4}1x,2x,3x,4x,
{4}6,6,5,5,
{4}4,4,3/5,,
{4}2,2,1,1,
{4}8,8,1/8,,
{4}7,7,8,8,
{4}1,1,2/8,,
{4}3,3,4,4,
{4}4/5,4/5,3b/6b,,
{2}B7/E8,B5/E6,
{4}E4,B3,B2,,
{2}B7/E8,B5/E6,
{4}E4,B3,B2,,
{2}7xh[2:1],8,
{2}2h[2:1],1,
{2}7h[2:1],8,
{2}1h[4:1]/2h[4:1],1/2,
{2}3h[2:1],4,
{2}6h[2:1],5,
{2}3h[2:1],4,
{2}5h[4:1]/6h[4:1],4/7,
{4}3,3,4,,
{4}6,6,5,,
{4}3,3,4,,
{4}5,5,4/6,,
{4}7,7,8,,
{4}2,2,1,,
{4}7,7,8,,
{4}1/8,1/8,2b/7b,,
{2}B6,B5,
{2}B4,B3,
{2}B2,B1,
{2}B8,B7,
{4}2x,2,1,,
{4}7,7,8,,
{4}2,1,8,7,
{4}6,5,4,4>1[2:1]/5<8[2:1],
{1},
{4}2b,2,1/2,1/2,
{4}7,7,7/8,7/8,
{4}6,6,5,5,
{4}4x/5x,4x/5x,3x/6x,,
{4}2h[4:1],1,1/2,,
{4}7h[4:1],8,7/8,,
{4}1,1,8,8,
{4}1/8,1/8,2/7,2b/7b,
{4}3,3,3/4,3/4,
{4}6,6,5/6,5/6,
{4}7,7,8,8,
{1}1-4[2:1]/8-5[2:1],
{4}3,3,4,4,
{4}5,5,6,6,
{2}7h[4:1]/8h[4:1],1h[4:1]/2h[4:1],
{4}7/8,7/8,1b/6b,,
{2}B2/E2,B4/E4,
{4}E6,B6,B7,,
{2}B2/E2,B4/E4,
{4}E6,B6,B7,,
{2}2xh[2:1],1h[2:1],
{2}8h[2:1],7,
{2}6h[2:1],5h[2:1],
{2}4h[2:1],3,
{2}2h[2:1],1,
{2}7h[2:1],8,
{4}6,6,7,7,
{4}1x/8x,2x/7x,3x/6x,4x/5x,
{1}C1f,
{1}1x>6[4:5],
{1},
{1}8<3[4:5],
{1},
{1}2-5[2:1],
{1}6-1[2:1],
{1}2-5[2:1],
{4}6,6,4/5,,
{4}6b,6,5/6,5/6,
{4}3,3,3/4,3/4,
{4}2,2,1,1,
{1}1>4[2:1]/8<5[2:1],
{4}6,6,5,5,
{4}4,4,3,3,
{2}1h[4:1]/2h[4:1],7h[4:1]/8h[4:1],
{4}1/8,1/8,2b/7b,,
{2}B6,B7,
{2}E8,B1/B8,
{2}B2,B3,
{2}E4,B4/B5,
{2}B6,B7,
{2}E8,B1/B8,
{2}B2,B3,
{2}E4,B4/B5,
{4}7x,7,7/8,,
{4}2,2,1/2,,
{4}7,7,7/8,,
{4}1,1,2/8,,
{4}3,3,3/4,,
{4}6,6,5/6,,
{4}3,2,1,8,
{4}7,6,4x/5x,,
{2}3h[4:1]/4h[4:1],5h[4:1]/6h[4:1],
{4}7/8,7/8,7/8,,
{2}1h[4:1]/2h[4:1],7h[4:1]/8h[4:1],
{4}5/6,5/6,5/6,,
{2}7h[4:1]/8h[4:1],1h[4:1]/2h[4:1],
{4}3/4,3/4,3/4,,
{2}5h[4:1]/6h[4:1],3h[4:1]/4h[4:1],
{4}2,1,1pp4[2:3]/8qq5[2:3],,
{1},
{1},
{1},
{1},
E
&inote_4=
(195){1},
{4}4,4,4,,
{4}5,5,5,,
{4}4,4,5,5,
{4}4/5,4/5,3/6,,
{4}E3,E4,E5,E6,
{4}B7/E7,C1,B2/E3,,
{4}E7,E6,E5,E4,
{4}B2/E3,B7/E7,B4/B5,,
{4}E3,E2,E1,E8,
{4}B6/E7,B3/E3,C1,,
{2}1h[4:1]/2h[4:1],7h[4:1]/8h[4:1],
{4}1x,2x,3x,3b/8b,
{4}3,3/4,6,5/6,
{4}4,3,1/2,1/2,
{4}7,7/8,2,1/2,
{1}3/8-4[4:1],
{4}3,3,5,4/6,
{4}7,7,1,2/8,
{4}3,2/4,5,4/6,
{4}3/5,3/5,2x/6x,,
{8}5,,5,,4/6,4/6,4/6,,
{8}3/5,3/5,3/5,3/5,,2x/6x,2x/6x,,
{8}1,,1,,2/8,2/8,2/8,,
{8}1/7,1/7,1/7,1/7,,2x/6x,2x/6x,,
{4}3x,3h[4:5],4,4,
{4}5,5,4,5,
{4}6,6h[4:5],5,5,
{4}4,4,5,4/7,
{4}3,3h[4:5],4,4,
{4}5,4,4,4/5,
{4}6,6h[1:1],5,5,
{4}4,5,4x/7x,,
{4}3,2h[4:3],4,4,
{4}3,4,4/5,4/5,
{4}6,7h[4:3],5,5,
{4}6,5,4/5,3/6,
{4}2,2h[1:1],1,1,
{4}8,1,1/2,1/8,
{4}7,7h[4:3],8,8,
{4}6,5,4b/7b,,
{1}2>5[8:3],
{1}6-3[8:3],
{1}2q6[8:3],
{4}7,6,5/6,,
{1}4>1[8:3],
{1}8-4[8:3],
{1}3>8[8:3],
{4}7,6,5,4h[4:3]/5h[4:3],
{1},
{4}1b/2b,3/8,7/8,1/6,
{4}5/6,4/7,3/4,2/5,
{4}5/6,7-3[4:1]/8-4[4:1],,,
{4}2x/5x,4x/7x,3x/5x,1b/7b,
{8}2h[4:1],,4,,5,5,4,,
{8}7h[4:1],,5,,4,4,5,,
{2}4>1[4:1]/6,8<5[4:1],
{4}4,4,3/5,1b/7b,
{4}5/6,4/7,3/4,2/5,
{4}1/2,3/8,7/8,1/6,
{4}3h[4:1],4h[4:1],5h[4:1],6<3[2:1],
{1},
{4}3,2/4,6,5/7,
{4}2,1/3,4b/8b,,
{2}5h[4:1]/7h[4:1],2h[4:1]/4h[4:1],
{4}3h[4:1]/8h[4:1],,1b,1b,
{8}8,,8,,1/7,1/7,1/7,,
{8}2/8,2/8,2/8,2/8,,3x/7x,3x/7x,,
{8}4,,4,,3/5,3/5,3/5,,
{8}4/6,4/6,4/6,4/6,,3x/7x,3x/7x,,
{4}E2,C1,E6,E7,
{4}E8,C1,E3/E4,,
{4}E2,C1,E6,E5,
{4}E4,C1,2x/8x,,
{8}8,,1/7,,6,6,5,,
{8}4,,3/5,,2,2,1,,
{4}2/8,3,4/6,7,
{4}1x,2x,3x,1b/8b-4[2:1],
{1},
{1}3h[1:1],
{1}4h[1:1],
{1}5h[1:1],
{4}B7/E7,B4/B5,B2/E3,,
{1}1>4[4:3],
{1}8<5[4:3],
{1}4h[2:1],
{4}5,4,3,3/4,
{4}2b/8b,5/6,1/7,3/4,
{4}5/6,7/8,1/2,3/4,
{4}2/8,5/6,1/7,3>8[2:1]/4p7[2:1],
{1},
{4}6h[4:1],5h[4:1],4h[4:1],3,
{4}2h[4:1],4h[4:1],5xh[4:1],6,
{2}7-4[4:1],2-5[4:1],
{4}8h[2:1],,1b,1b,
{4}2x/8x,3/7,2x/8x,3/7,
{4}2x/8x,3/7,2x/8x,2x/8x,
{4}1x/7x,2/6,1x/7x,2/6,
{4}1x/7x,2/6,7b/8b,,
{4}1x/2x,3/8,1x/2x,3/8,
{4}1x/2x,3/8,1b/6b,,
{4}7x/8x,1/6,7x/8x,1/6,
{4}7x/8x,1/6,3b/8b,,
{4}1x/7x,3/4,2x/8x,5/6,
{4}1x/7x,3/4,2x/8x,2x/8x,
{4}1x/7x,3/4,2x/8x,5/6,
{4}3b/4b,7b/8b,5b/6b,1b/2b,
{4}3x/8x,5/6,1x/6x,3/4,
{4}3x/8x,5/6,1b/6b,,
{8}4x,4,5,5,3x,3,6,6,
{8}2x,2,8x,8,1x/8x,,2b/7b,,
{8}3,,3,,4/7,4/7,4/7,,
{8}2/5,2/5,2/5,2/5,,7b/8b,7b/8b,,
{8}1,,1,,3/8,3/8,3/8,,
{8}1/6,1/6,1/6,1/6,,4b/8b,4b/8b,,
{2}1-5[8:1]/2-4[8:1],7-5[8:1]/8-4[8:1],
{8}1/2,,3/4,3/4,,2b/6b,2b/6b,,
{2}7-4[8:1]/8-4[8:1],1-5[8:1]/2-5[8:1],
{8}7/8,,1/6,1h[8:3]/6<5[8:15],,,,,
{1},
{1},
{1},
{1},
E
&inote_5=
(195){1},
{2}5<8[4:1],E5,
{2}4>1[4:1],E5,
{2}5<8[4:1],4>1[4:1],
{4}E5,E4/E6,C1/E3/E7,,
{8}2/8,3,5,2,1/6,5,4,6,
{8}2/7,3,5,2,1/6,5,4,7,
{8}3/8,4,5,2,1/7,5,4,7,
{8}3/8,4,5,2,1/6,5,4/8,,
{8}1/7,6,4,7,5/8,4,5,2,
{8}1/7,6,4,5,2/6,4,5,3,
{8}2/6,5,4,7,3/8,,1-5[8:1],,
{4}2-6[8:1],3-7[8:1],5-1[8:1],4b,
{4}3-8[8:1],5,6-1[8:1],4,
{4}3-8[8:1],5,6-1[8:1],4,
{4}3-8[8:1],5,6h[4:1],4>6[2:1],
{4}5,5,5,3/7,
{8}6-1[8:1],6,4,4,3-8[8:1],3,5,5,
{8}6-1[8:1],6,4,4,3-8[8:1],3,5,5,
{8}6h[8:1],4h[8:1],5h[8:1],3h[8:1],6h[8:1],2h[8:1],8h[8:1],1h[8:1],
{8}5h[8:1],4h[8:1],6h[8:1],3h[8:1],7h[8:1],1h[8:1],8b,,
{8}3-7[8:1]/4-8[8:1],,,,1/6,1/6,1/6,,
{8}3/8,3/8,4/7,4h[4:1]/7,,8b,8b,,
{8}5-1[8:1]/6-2[8:1],,,,3/8,3/8,3/8,,
{8}1/6,1/6,2/5,2/5h[4:1],,1b,1b,,
{4}3<5[8:1]/6<8[8:1],3/6,3<5[8:1]/6<8[8:1],3/6,
{8}2,2,5,5,4,7,5/8,,
{4}4-2[8:1],5-7[8:1],3-1[8:1],6-8[8:1],
{8}2,2,5,5,3,2,1/4,,
{4}3>1[8:1]/6>4[8:1],3/6,3>1[8:1]/6>4[8:1],3/6,
{8}7,7,4,4,5,2,1-5[8:1]/4,,
{4}8-4[8:1],2-5[8:1],7-4[8:1],1b,
{8}6,6,4,4,5,3,2/6,,
{4}7<2[4:1],2>7[4:1],1,1,
{8}2/7,2/7,1-4[8:1]/8-5[8:1],,1/8,,3/6,,
{4}5-8[8:1],4-1[8:1]/5,4/5-8[8:1],4/5,
{8}B2/E2,B7/E8,3<6[8:1],,8,8,8,,
{4}2>7[4:1],7<2[4:1],8,8,
{8}2/7,3/6,4-1[8:1]/5-8[8:1],,4/5,,3/6,,
{4}4-1[8:1],4/5-8[8:1],4-1[8:1]/5,4/5w1[8:1],
{4},4w8[8:1],,2x/6xqq3[2:5],
{2}E2,E1,
{2}E8,E1,
{2}E2,E1,
{4}3,3<6[4:1],,,
{4}7>2[4:1],4,3<6[4:1],8,
{4}7>2[4:1],4,3<6[4:1],8,
{4}7>2[4:1],4,3<6[4:1],8,
{8}7,7,3,3,5,5<4[8:5],1,1h[8:5],
{4},,,2-6[8:1]/6,
{4}2b/8,3/7-3[8:1],1/7b,2/6,
{4}3-1[8:1]/7-5[8:1],3/7,3-1[8:1]/7-5[8:1],3/7,
{4}3>7[4:1],7>3[4:1],C1f,8-4[8:1],
{4}1-5[8:1],2-6[8:1],3-7[8:1],5b,
{4}6h[4:1],8h[4:1],1h[4:1],3,
{8}4/6,5,3/7,6,5,4,3/5,,
{4}2-6[8:1]/6,2/7-3[8:1],1/7,1,
{4}2/4-1[8:1],4/5-8[8:1],5/7-3[8:1],1b/7,
{4}2q6[8:1],6,7p3[8:1],3,
{8}2q6[8:1],,7,,8,8,1,,
{4}3p7[8:1],5,6q2[8:1],4>6[2:1],
{4}C1f,,,2/7,
{4}8<4[4:1],4>8[4:1],8<4[4:1],4>8[4:1],
{4}8<4[4:1],4,C1f,,
{4}7-5[8:1]/8-4[8:1],7x/8x,1-5[8:1]/2-4[8:1],1x<4[8:3]/2x,
{4}C1f,,1b,2b/7b,
{8}3-7[8:1]/4-8[8:1],,,,1/6,2/5,3/4,,
{8}1/2,3/8,4/7,5h[4:1]/6,,8b,8b,,
{8}5-1[8:1]/6-2[8:1],,,,3/8,4/7,5/6,,
{8}7/8,1/6,2/5,3/4-8[8:1],,1b,1b,,
{8}3x/7x,4,6,3x,1x/5x,6,3,7x,
{8}5x/8x,4,7,3x,2x/6x,5,3,7,
{8}2x/6x,5,3,6x,4x/8x,3,6,2x,
{8}1x/4x,5,2,6x,3x/7x,4,6,2,
{8}3x/7x,4,6,3x,1x/5x,6,3,7x,
{8}5x/8x,4,7,3x,2x/6x,5,3,7,
{8}2/6,5,3,6,4/8,2,1-5[8:1],,
{4}2-6[8:1],3-7[8:1],5-1[8:1],4b,
{8}3,4,5pp4[2:1],6,,,,,
{1}C1f,
{1}6h[2:3],
{4}4,,5,5p4[2:1],
{1},
{1}3h[2:3],
{4}5,,4,4p5[2:1],
{1},
{4}E6,E5,E4,C1,
{4}7-5[8:1]/8,1,1/2-4[8:1],8,
{4}7-5[8:1]/8,1,1/2,8<4[4:1],
{4}4>8[4:1],8<4[4:1],4>8[4:1],8<8[2:1],
{4}C1f,,,4-2[8:1]/6-8[8:1],
{4}4/6,3-1[8:1]/5-7[8:1],3/5,4-2[8:1]/6-8[8:1],
{4}4/6,3/5,2/6,5<1[4:1],
{4}1>5[4:1],5<1[4:1],1>5[4:1],5<5[2:1],
{4}C1f,,1b,1b,
{4}2-4[8:1],1-5[8:1]/2,1/2-4[8:1],1-5[8:1]/2,
{4}1/2-4[8:1],2/8,8,3/5,
{4}7-5[8:1],7/8-4[8:1],7-5[8:1]/8,7/8-4[8:1],
{4}7-5[8:1]/8,1/7,3b/4b,1b/6b,
{4}2-5[8:1],1-6[8:1]/2,1/2-5[8:1],1-6[8:1]/2,
{4}1/2-5[8:1],2/8,8,3/5,
{4}7-4[8:1],7/8-3[8:1],7-4[8:1]/8,7/8-3[8:1],
{4}7-4[8:1]/8,1/7,3b,1b/6b,
{4}3-1[8:1],3/4-8[8:1],3-1[8:1]/4,3/4-8[8:1],
{4}3-1[8:1]/4,3/5,4/6,3/7,
{4}6-8[8:1],5-1[8:1]/6,5/6-8[8:1],4/6,
{4}3b/5b,1b/7b,4b/6b,2b/8b,
{4}3-1[8:1],3/6-8[8:1],4-1[8:1]/6,4/5-8[8:1],
{4}3/5,3/5,4/6,4/6,
{8}3-8[8:1],3,6-1[8:1],6,4-7[8:1],4,5-2[8:1],5,
{8}3-8[8:1],3,6-1[8:1],6,4-8[8:1],4,5,,
{8}5-1[8:1]/6-1[8:1],,5/6,,2/8,3/7,4/6,,
{8}8,1/7,2/6,3/5h[4:1],,4b,1b,,
{8}3-8[8:1]/4-8[8:1],,3/4,,1/7,2/6,3/5,,
{8}1,2/8,3/7,4-1[8:1]/6,,5b,8b,,
{8}3-8[8:1]/4-8[8:1],,3/4,,1/7,2/6,3/5,,
{8}1,2pp2[8:3]/8,3/7,6,,8b,8b,,
{8}5-1[8:1]/6-1[8:1],,5/6,,2/8,3/7,4/6,,
{8}8,1/7,2/6,3/5<4[8:9],,4b,1b,,
{1},
{1},
{1},
E
