&title=トラフィック・ジャム
&wholebpm=130
&artist=煮ル果実
&des=はっぴー
&shortid=11273
&genre=niconicoボーカロイド
&cabinet=DX
&version=maimai DX Splash PLUS
&chartconverter=Neskol
&lv_2=2
&des_2=
&lv_3=6
&des_3=
&lv_4=9+
&des_4=サファ太
&lv_5=12+
&des_5=はっぴー
&des_6=
&inote_2=
(130){1},
{1},
{1},
{1},
{1},
{1}1,
{1}1,
{1}8,
{1}8,
{2}1,1,
{1}2,
{2}3,3,
{1}4,
{2}5,5,
{1}6,
{2}7,7,
{1}1/8,
{1}7-3[4:3],
{1},
{1}2-6[4:3],
{1},
{1}8-5[4:3],
{1},
{1}4-1[4:3],
{1},
{1}8b,
{2}8,8,
{2}7,7,
{2}6,6,
{1}4/5,
{2}4,4,
{2}3,3,
{2}2,2,
{1}1/8,
{2}1,1,
{2}2,2,
{2}3,3,
{2}4,4,
{2}5,5,
{2}6,6,
{2}7,7,
{2}8,8,
{1}1xh[1:1]/8xh[1:1],
{1},
{1}2xh[1:1]/7xh[1:1],
{1},
{1}3xh[1:1]/6xh[1:1],
{1},
{1}4xh[1:1]/5xh[1:1],
{1},
{1}B4,
{1}B5,
{1}B3,
{1}B6,
{1}B2,
{1}B7,
{1}B1,
{1}B8,
{1}C1xh[1:1],
{1},
{4}8b,8,8,,
{2}7,7,
{4}6,6,6,,
{2}5,4/5,
{4}4,4,4,,
{2}3,3,
{4}2,2,2,,
{2}1,1/8,
{1}1h[2:1],
{2}2,2,
{1}3h[2:1],
{2}4/5,4/5,
{4}6,6,6,,
{2}4/5,4/5,
{4}3,3,3,,
{1}4h[2:1]/5h[2:1],
{1}4x/5x,
{1}B4/B5,
{1}B3/B6,
{1}B2/B7,
{1}B1/B8,
{1},
{1},
{1},
E
&inote_3=
(130){1},
{1}7x-4[8:3],
{1}3-8[8:3],
{1}7-3[8:3],
{2}2,1/2,
{1}8-5[8:3],
{1}4-1[8:3],
{1}8-5[8:3],
{2}4,4/5,
{2}3h[2:1],4,
{2}6h[2:1],5,
{2}3h[2:1],4,
{2}5h[4:1]/6h[4:1],5/6,
{2}3h[2:1],4h[2:1],
{2}5h[2:1],6,
{2}7h[2:1],8h[2:1],
{2}1h[2:1],2,
{4}3,3,4,,
{4}6,6,5,,
{4}3,3,4,,
{4}5,5,4/6,,
{4}7,7,8,,
{4}2,2,1,,
{4}7,7,8,,
{4}1,1,8,8,
{1}1-4[8:3]/8-5[8:3],
{4}6b,6,5/6,5/6,
{4}7,8,1/7,,
{4}2,2,1/2,1/2,
{4}3,4/5,3x/6x,,
{4}7b,7,7/8,7/8,
{4}6,5,4/6,,
{4}3,3,3/4,3/4,
{4}2,1/8,2x/7x,,
{4}E7,B6,B5,,
{4}E3,B3,B4,,
{4}E7,B6,B5,,
{4}E3,B3,B4,,
{4}6x,6x,5/6,5/6,
{4}7,8,1/7,,
{4}2,2,1/2,1/2,
{4}3,4/5,3x/6x,,
{4}7,7,7/8,,
{1}1-4[8:3],
{4}6,6,5/6,,
{1}4-1[8:3],
{4}7,7,7/8,,
{1}1v4[8:3],
{4}6,6,5/6,,
{1}4v1[8:3],
{2}7xh[2:1],8h[2:1],
{2}1h[2:1],2,
{2}2h[2:1],1h[2:1],
{2}8h[2:1],7,
{4}6h[4:1],5,5,,
{4}3h[4:1],4,4,,
{4}6h[4:1],5,5,,
{4}4,4,3/5,,
{2}B6/E6,B3/E4,
{4}E6,E5,E4,,
{4}2b,1/2,2,1/2,
{4}3,4,3/5,,
{4}6,5/6,6,5/6,
{4}7,1/8,2x/7x,,
{4}3b,3/4,3x,3/4,
{4}2x,1x,2x/8x,,
{4}7,7/8,7,7/8,
{4}6,4/5,3x/6x,,
{4}E4,B3,B2,,
{4}E6,B6,B7,,
{4}E4,B3,B2,,
{4}E6,B6,B7,,
{4}2x,1/2,2,1/2,
{4}3,4,3/5,,
{4}6,5/6,6,5/6,
{4}7,1/8,2x/7x,,
{1}6-1[8:3],
{1}2>5[8:3],
{1}6-1[8:3],
{1}2>5[8:3],
{1}6x,
{1},
{1},
{1},
E
&inote_4=
(130){1},
{8}5h[1:1],,,4,4,,,3,
{8}3h[1:1],,,4,4,,,,
{8}4h[1:1],,,3,3,,,,
{8}5h[4:3],,,6,6xh[4:1],,,,
{8}5/7h[1:1],,,6,6,,,,
{8}5h[4:3],,,6,6h[4:1],,,,
{4}5h[8:3]/6h[8:3],,5/6,4/5,
{4}3h[8:3]/4h[8:3],,3/4,4/5,
{8}6h[2:1],,,5,5h[2:1],,,7,
{8}7h[1:1],,,6,6,,,6,
{8}6h[1:1],,,5,5,,,4,
{8}4h[2:1],,,3,3,,,,
{1}1p8[2:1]/6h[4:5],
{8}7h[4:1],,,6/7,6/7,,,5/6,
{8}5h[4:1]/6h[4:1],,,4/5,4h[4:1]/5h[4:1],,,3/4,
{8}3h[4:1]/4h[4:1],,,4/5,4h[4:1]/5h[4:1],,,,
{8}3/4h[2:1],,3,2,2h[2:1],,4,5,
{8}5h[2:1],,2,1,1,,1/5,,
{8}2h[2:1]/4,,4,5,5h[2:1],,4,3,
{8}3h[2:1],,5,6,6x,,3x/6x,,
{8}4/7h[2:1],,3,2,2h[2:1],,7,8,
{8}8h[4:3],,4,3,3h[4:1],,,,
{8}2h[8:1]/7h[8:1],,2h[8:1]/7h[8:1],,2/7,,,3/6,
{2}3h[4:1]/6h[4:1],4h[4:1]/5h[4:1],
{4}4b/5b,,,1x-7[8:1],
{4}6-4[8:1],1-7[8:1],6,1,
{4}5h[8:1]/6h[8:1],3h[8:1]/4h[8:1],5h[8:1]/6h[8:1],3h[8:1]/4h[8:1],
{4}5h[8:1]/7h[8:1],2h[8:1]/4h[8:1],5h[8:1]/7h[8:1],2/4,
{8}5,5,4/6,,3x/7x,,4/8-2[8:1],,
{4}3-5[8:1],8-2[8:1],3,8,
{4}3h[8:1]/4h[8:1],5h[8:1]/7h[8:1],2h[8:1]/4h[8:1],5h[8:1]/6h[8:1],
{4}3h[8:1]/4h[8:1],5h[8:1]/7h[8:1],2h[8:1]/4h[8:1],1/8,
{8}6,6,5/7,,3,3,2/4,,
{8}1/5,6,7h[4:1],,E7,E6,E5,,
{8}5,6,7h[4:1],,E7,E6,E5,,
{4}7<5[8:1],4>2[8:1],7-5[8:1],1s5[2:1],
{4},,6x,3b/7b,
{4}5/6h[4:1],8,3h[4:1]/4,1,
{4}2/8,5/6,1/7,2q7[4:1]/6,
{4}8,,1/8,2/7p2[4:1],
{4}1,,1/8,1h[4:1]/8-5[1:1],
{1},
{4}B2,B3,E4,5-8[1:1],
{1},
{4}B3,B2,E2,8,
{2}1h[4:1]/8h[4:15],2h[4:1],
{4}E1,C1,E5,E3,
{1}E1,
{4}E1,C1,E5,E3,
{8}1x/8x,,2/7,,6,6,5,7,
{8}4,4,3/5,,4/6,4/6,4/6,3,
{8}3,5,5,2,2,8,8,1x,
{4}1x>4[4:1],,6h[4:1],5,
{8}4/7,4/7,4/7,,5/6,,7/8,,
{8}7,7,1,1,6,6,4,4,
{4}5<8[4:1],,2h[4:1],1,
{8}3/8,3/8,3/8,,1b/4b,,,,
{4}E4,E3,E6,E7,
{8}1,1,8,8,1,,2/8-2[8:1],,
{4}4-6[8:1],7-3[8:1],1,1,
{4}2h[8:1]/4h[8:1],5h[8:1]/7h[8:1],1h[8:1]/3h[8:1],6h[8:1]/8h[8:1],
{4}2h[8:1]/4h[8:1],5h[8:1]/7h[8:1],2h[8:1]/4h[8:1],5/7,
{8}6,6,5,7,1,1,1/8,,
{2}1-5[8:1]/2-6[8:1],7-3[8:1]/8-4[8:1],
{4}2b/5b,4b/7b,1b/5b,3b/8b,
{8}5/6,5/6,4/7,,3/4,3/4,2/5,,
{4}7h[4:1],5h[4:1],4h[4:1],2,
{4}E3/E4,E5/E6,E7/E8,E1/E2,
{4}E3/E4,E5/E6,E7/E8,E1/E2,
{8}3h[4:1],,4h[4:1],,3,3,2/5,,
{8}6h[4:1],,5,5,4/7,,3/8-2[8:1],,
{4}4-6[8:1],7-3[8:1],1,1,
{4}2h[8:1]/8h[8:1],1h[8:1]/7h[8:1],2h[8:1]/8h[8:1],1h[8:1]/7h[8:1],
{4}3h[8:1]/8h[8:1],1h[8:1]/6h[8:1],3h[8:1]/8h[8:1],1h[8:1]/6h[8:1],
{8}3/8,7,2/6,3,4/7,6,3/5,,
{8}2b/6b,,,,,,4,3,
{8}3h[1:1],,,4,4x,,5,6,
{8}6h[1:1],,,4,4,,5,4,
{8}4h[4:1],,5,4/5,3h[4:1]/6h[4:1],,,,
{1}B4/E4/B5/E6,
{1},
{1},
{1},
E
&inote_5=
(130){1},
{8}2/4,3/5,4pp5[4:1]/6V82[4:1],,,,,,
{4}3h[8:1]/5h[8:1],4h[8:1]/6h[8:1],3h[8:1]/5h[8:1],5h[8:1]/7h[8:1],
{8}5/7,4/6,3p6[4:1]/5v3[4:1],,,,,,
{4}4h[8:1]/6h[8:1],3h[8:1]/5h[8:1],4h[8:1]/6h[8:1],2h[8:1]/4h[8:1],
{8}2/4,3/5,4v3[4:1]/6V84[4:1],,,,,,
{4}3h[8:1]/5h[8:1],4h[8:1]/6h[8:1],3h[8:1]/5h[8:1],5h[8:1]/7h[8:1],
{8}4h[4:1]/8h[4:1],,,3/7,3h[8:1]/7h[8:1],,2h[8:1]/6h[8:1],,
{8}1h[4:1]/5h[4:1],,,2/6,2h[8:1]/6h[8:1],,3h[8:1]/5h[8:1],,
{16}2/6,,,,,,3/4,,3/4,,,4/5,,,5/6,,
{4}5h[8:1]/6h[8:1],4qq1[8:3]/7qq4[8:3],,,
{8},1/4,2/5,3/6,4>1[8:1]/7<4[8:1],4/7,,,
{8},1/4,2/5,3/6,4v6[8:1]/7v5[8:1],4/7,,,
{8},4/6,4/6,3/7,3-6[8:1]/7-2[8:1],,,,
{8}4-8[8:1]/5-1[8:1],4/5,,,2h[8:1]/7h[8:1],,1h[8:1]/8h[8:1],,
{8}1-4[8:1]/2-5[8:1],1/2,,,7-4[8:1]/8-5[8:1],7/8,,,
{8}1h[8:1]/2h[8:1],,3h[8:1]/4h[8:1],,5>2[8:1]/6p1[8:1],5/6,,,
{8},7/8,7/8,1/6,2/5,3/4,3/4,B5/E6,
{8}B3/E4,B6/E7,B2/E3,B7/E8,B1/E2,,2b/8b,,
{8}3h[8:1]/4h[8:1],,5h[8:1]/6h[8:1],,3h[8:1]/4h[8:1],,3/4,4/6,
{8}3/5,4/6,3/5,4/6,3v8[8:1]/5v8[8:1],3/5,,,
{4}3h[8:1]/6h[8:1],4h[8:1]/7h[8:1],3h[8:1]/6h[8:1],2h[8:1]/5h[8:1],
{8}3/6,4/7,3/6,2/5,3-1[8:1]/6-8[8:1],3/6,,,
{8}1/8,3/6,4>1[8:1]*v1[8:1]/5,4/5,,,,3/7,
{8}3/7,,2/6,,1q5[8:1]/5q1[8:1],1/5,1V75[2:1]/5V31[2:1],,
{4}1b/5b,,,1-5[8:1]/8-6[8:1],
{8}1-3[8:1]/8-4[8:1],,1-5[8:1]/8-6[8:1],,1b/8b,,2/4,1/8,
{8}5/7,1/8,2/4,1/8,5/7,1/8,2/4,1/8,
{8}5/7,1/8,2/4,1/8,5/7,1/8,2-8[8:1]/6-4[8:1],2/6,
{8},,3-5[8:1]/7-1[8:1],3/7,,,1-3[8:1]/8-4[8:1],,
{8}1-5[8:1]/8-6[8:1],,1-3[8:1]/8-4[8:1],,1b/8b,,2/7,3/6,
{8}2/8,4/5,1/8,2/6,1/7,3/4,2/8,3/7,
{8}4/6,3/7,4/5,2/6,3/5,1/8,4/5,2/7,
{8}1x>4[8:1]/5xp8[8:1],1x/5x,,,4xq1[8:1]/8x<5[8:1],4x/8x,,,
{8}1x/5x,1x/5x,2h[8:1]/6h[8:1],,2h[8:1]/6h[8:1],,3h[8:1]/7h[8:1],,
{8}4x/8x,4x/8x,3h[8:1]/7h[8:1],,3h[8:1]/7h[8:1],,2h[8:1]/6h[8:1],,
{8}1x/5x,1x/5x,2h[8:1]/6h[8:1],,3h[8:1]/7h[8:1],,4qq5[8:3]/8pp7[8:3],4/8,
{8},,,,4x/8x,,5/7,4/6,
{8}3/5,,2/6,2/6,3>8[8:1]/7<4[8:1],3/7,,,
{8}2/6,2/6,1-5[8:1]/8-4[8:1],2/7,,,4x/5x,4x/5x,
{4}3h[8:1]/6h[8:1],2h[8:1]/7h[8:1],4h[8:1]/6h[8:1],3h[8:1]/5h[8:1],
{8}2h[8:1]/7h[8:1],,1>4[8:1]/8<5[8:1],1/8,,,3b-5[8:1]/6bpp1[2:3],,
{1},
{4}B2/E3,B5/E5,B3/E4,2b-8[8:1]/7bqq4[2:3],
{1},
{4}B8/E8,B3/E3,B2/E2,1/8,
{2}7h[4:1]/8h[4:1],5h[4:1]/6h[4:1],
{8}B4/E4,B6/E6,B3/E3,B7/E7,B2/E2,B8/E8,B4/B5,,
{1}3h[4:3]/6h[4:3],
{8}B4/E5,B5/E6,B2/E3,B7/E7,B1/E2,E1/B8,B5/B6,,
{8}2/8,2/8,3/7,3/7,4/6,4/6,3/7,3/7,
{8}2h[8:1]/5h[8:1],,4h[8:1]/7h[8:1],,4/7,3/6,2pp8[8:3]/5qq7[8:3],1/6,
{16},,,,,,,,3/5,3/5,,4x/6x,,3/5x,3x/5,3/5x,
{16},4/6,4/6,,3/7,,2/5,,4/6,,3/5,,2/6,,2/6,,
{8}1h[16:1]/8h[16:1],1h[16:1]/8h[16:1],5h[16:1]/7h[16:1],5h[16:1]/7h[16:1],2h[16:1]/4h[16:1],2h[16:1]/4h[16:1],1h[16:1]/8h[16:1],2h[16:1]/7h[16:1],
{8}1h[16:1]/8h[16:1],1h[16:1]/8h[16:1],2h[16:1]/4h[16:1],2h[16:1]/4h[16:1],5h[16:1]/7h[16:1],5h[16:1]/7h[16:1],1h[16:1]/8h[16:1],2h[16:1]/7h[16:1],
{8}4h[16:1]/6h[16:1],4h[16:1]/6h[16:1],3h[16:1]/5h[16:1],3h[16:1]/5h[16:1],4h[16:1]/6h[16:1],4h[16:1]/6h[16:1],3h[16:1]/5h[16:1],2h[16:1]/4h[16:1],
{8}1h[16:1]/8h[16:1],1h[16:1]/8h[16:1],2h[16:1]/4h[16:1],2h[16:1]/4h[16:1],5h[16:1]/7h[16:1],5h[16:1]/7h[16:1],1h[16:1]/8h[16:1],1h[16:1]/8h[16:1],
{4}2b/7b,,4/5,4/5,
{8}B6/E6/E7,B3/E3/E4,B7/E7/E8,B2/E2/E3,4/5,3/6,1-5[8:1]/8-6[8:1],2/7,
{8}1b-3[8:1]/8b-4[8:1],,1b-5[8:1]/8b-6[8:1],,1b/8b,,2/4,1/8,
{8}5/7,1/8,2-6[8:1]/4-7[8:1],1/8,,,5/7,1/8,
{8}2/7,1/8,2-6[8:1]/4-7[8:1],1/8,,,5/8,5/8,
{8}4h[8:1]/7h[8:1],,2h[8:1]/5h[8:1],,3/6,2/7,1-5[8:1]/8-4[8:1],,
{4}1b/8b,1>4[8:1]/8<5[8:1],1b/8b,4<8[8:1]/5<8[8:1],
{4}4b>1[8:1]/5b>1[8:1],4bq5[4:1]/5b<4[4:1],4b/5b,,
{8}3/8,3/8,4/7,4/7,3/6,3/6,2/5,2/5,
{8}3h[8:1]/6h[8:1],,4h[8:1]/7h[8:1],,4/6,3/5,2qq7[4:3]/4q7[4:3],2/4,
{1},
{8}1/8,3/5,2/8,4/6,3/5,3/5,4/6,5/7,
{8}5/8,5/8,5/7,5/7,5/8,1/5,2/5,2/5,
{8}1/5,5/8,5/7,5/6,4/7,,2x<7[8:1]/6xq3[8:1],,
{8}2x/6x,,4x-1[8:1]/5x-8[8:1],,4x/5x,,4/7,5/6,
{8}2/5,3/4,4-1[8:1]/7-3[8:1],5/6,,,2/5,3/4,
{8}4/7,5/6,2-6[8:1]/5-8[8:1],3/4,,,5-2[8:1]/7<4[8:1],,
{8},,2/6,3/7,4v1[8:1]/8v5[8:1],,4-2[8:1]/8-6[8:1],,
{2},4h[8:3]/7h[8:3],
{8}B5/B6,B3/B4,B1/B2,B7/B8,B4/B5,B2/B3,B1/B8,B6/B7,
{2}3h[8:3]/4h[8:3],2h[8:3]/5h[8:3],
{8}B3/B4,B5/B6,B7/B8,B1/B2,B4/B5,B6/B7,1-4[8:1]/8-5[8:1],,
{1},
{1},
{1},
E
