&title=ディカディズム
&wholebpm=124
&artist=ぬゆり
&des=サファ太
&shortid=11267
&genre=niconicoボーカロイド
&cabinet=DX
&version=maimai DX Splash PLUS
&chartconverter=Neskol
&lv_2=2
&des_2=
&lv_3=7
&des_3=
&lv_4=9+
&des_4=はっぴー
&lv_5=13
&des_5=サファ太
&des_6=
&inote_2=
(124){1},
{1},
{1}1,
{1}1,
{1}8,
{1}8,
{1}1h[1:1],
{1},
{1}8h[1:1],
{1},
{2}1,1,
{1}1,
{2}2,2,
{1}2,
{2}3,3,
{1}3,
{2}4,4,
{1}4/5,
{2}5,5,
{1}5,
{2}6,6,
{1}6,
{2}7,7,
{1}7,
{2}8,8,
{1}1/8,
{1}8-5[4:3],
{1},
{1}1-4[4:3],
{1},
{1}8-4[4:3],
{1},
{1}1-5[4:3],
{1},
{2}8x,8,
{2}7,7,
{2}6,6,
{2}4/5,4/5,
{2}4,4,
{2}3,3,
{2}2,2,
{2}1,1,
{1}1-4[4:3]/8-5[4:3],
{1},
{2}4,4,
{1}4/5,
{2}6x,6,
{1}5/6,
{2}3,3,
{1}3/4,
{2}2,2,
{1}1/2,
{2}7,7,
{2}7/8,7/8,
{1}1b,
{1},
{1}B1/B8,
{1}B2/B7,
{1}B3/B6,
{1}B4/B5,
{4}1x,1,1,,
{2}2,2,
{4}3,3,3,,
{2}4/5,4/5,
{4}5,5,5,,
{2}6,6,
{4}7,7,7,,
{2}7/8,7/8,
{4}1,1,1,,
{2}1/2,1/2,
{1}8h[2:1],
{2}8,8,
{1}7h[2:1],
{2}7,7,
{1}6h[2:1],
{2}6,6,
{1}4h[2:1]/5h[2:1],
{2}4/5,3h[8:3]/6h[8:3],
{1},
{1},
{1},
E
&inote_3=
(124){1},
{1}4xh[2:1]/5xh[2:1],
{4}3,3,4,4,
{4}5,5,4/6,,
{4}7,7,8,8,
{4}1,1,1/8,,
{4}2,2,1,1,
{4}8,8,1/7,,
{4}6,6,5,5,
{4}4,4/5,3b/6b,,
{4}7h[2:1],,8,1,
{4}2h[2:1],,1,8,
{4}7h[2:1],,8,1,
{1}2>5[2:1],
{4}6h[2:1],,5,4,
{4}3h[2:1],,4,5,
{4}6h[2:1],,5,4,
{1}3>8[2:1],
{4}7,7,7/8,,
{4}2,2,1/2,,
{4}7,7,8,8,
{1}1-5[2:1],
{4}6,6,5/6,,
{4}3,3,3/4,,
{4}6,6,5,5,
{4}4,4/5,3/6,,
{4}B7,B6,E6,,
{4}B2,B3,E4,,
{4}B7,B8,B1,B2,
{4}B3,B4,B5,,
{4}7h[2:1],,8,7/8,
{4}2h[2:1],,1,1/2,
{4}8,8,1,1,
{4}1/8,2/7,3/6,,
{4}7,7/8,7,7/8,
{4}2,1/2,2,1/2,
{4}3,3,4,4,
{4}5,4/5,3/6,,
{4}2,1/2,2,1/2,
{4}7,7/8,7,7/8,
{4}6,5,4,3,
{4}2,1,8,7,
{1}6>8[8:9],
{1},
{1}7-3[2:1],
{4}2,1/8,2b/7b,,
{2}6h[2:1],5h[2:1],
{2}4h[2:1],3,
{4}2,2,1,,
{4}8x,8x,1x/7x,,
{2}2h[2:1],1h[2:1],
{2}8h[2:1],7,
{4}6,6,5,,
{4}4,4,5,5,
{1}4qq1[4:5]/5pp8[4:5],
{1},
{2}B6,B5,
{2}B4,B3,
{2}B2,B1,
{2}B8,B7,
{4}3,3/4,6,5/6,
{4}7,7/8,2,1/2,
{4}3,3,4,4,
{4}5,4/5,3/6,,
{4}7,7/8,2,1/2,
{4}3,3/4,6,5/6,
{4}7,8,1,2,
{1}1b>4[2:1]/8b<5[2:1],
{4}5,4,3,2,
{4}1,8,7,6,
{1}4qq1[4:5]/5pp8[4:5],
{1},
{4}2,2,1,1,
{4}1/2,1/2,3/8,,
{4}7,7,8,8,
{4}7/8,7/8,1/6,,
{4}6,6,5,5,
{4}5/6,4/7,3h[8:3]/8h[8:3],,
{1},
{1},
{1},
E
&inote_4=
(124){1},
{4}B3/B4,B1/B2,B7/B8,B5/B6,
{8}3,3,2/4,,6,6,5/7,,
{8}3h[4:1],,4,,5,5,4/6,,
{8}3,3,2/4,,1,1,2/8,,
{4}7h[4:1],5h[4:1],4h[4:1],2,
{8}6,6,5/7,,3,3,2/4,,
{8}6h[4:1],,5,,4,4,3/5,,
{8}6,6,5/7,,8,8,1/7,,
{16}2h[4:1],,,,4,,,,2x/4x,,,5x/7x,,,3x/6x,,
{8}3/6h[4:1],,5,5,8,8,1/7,,
{8}3h[4:1]/5,,4,4,1,1,2/8,,
{8}4/6h[4:1],,5,5,8,8,1/7,,
{4}5/6,4/7,3/4,2/5,
{8}3h[4:1]/5,,4,5,1,1,2/8,,
{8}4/6h[4:1],,5,4,8,8,1/7,,
{8}3h[4:1]/5,,4,5,1,1,2/8,,
{8}3/5,3/5,2<7[4:1]/6>3[4:1],,,,,,
{8}3/5,3/5,2,2,3/5,6,5/7,,
{8}4/6,4/6,7,7,4/6,3,2/4,,
{8}3/5,3/5,2,2,3/5,6,5/7,,
{8}4/6-1[8:1],,,,4,4,3/5,,
{8}4/6,4/6,7,7,8,1,2/4,,
{8}3/5,3/5,2,2,1,8,5/7,,
{8}4/6,4/6,7,7,8,1,2/4,,
{8}3h[4:1]/5,,4,4,5,5,4/6,,
{8}3-6[8:1],,,,8,8,1/7,,
{8}6-3[8:1],,,,1,1,2/8,,
{4}7h[4:1],5h[4:1],4h[4:1],2h[4:1],
{2}8<5[8:1],1>4[8:1],
{8}7,7,5,5,4,4,3/6,,
{8}2h[16:7]/7h[16:7],,,,,1x/8x,1x/8x,,
{4}2h[4:1],4h[4:1],5h[4:1],7h[4:1],
{8}1,1,2/8,2/8,3/7,,8b,,
{8}3/4,2/5,1/6,,5/6,4/7,3/8,,
{16}3,,4,,5h[16:3],,,6h[16:3],,,7,,7h[16:3],,,6h[16:3],
{16},,5,,4h[16:3],,,3h[16:3],,,2,,2,,8,,
{4}8-5[8:1],1-4[8:1],,8x,
{8}5/6,4/7,3/8,,3/4,2/5,1/6,,
{16}6,,5,,4h[16:3],,,3h[16:3],,,2,,2h[16:3],,,3h[16:3],
{16},,4,,5h[16:3],,,6h[16:3],,,7,,7,,1,,
{8}1h[4:1],,8,,2/7,3/6,4/5,,
{4}6h[2:1],E6,3h[2:1],E4,
{4}7h[2:1],E6,3h[2:1],E4,
{4}6h[2:1],E6,2h[2:1],E4,
{4}8,1/7,2/6,3/5,
{8}4-1[8:1],,,,8,8,1,,
{8}5-8[8:1],,,,1,1,8,,
{16}4h[16:3],,,3h[16:3],,,2,,,,1x/4x,,,,5/6,,
{4}5/6,7/8,1/2,3/4,
{8}5-8[8:1],,,,1,1,2/8,,
{8}4-1[8:1],,,,8,8,1/7,,
{16}5h[16:3],,,6h[16:3],,,7,,,,5x/8x,,,,3,,
{4}3h[4:1],1h[4:1],8h[4:1],6h[4:1],
{1}4h[8:17],
{1}C1xh[8:9],
{8},,,,,2x/7x,,,
{16},,1/8,,1h[8:3]/8h[8:3],,,,,,,,,,,3x,
{16},,2x/4x,,,,,6x,,,5-1[8:3]/7xh[8:9],,,,,,
{4},,,1b,
{8}7/8,1/6,2/5,,1/2,3/8,4/7,,
{16}6,,5,,4h[16:3],,,3h[16:3],,,2,,2h[16:3],,,3h[16:3],
{16},,4,,5h[16:3],,,6h[16:3],,,7,,7,,2,,
{4}2-5[8:1],6-1[8:1],,3x,
{8}1/2,3/8,4/7,,7/8,1/6,2/5,,
{16}3,,4,,5h[16:3],,,6h[16:3],,,7,,7h[16:3],,,6h[16:3],
{16},,5,,4h[16:3],,,3h[16:3],,,2,,2,,8,,
{16}1/8,,,,2/7,,,,4/5,,4/5,,3h[16:3]/6,,,2h[16:3],
{16},,1,,8h[16:3],,,7h[16:3],,,6,,6,,4,,
{8}4/5,,3/6,,1/8,1/8,2x/7x,,
{8}6,6,5/7,,3,3,2/4,,
{8}6h[4:1],,5,,4,4,3/5,,
{8}6,6,5/7,,8,8,1/7,,
{4}2h[4:1],4h[4:1],5h[4:1],7-3[8:1],
{8},,1b,,5,5,4/6,,
{8}3h[4:1],,4,,5,5,4/6,,
{8}3,3,2/4,,1,1,2/8,,
{16}7h[4:1],,,,5,,,,5x/7x,,,2x/4x,,,3x/6x,,
{1},
{1},
{1},
E
&inote_5=
(124){1},
{4}2x/4x,5x/7x,3x/4x,5x/6x,
{24}3,,3,4,,,2/5,,,2/5,,,3,,3,4,,,2/5,,,1,,,
{24}6,,6,5,,,4/7,,,4/7,,,6,,6,5,,,4/7,,,3,,,
{24}3h[8:1]/4h[8:1],,,,,3/4,,,2/5,,,3/6,,,4/7,,,6,5,,,4/7,,,
{24}3,,3,4,,,6,,6,5,,,3/7,,,4/5,,,2/6,,,,,,
{24}7,,7,8,,,1/6,,,1/6,,,7,,7,8,,,1/6,,,5,,,
{24}2,,2,1,,,3/8,,,3/8,,,2,,2,1,,,3/8,,,4,,,
{24}5h[8:1]/6h[8:1],,,,,5/6,,,4/5,,,3/4,,,2/5,,,3,4,,,2/7,,,
{48}8,,,,8,,1,,,,1,,8,,,,8,,1,,,,1,,1x/8x,,,,,,,,,2x/7x,,,,,,,,,4x/5x,,,,,,
{48}4/5h[4:1],,,,,,,,,,,,2xh[16:3],,,,,,,,,4,,,,,,4,,3,,,,,,,2/5,,,,,,3,,,,,,
{48}4h[4:1]/5,,,,,,,,,,,,7h[16:3],,,,,,,,,5,,,,,,5,,6,,,,,,,4/7,,,,,,6,,,,,,
{48}3/5h[4:1],,,,,,,,,,,,1xh[16:3],,,,,,,,,4,,,,,,4,,2,,,,,,,3/5,,,,,,6,,,,,,
{8}4/7,3,2x/5x,3,4x/5,6x,3x/7,,
{48}4/5h[4:1],,,,,,,,,,,,2xh[16:3],,,,,,,,,4,,,,,,4,,3,,,,,,,2/5,,,,,,3,,,,,,
{48}4h[4:1]/6,,,,,,,,,,,,7h[16:3],,,,,,,,,5,,,,,,5,,6,,,,,,,4/7,,,,,,3,,,,,,
{48}2h[4:1]/5,,,,,,,,,,,,4xh[16:3],,,,,,,,,3,,,,,,5,,4,,,,,,,4-8[8:1]/5,,,,,,6,,,,,,
{24}7<4[8:1],,,,,,1b,,,,,,2/3,,,,,3/4,,,,4/5,,,
{48}4-6[8:1]/5,,,,,,,,,,,,7xh[48:7],,,,,,,,,7,,,,,,7,,8,,,,,,,6,,,,,,6,,,,,,
{48}4/5-3[8:1],,,,,,,,,,,,2h[48:7],,,,,,,,,2,,,,,,2,,1,,,,,,,3,,,,,,3,,,,,,
{48}4-8[8:1]/5,,,,,,,,,,,,7xh[48:7],,,,,,,,,7,,,,,,7,,1,,,,,,,2/6,,,,,,5,,,,,,
{8}2/5,6,4/7x,3,2/4x,3x/5,2/6x,,
{48}5/6-3[8:1],,,,,,,,,,,,2xh[48:7],,,,,,,,,2,,,,,,2,,4,,,,,,,1,,,,,,2,,,,,,
{48}3-6[8:1]/4,,,,,,,,,,,,7h[48:7],,,,,,,,,7,,,,,,7,,5,,,,,,,8,,,,,,7,,,,,,
{48}4/6>3[8:1],,,,,,,,,,,,1xh[48:7],,,,,,,,,1,,,,,,1,,8,,,,,,,2<5[3:1]/7>4[3:1],,,,,,3/6,,,,,,
{8},,,,3/6,2/7,1b/8b,,
{8}3,2/4,6,5/7,3<6[8:1],2,8,7,
{8}7,6/8,2,1/3,7>2[8:1],6,4,3h[8:5],
{8},B1,E3,B4,6h[2:1],B5,E7,B8,
{24}1>5[24:5],,,,,5,5,,,,,8,8<4[24:5],,,,,4,4,,,3,,,
{24}3,,,2/4,,2/4,,,3/5,,,4h[6:1]/6,,,,E5,,,C1,,,E1,,,
{24}8,,,5/7,,5/7,,,4h[8:1]/6,,,C1,,,,1/8,,,2/7,,,3/6,,,
{24}5h[8:1],,,4,,3V57[24:5]/6V42[24:5],,,2/7,,,,,,,,,,8x,,,1x,,,
{24}2-6[8:1],,,8-4[8:1],,,2,,,8,,,1b,,,,,,4/7,,,4/7,,6,
{24}5<8[8:1],,,7,,,3/5,,,2,,2,1>4[8:1],,,3,,,1/7,,,6,,6h[8:1],
{24},,5,7,,7,8,,7/8,,,1/6,,,,4/7,,,2/8,,2h[8:1]/8,,,4,
{24},,,3/5,,,1/7,,1/7h[8:1],,,5,,,,4/5,,,3/6,,,1/8,,1/8h[24:7],
{24},,,7,,,2>7[16:3],,,,,C1f,,,,8x,,,8x,,,3/8,,2,
{24}1>4[8:1],,,3,,,1/7,,,6,,6,5<8[8:1],,,7,,,3/5,,,2,,2h[8:1],
{24},,1,3,,3,4,,4,,,2x/5x,,,,5/6,,,4/7,,4h[8:1]/7,,,3,
{24},,,1/2,,,3/8,,3h[8:1]/8,,,4,,,,6,,,1>7[4:1]/7,,,2/8,,,
{24}1/3,,,,,,C1f,,,,,1x,8x,,8,2,,2,6,,6,3,,,
{8}4h[4:1]/5,6,5,3,4/5h[4:1],6,4,6,
{8}3h[4:1]/4,2,4,2,5/6h[4:1],7,5,7,
{8}3h[4:1]/4,2,5h[4:1],6,4h[4:1],3,5-1[8:1],6,
{8}3b-8[8:1],2,6b<1[8:1],7,2bw6[8:1],3,C1f,,
{24}4x/8x,,,7,,7,5h[8:1],,,4h[8:1],,,2h[8:1],,,1,,,1/8,,,7/8,,,
{24}1/5,,,2,,2,4h[8:1],,,5h[8:1],,,7h[8:1],,,8,,,1/8,,,1/2,,,
{16}3h[48:7]/8h[48:7],,,2h[48:7]/7h[48:7],,,1-5[8:1]/6,,,,1/8,,,,4/6,,
{8}3>8[8:1],2,6>3[8:1],7,1<6[8:1],2,5,5,
{24}4/5x,,,6,,6,8h[8:1],,,1h[8:1],,,3h[8:1],,,4,,,4/5,,,5/6,,,
{24}4/8,,,3,,3,1h[8:1],,,8h[8:1],,,6h[8:1],,,5,,,4/5,,,3/4,,,
{16}2h[48:7]/5h[48:7],,,3h[48:7]/6h[48:7],,,4-8[8:1]/7,,,,4/5,,,,1/7,,
{8}1b/7b>2[8:1],6,5b<8[8:1],4,3b<6[8:1],2,1bw5[1:1],8,
{1}1b,
{1},
{16},,2x/4x,,,,,,,,5x/6x,4x/7x,,,,,
{48},,,,,,3x/6x,,,,,,4/5,,,,4,,5,,,,2b/7b,,,,,,,,3,,,,,,3h[16:3],,,,,,,,,B3/B4,,,
{16},,6,,6h[16:3],,,B5/B6,,,4,,4-8[8:3],,,5h[16:13],
{4},,,1b,
{24}3/4v1[8:1],,,2,,,4/6,,,7,,7,8<5[8:1],,,6,,,2/8,,,3,,3h[8:1],
{24},,4,2,,2,1,,1/2,,,3/8,,,,1/6,,,2/5,,2/5h[8:1],,,6,
{24},,,4h[24:5]/7,,,3,,3,,,5/6,,,,4/5,,,3/6,,,1/8,,1h[24:7]/8,
{24},,,2,,,7<2[6:1],,,,,C1f,,,,1x,,,1x,,,1/6,,7,
{24}8v5[8:1],,,6,,,2/8,,,3,,3,4>1[8:1],,,2,,,4/6,,,7,,7h[8:1],
{24},,8,6,,6,5,,5,6,,4/7,,,,2/5,,,1/6,,1h[8:1]/6,,,2,
{24},,,4/7,,,3/8,,3/8h[8:1],,,7,,,,5/6,,,4/7p3[8:1],,,8,,,
{24}2<5[4:1]/7,,,,,,C1f/2b,,,,,,,,,3x/4x,,,2/5,,2h[8:1]/5,,,1,
{24},,,3/8,,,4/7,,4/7h[8:1],,,8,,,,5/7,,,4>6[4:1]/6,,,3/5,,,
{24}2/4,,,,,,C1f,,,,,8x,1x,,1,7,,7,3,,3/6,,,4>5[24:25]/5b<4[24:25],
{1},
{24},,,,,,,,,,,,4,,4,5,,,4/5,,,,,,
{24}5h[8:1]/6h[8:1],,,,,5/6,,,4/7,,,3/6,,,2h[8:1]/5h[8:1],,,,2/5,,,1,,,
{8}8-4[8:1],2-6[8:1],8>6[4:1],2,8,,1b,,
{24}2-5[8:1]/7-4[8:1],,,3/6,,,2b/7b,,,,,,2/8,,3,4,,4,5,,5,6,,,
{24}4/8,,7,5,,5,4,,4,2,,2,1,,,3/8,,,4/7,,,5/6,,,
{24}3h[8:1]/4h[8:1],,,,,3/4,,,2/5,,,3/6,,,4h[8:1]/7h[8:1],,,,4/7,,8,1,,1,
{48}7,,,,7,,3,,,,3,,6,,,,6,,4,,,,4,,4b/5b,,,,,,,,,6b/7b,,,,,,,,,1b/5b,,,,,,
{1},
{1},
{1},
E
