&title=チエルカ/エソテリカ
&wholebpm=205
&artist=ツミキ × 宮下遊
&des=Safata.Hz
&shortid=11230
&genre=maimai
&cabinet=DX
&version=maimai DX Splash PLUS
&chartconverter=Neskol
&lv_2=5
&des_2=
&lv_3=8+
&des_3=
&lv_4=12
&des_4=はっぴー
&lv_5=14
&des_5=Safata.Hz
&des_6=
&inote_2=
(205){1},
{1},
{1},
{1}1,
{1}1x/8x,
{1}8,
{1}8,
{1}7,
{1}7,
{1}6,
{1}6,
{1}5,
{1}4/5,
{1}4h[1:1],
{1},
{1}3h[1:1],
{1},
{1}2h[1:1],
{1},
{1}1h[1:1]/8h[1:1],
{1},
{1}1,
{1}2,
{1}3,
{1}4x/5x,
{1}5,
{1}6,
{1}7,
{1}7x/8x,
{1}5h[4:3]/6h[4:3],
{4},,,3h[4:3]/4h[4:3],
{1},
{2},2,
{2}2,1/2,
{2},7,
{2}7,7x/8x,
{4},,1b,1,
{2}1,2,
{4}2,,3,3,
{2}3,4,
{4}4/5,,5,5,
{2}5,6,
{4}6,,7,7,
{2}7,8,
{4}1x/8x,,8b,8,
{2}8,7,
{4}7,,6,6,
{2}6,5,
{4}4/5,,4,4,
{2}4,3,
{4}3,,2,2,
{2}2,1,
{2}1/8,1h[4:3]/8h[4:3],
{1},
{1}1h[4:3]/2h[4:3],
{2},7h[4:3]/8h[4:3],
{4},,,7/8,
{4},1-4[4:5],,,
{1},
{1},
{4},8,,,
{4},8-5[4:5],,,
{1},
{1},
{4},1x,,,
{4},1,,1,
{4},2,,2,
{4},3,,3,
{4},4/5,,,
{4},5,,5,
{4},6,,6,
{4},7,,7,
{4},7x/8x,,,
{4},B7/B8,,,
{4},,,B1/B2,
{1},
{4},B3/B4,,,
{4},,,B5/B6,
{1},
{4},E5,,,
{4},,,E4/E6,
{1},
{4},C1xh[1:2]/E3/E7,,,
{1},
{1},
{4},1xh[1:1]/8xh[1:1],,,
{1},
{4},8b,8,8,
{4},7,7,7,
{4},6,6,6,
{4},5,5,4x/5x,
{4},4,4,4,
{4},3,3,3,
{4},2,2,2,
{4},1,1,1x/8x,
{4},1b,1,1,
{4}1,2,2,1/2,
{4},8,8,8,
{4}8,7,7,7/8,
{4},6,6,5/6,
{4},3,3,3/4,
{4},5,5,4/5,
{4},4/5,,3b/6b,
{4},2,,2,
{4},1/2,,1/2,
{4},8,,8,
{4},7,,7/8,
{4},1,,1,
{4},8,,8,
{4},1h[4:3]/8h[4:3],,,
{4},,,1-5[1:1],
{1},
{1},
{4},8-4[1:1],,,
{1},
{1},
{1}2-6[1:1],
{1},
{2},7-3[1:1],
{1},
{4},,,1/8,
{4}1/8,2/7,2/7,3h[8:3]/6h[8:3],
{1},
{1},
{1},
E
&inote_3=
(205){1},
{1},
{1},
{4}4,4,5,5,
{4}4/5,4/5,3/6,,
{4}7b,7,7/8,,
{4}2,2,1/2,,
{4}7,7,8,8,
{4}1,1,2/8,,
{4}3,3,3/4,,
{4}6,6,5/6,,
{4}3,3,4,4,
{4}4/5,4/5,3x/6x,,
{2}7h[2:1],8,
{2}2h[2:1],1,
{2}7h[2:1],8h[2:1],
{2}1h[2:1],2,
{2}3h[2:1],4,
{2}6h[2:1],5,
{2}3h[2:1],4h[2:1],
{2}5h[2:1],6,
{4}7,7,8,,
{4}2,2,1,,
{4}7,7,8,,
{4}1,1,2/8,,
{4}3,3,4,,
{4}6,6,5,,
{4}3,3,4,,
{4}4/5,4/5,3x/6x,,
{1}7z3[1:1],
{4},,,2s6[1:1],
{1},
{2},7-4[2:1],
{2},3-8[2:1],
{4},,7,8,
{4}2,1,1/8,1/8,
{4}2x/7x,,6b,6,
{4}5/6,4/7,3,3,
{4}3/4,2/5,1,2,
{4}1/2,3/8,7,7,
{4}7/8,1/6,2,2,
{4}1,1,8,8,
{4}7,7,6,6,
{4}5,5,4,5,
{4}3x/6x,,2b,2,
{4}1/2,3/8,7,7,
{4}7/8,1/6,5,6,
{4}5/6,4/7,3,4/5,
{4}3/6,2/7,1b/8b,,
{4}7,8,1,2,
{2}1/8,B7/B8,
{2}B1/B2,B3/B4,
{2}B5/B6,C1f,
{1},
{4}3/4,3/4,3/4,5/6,
{4}5/6,5/6,3/4,3/4,
{4}3/4,5/6,5/6,5/6,
{4}4b/7b,3xh[2:1],,4h[2:1],
{4},5h[2:1],,6,
{4},7h[2:1],,8h[2:1],
{4},1h[2:1],,2,
{4},3-8[2:1],,,
{4},7-3[2:1],,,
{4},2-6[2:1],,,
{4},7-4[2:1],,,
{4},3,3,3/4,
{4},6,6,5/6,
{4},3,3,3/4,
{4},5/6,5/6,4/7,
{4},7,7,7/8,
{4},2,2,1/2,
{4},7,7,7/8,
{4},1/8,1/8,2b/7b,
{4},B3/B4/E4,,,
{4},,,B5/B6/E6,
{1},
{4},B4/E4,,,
{4}B2/E2,,,B8/E8,
{2},B6/E6,
{4},B2,B3,,
{4}B7,B6,,B2,
{4}B3,,B7,B6,
{4},3xh[2:1],,4h[2:1],
{4},5h[2:1],,6,
{4},7,7,8,
{4}8,1/8,1/8,2/7,
{4},4/5,4/5,3/6,
{4},2b,1/2,2,
{4}1/2,3,3/4,3,
{4}3/4,6,5/6,6,
{4}5/6,7,7/8,7,
{4}7/8,6,5,4,
{4}3,2,1,8,
{4}7,5>2[2:1]/6<1[2:1],,,
{4},1/2,3/8,4x/7x,
{4},6b,5/6,6,
{4}5/6,7,7/8,7,
{4}7/8,2,1/2,2,
{4}1/2,3,4/5,3/6,
{4}2/7,1b/8b,,7,
{4}8,1,2,1/8,
{4},E3/E7,,E2/E8,
{4},E4/E6,,C1hf[2:3],
{1},
{1},
{4},8x<3[4:5],,,
{1},
{4},1>6[4:5],,,
{1},
{4},7xh[4:3]/8xh[4:3],,,
{4},,,6b,
{4}6,5,3,3,
{4}4,6,5,4,
{4}3,2b,2,1,
{4}7,7,8,2,
{4}1,8,7,6,
{4}7b,7,8,2,
{4}2,1,7,8,
{4}1,2,3b,3,
{4}4,6,6,5,
{4}4,4,5,4x/5x,
{8},4x/5x,,,4x/5x,,,4x/5x,
{8},C1f,,,,,,,
{1},
{1},
{1},
E
&inote_4=
(205){1},
{1},
{1},
{8}2x/8x,,7,7,5,,6,4/6,
{8},3,3/5,,2/6,,,,
{8}7h[4:1],,5,5,6,,4,4,
{8},3/5,,4/6,,8,1,2,
{8}2h[4:1],,4,4,3,,6,4/6,
{8},3/5,,4/6,,1,8,7,
{8}7h[4:1],,5,5,6,,4,4,
{8},3/5,,4/6,,8,1,2,
{8}2h[4:1],,4,4,3,,6,4/6,
{8},3/5,,2/6,,7,4/7,,
{8}8h[4:1],,5,5,,3,3,,
{8}1h[4:1],,4,4,,6,6,,
{8}7h[4:1],,5h[4:1],,4h[4:1],,2,2,
{8},8,,4/6,,3,3,,
{8}1h[4:1],,4,4,,6,6,,
{8}8h[4:1],,5,5,,3,3,,
{8}2h[4:1],,4h[4:1],,5h[4:1],,7,7,
{8},1/8,1/8,,4/5,,3/6,,
{8}7-3[4:1],,,,2,2h[4:1],,4h[4:1],
{8},5h[4:1],,7h[4:1],,1h[4:1],,4,
{8}4,,5/7,,8x,8xh[4:1],,5,
{8}5,,2/4,,1x,1x,,6,
{4}6h[4:1],8h[4:1],1h[4:1],3h[4:1],
{8}6,,4/5,,2/7,1x,1xh[4:1],,
{2}8<5[4:1],1>4[4:1],
{4}8,6,4/5,3/6,
{8}4h[4:1]/7h[4:1],,,2h[4:1]/5h[4:1],,,4h[4:1]/7h[4:1],,
{8},2/5,,4/7,4/7,,1h[4:1]/6h[4:1],,
{8},3h[4:1]/8h[4:1],,,1h[4:1]/6h[4:1],,,3h[4:1]/8,
{8},5,5,,6>3[4:1],,,,
{4}1,2,3-7[4:1],,
{8}6-2[4:1],,,,3h[4:3],,,6,
{8}6h[4:1],,,,4,5,4/5,,
{8}2x/7x,,,,3b/8b,,1/2,1-6[8:1]/2-5[8:1],
{8},,,7,7h[4:1],,5h[4:1],,
{8}4h[4:1],,2,,1/5,,7,7h[4:1],
{8},5,,2,2h[4:1],,4,,
{8}4/5,,5-1[8:1]/7,,8h[8:3],,,1,
{8},5/7,,4,4,,2/6,,
{8}3/5,,1>4[8:1]/7-4[8:1],,,,,2/8,
{16}2/8,,,,,,1x/7x,,1x/7x,,,2x/6x,,,3x/5x,,
{8}3xh[4:1]/5xh[4:1],,,,1b/6b,,7/8,7-4[8:1]/8-3[8:1],
{8},,,2,2h[4:1],,4h[4:1],,
{8}5h[4:1],,7,,4/8,,2,2h[4:1],
{8},4,,7,7h[4:1],,5,,
{4}4/5,2/4-8[8:1],1b,,
{4}2h[4:1],4h[4:1],5h[4:1],7h[4:1],
{4}8h[4:1],1,2b/7b,E4/E6,
{4}3b/6b,B4/B5,1b/8b,B3/B6,
{1}2h[2:1]/7h[4:5],
{1},
{16}3/5,,,3/5,,,3/5,,6x,,6x,,4/7,,,4/7,
{16},,4/7,,3x,,3x,,2/5,,,2/5,,,2/5,,
{16}6x,,6x,,5/7,,,5/7,,,5/7,,4x,,4x,,
{8}5x,5x,3h[8:15],,4,,4,,
{4}4,4,4,4,
{4}4,6h[8:15],5,5,
{4}5,5,5,5,
{8}5,,3-6[8:1],,,,7,7,
{8}5,5/6,,4/7,,3,3,5,
{8}4/5,,6-3[8:1],,,,2,2,
{8}4,3/4,,2/5,,6,4/6,,
{8}3/7,,2,,3/5,,8,8,
{8},5/7,,2/4,,6,6,5,
{8},4/7,,3/5,,2,2,4,
{8},3/8,,1/6,,7,7,5,
{8},4/6,3,2/4,,5/7,,1/7,
{8},2,2,4,,1/5,,3/7,
{8},6,6,5,,3/7,,2/6,
{8},8,8,1,,2/7,2/7,,
{4}4/5,3>5[4:3]/6,,,
{16},,,,,,,,5/6,,,,4x/7x,,,4x/7x,
{8},4x/7x,,3,3h[4:1],,1h[4:1],,
{8}8h[4:1],,6h[4:1],,4,4,5,,
{8}3/6,,2,,8,8,1,,
{4}4/7,2/5,1,2/4,
{8}5,,4/6,,7,7,4>1[4:1],,
{4},8<5[4:1],,4,
{8}3,3,5-8[4:1],,,,1-4[4:1],,
{4},5h[1:1],4,4,
{4}4,4h[1:1],5,5,
{8}5,,5,,7,7,5,,
{8}4/6,4/6,,3,2/4,,6,5/7,
{8},1/8,1-5[8:1]/8-4[8:1],,,,3x/6x,,
{8},,1b/7b,,2/8,2-5[8:1]/8-4[8:1],,,
{8},3/6,3h[4:1]/6,,1h[4:1],,8h[4:1],,
{8}6,,1/5,,3,3h[4:1],,1,
{8},6,6h[4:1],,8,,2b/7b,,
{8}4b-1[8:1]/5b-8[8:1],,,,,1/8,,2/4,
{8},5,5,,3/7,,4/6,,
{8}2-5[8:1]/8<5[8:1],,,,,1x/7x,1x/7x,,
{16},,2x/8x,,2x/8x,,,3x/7x,,,4x/6x,,4xh[4:1]/6xh[4:1],,,,
{8},,2b/8b,,1/7,1-5[8:1]/7-4[8:1],,,
{8},3/6,3/6h[4:1],,8h[4:1],,1h[4:1],,
{8}3,,4/8,,6,6h[4:1],,8,
{8},3,3h[4:1],,1,,2b/6b,,
{4}3b-8[8:1]/5b-7[8:1],,,7h[4:1],
{4}5h[4:1],4h[4:1],2h[4:1],1h[4:1],
{4}8,3b/7b,E4/E6,2b/6b,
{4}B4/B5/E5,1b/8b,B3/E4/B6/E6,2b/7b,
{4}4>5[4:3]/5,C1f,,,
{4},7,5/7,4,
{4}3/5,2,2/4,5,
{8}4/6,,7,7,1,,2/6,,
{4}3/7,2,2/4,5,
{4}6/7,1/8,2/3,4/5,
{1}6h[4:1]/7h[8:3],
{16}3x/5x,,,,4,,4,,5,,,,4/6,,,3/5,
{8},2/4,,1,1,4,4,3,
{16},,3/5,,,4/6,,,5/7,,,,8,,8,,
{16}3,,,,3/5,,,4/6,,,5/7,,,,8,,
{16}8,,5,,5,,6,,,,4/6,,,3/5,,,
{8}2/4,,1,1,6,6,4b,,
{16}4/6,,,3/5,,,2/4,,,,1,,1,,4,,
{16}4,,3,,,,3/5,,,4/6,,,5/7,,,,
{8}8,8,2-6[8:1],,7-3[8:1],,,,
{8},1,1,4,,4/7,,8,
{4}8-4[8:1],3,2b,1h[4:1]/4h[4:1],
{8},3h[4:1]/6h[4:1],,,5h[4:1]/8h[4:1],,,3/6,
{8},C1xh[2:1],,,,,,,
{1},
{1},
{1},
E
&inote_5=
(205){1},
{16}3h[4:1],,,,6,,6h[2:1],,3,,,3,,,3h[4:1],,
{16},6,6h[2:1],,3,,,3,,,3h[4:1],,,,6,6,
{8}4b/5b,3,2,3,4/6,7,5/6,5/6,
{8},1/5,3/7,,4b/8b,2b/6b,,,
{8}4/5,,7,6,3,5,2,2h[4:1],
{16},,4,4,3,,5,,2,,7,,6,,4,,
{8}3/5,,2,4,3,5,4,7h[4:1],
{16},,5,5,6,,4,,7,,5,,4/6,,,,
{8}3/5,,2,3,6,4,7,7h[4:1],
{16},,5,5,6,,4,,7,,2,,3,,5,,
{8}4/6,,7,7,3,5,2,2h[4:1],
{16},,4,4,3,,5,,1,,1,,2/7-4[8:1],,3/6,,
{8}4,,2,2v1[8:1],,7,7-4[8:1],7,
{8}3,,2,2,,6,6,5,
{8}E7,B5,E3,B4,E6,E5,E4,C1,
{8},E2/E8,,B4/B5,,8,2-5[8:1]/7,3/6,
{8}5,,7,7v8[8:1],,2,2-5[8:1],2,
{8}6,,7,7,,3,3,4,
{8}E3,B4,E7,B5,E4,E5,E6,1,
{8},1,2q3[4:1],7,8<5[8:1],,,,
{8}2x,1,1h[4:1],,3,4h[4:1],2,2h[4:1],
{16},,1,,8,,3,,,,5/6,,,,2,4,
{16}3,,6,5,6,,3,4-1[16:1],2h[16:3],,,,,,7,5,
{16}6,,3,4,3,,6,5-8[16:1],7h[16:3],,,,,,2,,
{8}3/4,,7,5/6h[4:1],,1,2,3,
{8}8,2,1-6[8:1],,5,4x,4x,1,
{8}2h[8:1],1,8h[8:1],2,3h[8:1],7h[8:1],4,4,
{4}6-3[4:1],3<6[4:1],1,1x,
{16}3/7,,5,5,4,,2/6,,4,4,5,,3/7h[16:5],,,,
{16}2h[8:1],,,3h[16:3],,,4,,5,,3,,2/6,,4,4,
{16}5,,3/7,,5,5,4,,2h[16:3]/6h[4:1],,,,,,1/5,,
{8}2/6,3/7,4>1[8:1]/8<5[8:1],,4b/8bs4[8:3],,,,
{8},,,3/6,3/6,,,,
{8}B3/B4/B5/B6/B7/B8,,2h[4:1],,1,1,3,3,
{8}4,4,5,5,6,4/6,5,6,
{32}3/7,,,,6b,,,,4b,,,,2b,,,,1b/8b,2/7,3/6,4/5,,,,,,,,,1-6[8:1],,,,
{8},7-3[8:1],,5,5>7[8:3],,1<5[4:1],,
{8}5V31[4:1],,1,,7-3[8:1],,8,8-5[8:1],
{8},4,,1,1-5[8:1],,7>2[8:1],,
{8}4<7[8:1],,8-3[8:1]*-5[8:1],,8b,,,2-5[8:1]/6-1[8:1],
{8},,,3/7,3-8[8:1]/7,,6-1[8:1],,
{8}2>5[8:1],,8p1[8:3],,C1f,,,8,
{16}8,,,,,,1/7,,1/7,,,3/8,,,4/6,,
{32}4/6,,,,3b,,,,5b,,,,7b,,,,1b/8b,2/7,3/6,4/5,,,,,,,,,8-3[8:1],,,,
{8},2-6[8:1],,4,4<2[8:3],,8>4[4:1],,
{8}4V68[4:1],,8qq8[8:3],,1x,,,2-6[8:1],
{8},1,,8,1-3[8:1]/8-3[8:1],,1-6[8:1]/8-6[8:1],,
{4}1-3[8:1]/8-3[8:1],1-5[8:1]/8-4[8:1],1b/8b,,
{4}1h[4:1],3h[4:1],5h[4:1],7h[4:1],
{4}2,4>1[8:1]/5,B2/B3,5<8[8:1],
{4}B6/B7,4>1[8:1],E1/B8,5<8[8:1],
{1}C1xh[2:1],
{4},,,4x/5x,
{16}2/5,,,3/6,,,4/7h[8:1],,8,1,2,3,4/7,,,3/6,
{16},,2h[8:1]/5,,1,8,7,6,3/5,,,4/6,,,5/7h[8:1],,
{16}8,1,2,3,4/6,,,3/5,,,2/4,,1,,1/7,,
{16}1/7,,1b/7b,2b/6b,3b/5b,,,,3,,,,3,,,,
{4}3,3,3,3,
{8}3,5h[16:1],3,,3,,3,,
{4}3,3,3,3,
{8}3/5,,2>4[8:1]/6,,5,6,7-5[8:1],7,
{8}4,3,2>4[8:1],2,5,6,7-5[8:1],7,
{8}4,3,2>4[8:1],2,5,6,7,7,
{16}4,,4,,3/5,,3,,6,5,,3,4,,2/6,,
{16}2b/6b,,,,3/7,,6,6,5,,7,,4,,4,,
{16}3/5,,2,,1/8,,7,,4/6,,3,3,4,,6,,
{16}4/7,,3,,2/6,,3,3,4,,2,,5,,5,,
{16}4/6,,7,,1/8,,2,,3/5,,6,6,5,,3,,
{16}2/5,,6,,3/7,,6,6,5,,7,,4,,4,,
{16}3/5,,2,,1/8,,7,,4/6,,3,3,4,,6,,
{16}4/7,,3,,2/6,,3,3,4,,2,,5,,5,,
{16}4/6,,7,,1/8,,2,,3/5,,6,6,5,,4,,
{16}3/5,,6,,2h[8:1]/7h[8:1],,,3h[8:1]/6h[8:1],,,4/5,,3/6,,,,
{4},,3b/6b<4[2:1],C1f,
{8},,,1,1h[4:1],,7,7h[4:1],
{8},5,5,,4/8,,5/7p4[2:1],,
{4}C1,1,2q5[2:1],C1,
{4}8,7p4[2:1],C1,2,
{8}1xs5[8:3],,8b,,,,,7,
{8}7h[4:1],,5,5h[4:1],,4,4,,
{4}4/5,3p4[8:3],C1,8,
{4}7p8[4:1],C1,,1/7,
{1}3v8[2:1]/5v8[2:1],
{16}7,,6,,4/5,,3,4,2,,1/5,,6,5,7,,
{8}8,2/8,3,3,4,6,6,5,
{16}7,,3,3,4,,2,,2/4,,2/4,,5b,,7b,,
{32}1b-4[8:1]/8b-5[8:1],,,,3b/6b,,,,1b/8b,B1/B8,C1f/E4/E6,B4/B5,,,,,,,,,3h[4:1]/7-3[8:1],,,,,,,,7,,,,
{8},2/8,3V15[4:1]/7,,5V31[4:1],,3,,
{8}7-3[8:1],,2-6[8:1],,5,5h[4:1],,4,
{8},1/2,3<6[8:1]/8,,3/7-3[8:1],,1-6[8:1]/7,,
{32}1/5x-1[8:1]*-2[8:1],,,,,,,,5b,B5,C1f,B1,,,,,,,,,2x/6x-8[8:1],,,,,,,,1-5[8:1],,,,
{8},5,6<1[8:1],,2-6[8:1],,8-4[8:1],,
{8}3>6[4:1],,6,,5-8[8:1],5x,3x,,
{16},,1/7,,2/6,,,3/4,,,5/6,,4b,,2b,,
{32}1b-4[8:1]/8b-5[8:1],,,,3b/6b,,,,1b/8b,B1/B8,C1f/E4/E6,B4/B5,,,,,,,,,2x-6[8:1]/6x-1[8:1],,,,,,,,2/6,,,,
{8},5/8,4/7v4[8:1],,3-7[8:1]/7,,3/8v3[8:1],,
{8}2/8,,1/5,,6,5V37[4:1]/6,,7,
{8},8,1>4[8:1]/8q4[8:1],,1p5[8:1]/8<5[8:1],,1>4[8:1]/8q4[8:1],,
{96}1w5[8:1]/8,,,,,,,,,,,,,,,,,,,,,,,,1b,,E1/E2,B1,B2/B8,,C1f/B3/B7,,E4/E7,,B5,,,,,,,,,,,,,,,,,,,,,,,,,,,,,,,,,,,,,,8xh[4:1],,,,,,,,,,,,,,,,,,,,,,,,
{4}6h[4:1],4h[4:1],2h[4:1],8,
{4}7>2[8:1],2b/7,3>7[8:1],3/7b,
{32}5<2[8:1],,,,,,,,2b/5,,,,,,,,3>5[32:7],,,,,,,,C1f/3b,E3,E2,E1,E8,E7,E6,,
{8},,8x,,6,5,4/7,6,
{8}2/5,3,4,3,2/5,6,5/7,5/7,
{16}4/8,,3,3,4,,2,,5,,6,6,5,,7,,
{16}4,,3,,2/4,,1,1,5,6,7,8,2,3,4,5,
{16}8,7,6,5,2,1,2,,3/8,,4,,5/6,,7,8,
{16}7,,1,,2/4,,3,,5/7,,6,,4,5,4,5,
{16}4z8[2:1],5s1[16:7],4,5,,,,,,,,,,,,,
{16}3b/7b,,,,2,6,4,5,1b,,,,7b/8b,,6,5,
{16},2,1,,3/8-4[8:1],,7-3[8:1],,8,,7,,1,,1/5,,
{16}6,5,7,,2,1,,3,4,,1/5-2[8:1],,6,,5/7,,
{16}8,,1,,2b/8b,,3,4,,7,8,,1-5[8:1]/6,,2-6[8:1],,
{16}1,,2,,8,,4/8,,3,4,2,,7,8,,6,
{8}5,4-8[8:1]/7,3,2/4,1,7,5b,3b,
{16}2b/6b,,3,4,,6,5,,4-8[8:1]/7,,3-7[8:1],,4,,3,,
{16}5,,1/5,,2,4,3,,7,8,,6,5,,3/7,,
{8}4/5,2/6,1-4[8:1]/7v4[8:1],,1v6[8:1]/7,,1,8h[4:1],
{8},4,3,2/5,1/6,7/8,1/6-1[8:1],2-5[8:1],
{16}6-3[8:1],,2-6[8:1],,6,,2,,8x,,8x,,1b/7b,,2,4,
{16}3,,2b/8b,,7,5,6,,3b/5b,,6,8,7,,2b-6[8:1],1,
{16}2,3,2b,,,,,,,,,,,,,,
{1},
{1},
{1},
E
