&title=タケモトピアノCMソング
&wholebpm=174
&artist=タケモトピアノCM
&des=はっぴー
&shortid=11255
&genre=POPSアニメ
&cabinet=DX
&version=maimai DX Splash PLUS
&chartconverter=Neskol
&lv_2=3
&des_2=
&lv_3=7
&des_3=
&lv_4=9
&des_4=はっぴー
&lv_5=12+
&des_5=はっぴー
&des_6=
&inote_2=
(174){1},
{1},
(160){2},1,
{2},8,
{2},1/8,
{2}1b/8b,1x/2x,
{2},7x/8x,
{2},1/8,
{4}1h[4:1]/8h[4:1],(113),(100),,
{4},C1,,(110),
{2},(123),
{1}1xh[2:1]/2xh[2:1],
{1}3h[2:1]/4h[2:1],
{1}C1,
{1}7h[2:1]/8h[2:1],
{1}5h[2:1]/6h[2:1],
{1}C1hf[4:3],
(174){1},
{2},(160),
{2}8,8,
{1}8-4[4:3],
{1},
{2}1,1,
{1}1-5[4:3],
{4},,,(113)8x,
(100){4},1x-4[2:1]/8x-5[2:1],,,
{4},(110),,,
(123){2}B4/E4/B5/E6,E3,
{2}E2,E1,
{2}E8,C1xh[2:1],
{2},E7,
{2}E6,E5,
{2}E4,C1xh[4:3],
{1},
{1},
{1},
E
&inote_3=
(174){1},
{1},
(160){4},,3/6,3/6,
{4}3b/6b,,7,7,
{4}7/8,,2,2,
{4}1h[4:1]/2h[4:1],,1/8,1/8,
{4}2b/7b,,6,6,
{4}5/6,,3,3,
{4}3h[4:1]/4h[4:1],(113),(100),C1hf[2:1],
{4},,,(110)2>6[0.545454545454545##1.09090909090909],
{2},(123),
{4}7,7,8,8,
{4}1,1,2b/8b,,
{1}7x<3[2:1],
{4}2,2,1,1,
{4}8,8,2b/7b,,
{1}1xpp4[0.4878048780487809##2.1530698065601364]/8xqq5[0.4878048780487809##2.1530698065601364],
(174){1},
{2},(160),
{4}4/5,4/5,3b/6b,,
{4}7,7/8,2,1/2,
{4}3,4,3h[4:1]/5h[4:1],,
{1}6bv3[2:1],
{4}2,1/2,7,7/8,
{4}6,5,3bV15[0.375##2.0309734513274336]/6bV84[0.375##2.0309734513274336],(113),
(100){1},
{4},(110)2x>6[0.5454545454545467##1.0909090909090864],,,
(123){4},,7,7,
{8}1,1,1,,8,,1/8,,
{2}2b/7b,7xV53[2:1],
{4},,2,2,
{8}8,8,8,,1,,1/8,,
{2}2b/7b,C1hf[4:3],
{1},
{1},
{1},
E
&inote_4=
(174){1},
{1},
(160){8},,2x/7x,,1,1,8,,
{4}2/7,2/7,5-8[4:1],,
{4}4-1[4:1],,8,3/6,
{8}2/7,,8b,,4,4,5<8[4:1],,
{4},,4/8,2/6,
{4}4/8,2/6,1/8,4/5,
{4}2/7,(113)C1/B4/B5,(100),3h[2:1],
{4},B5/B6/E6,,(110)3<6[4:1],
{2},(123)8x,
{4}4/5,1>4[4:1]/8<5[4:1],,,
{4}3/6,4>1[4:1]/5<8[4:1],,,
{4}1h[4:3],6>3[4:1],,,
{4}3/6,4>1[4:1]/5<8[4:1],,,
{4}3/6,1/8,2h[4:1]/7h[4:1],,
{8},8x<1[2:1],,,,,,,
(174){1},
{16},,,1x,,,,,(160),,,,3/6,,,,
{8}4,4,5,,2b/7b,,2b/7b,,
{4}4/8,2/6,4/8,2/6,
{4}3h[4:1]/4,7h[4:1],8,1b,
{8}8,8,1,1,2/7,,3/6,,
{4}4/7h[4:1],5,2h[4:1]/5,4,
{4}3/6,4/5,1b/8b,(113)C1f/B2/B6,
(100){4},3h[2:1],,B6/B7/E7,
{16},,,,(110)E4,E5,E6,,,,,,,,,,
(123){8}B4/E4/B5/E6,,,,2/7,2/7,1>4[4:1]/8<5[4:1],,
{8},,,,3/6,3/6,4>1[4:1]/5<8[4:1],,
{4},,4,1h[2:1]/6>3[4:1],
{8},,,,2/7,3/6,4>1[4:1]/5<8[4:1],,
{8},,,,3/6,3/6,4h[4:1]/5,,
{8}C1xh[8:5],,,,,1x>8[2:1],,,
{1},
{1},
{1},
E
&inote_5=
(174){1},
{16},,,,,,,,,,,C1,,,,,
(160){16},,,,3x,3x,4x,,2-5[8:1]/5,,2/5,,6<3[4:1],,6,,
{4}C1f,8x,5>2[8:1]/6<1[8:1],,
{8}3>8[8:1]/4<7[8:1],,,,3/6,3/6,4-1[8:1]/5-8[8:1],,
{8}4x/5x,,1x/8x,,3x,7x,4x/6x,4x/6x,
{4}4x/6x,1b/8b,3>8[8:1]/4<7[8:1],,
{8}5>2[8:1]/6<1[8:1],,,,3/7,2/6,3>1[8:1]/7<4[8:1],,
{4},(113)2b/6b,(100),C1xh[2:1],
{24},,,,,,B1/B8,,,,,,,,,,,,(110)E6,B5,B4,E4,,,
{2},(123)B4/E4/B5/E6,
{8},3b,,7b,4b/6b,4b/6b,4b/6b,1b/8b,
{16}E7,,B5,,B4,,E3,,E5,C1,E1,,,,,,
{4}C1xh[2:1],7p2[4:1],,,
{8},3b,,7b,4b/6b,4b/6b,4b/6b,1b/8b,
{16}E3,,B4,,B5,,E7,,E5,C1,E1,,,,,,
{48},,,,,,1x,,,1x,,,1x,2x,3x,4x,5x,6x,7x,8x,1x,2x,3x,4x,5x,6x,7x,8x,1x,2x,3x,4x,5x,6x,7x,8x,C1f/1x,,,,,,,,,,,,
(174){2},C1xh[16:11],
{16},,,B2/B3/B6/B7,,,,1x/8x,(160),,,,E7,E6,E5,E4,
{8}E3,,1>4[8:1]/8<5[8:1],2x/7x,1x/8x,,2x/7x,,
{8}1/5-8[8:1],1,3,3,4-1[8:1]/8,8,6,6,
{8}2/5,3,4-1[8:1]/5-8[8:1],,4x/5x,,1x,,
{8}3h[2:1]/7,6,5,5,8b,,8b,,
{4}4>1[8:1]/7<5[8:1],4x/7x,3>1[8:1]/8<5[8:1],3x/8x,
{8}3/6,3/6,4-1[8:1]/5-7[8:1],,4x/5x,,(113)C1/B2/E2/B3/B5/E6/B7,,
(100){16},,,,7,7,7<2[8:3],7h[16:13],,,,,,,,,
{32},,,,,,,,(110),,,,,,,,3x,5x,3x,5x,3x,5x,3x,5x,4x,6x,4x,6x,4x,,,,
(123){8}8b,,,,1/5,1/5,1/5>1[8:1]*<1[8:1],1<1[4:1]*>1[4:1]/5,
{8},,,,1x,2pp4[8:1]/7qq5[8:1],4>5[4:1]/5<4[4:1],,
{16},,,,,,,,3b,,,7b,4b/6b,,4b/6b,,
{8}4b/6b,,1b/8b,,4/8,4/8,4>8[8:1]*<8[8:1]/8,4/8<8[4:1]*>8[4:1],
{8},,,,8x,2pp4[8:1]/7qq5[8:1],4>5[4:1]/5<4[4:1],,
{32},,,,,,,,,,,,,,,,,,,,1x,,1x,,1x,8x,1x,8x,1x,8x,1x,8x,
{32}1xq5[16:1],8x,1x,8x,1x,8x,1x,8x,1x,C1f,,,,,,,,,,,,,,,,,,,,,,,
{1},
{1},
{1},
E
