&title=ステップアンドライム
&wholebpm=155
&artist=YASUHIRO(康寛)
&des=Jack
&shortid=11169
&genre=maimai
&cabinet=DX
&version=maimai DX Splash PLUS
&chartconverter=Neskol
&lv_2=3
&des_2=
&lv_3=7
&des_3=
&lv_4=10
&des_4=はっぴー
&lv_5=12+
&des_5=Jack
&des_6=
&inote_2=
(155){1},
{1},
{1}1x,
{1}1,
{1}8x,
{1}8,
{1}1xh[1:1],
{1},
{1}8xh[1:1],
{1},
{1}1,
{1}2,
{1}3,
{1}4/5,
{1}5,
{1}6,
{1}7,
{1}1/8,
{1}B1,
{1}B8,
{1}B2,
{1}B7,
{1}B3,
{1}B6,
{1}B4,
{1}C1xh[1:1],
{1},
{2}8x,8,
{2}7,7,
{2}6,6,
{2}4/5,4/5,
{2}4,4,
{2}3,3,
{2}2,2,
{2}1/8,1x/8x,
{4}1,1,1,,
{2}2,2,
{4}3,3,3,,
{2}4,4/5,
{4}5,5,5,,
{2}6,6,
{4}7,7,7,,
{2}8,8,
{1}1xh[1:1]/8xh[1:1],
{1},
{1},
{1}7h[1:1]/8h[1:1],
{1},
{1}1h[1:1]/2h[1:1],
{1},
{1}1h[8:7]/8h[8:7],
{1},
{1}1-4[4:3],
{1},
{1}8-5[4:3],
{1},
{1}1-5[4:3],
{1},
{1}8-4[4:3],
{1},
{1}B3,
{1}B2,
{1}B1,
{1}B8,
{1}B7,
{1}B6,
{1}B4/B5,
{1}B3/B6,
{1}C1xh[1:1],
{1},
{1},
{2}1/8,1/8,
{4}7x,7,7,,
{4}6,6,6,,
{4}5,5,4/5,,
{4}4,4,4,,
{4}3,3,3,,
{4}2,2,2,,
{4}1,1,1/8,,
{4}1b,1,1,,
{4}2,2,2,,
{4}3,3,3,,
{4}4,5,4/5,,
{4}5,5,5,,
{4}6,6,6,,
{4}7,7,7,,
{2}1x/8x,1/8,
{4}2,2,1/2,,
{4}7,7,7/8,,
{1}1h[2:1],
{2}1,1/2,
{1}8h[2:1],
{2}8,7/8,
{1}6h[2:1],
{2}6,4/5,
{1}3b/6b,
{1}C1hf[1:1],
{1},
{1},
{1},
E
&inote_3=
(155){1},
{1},
{4}3x,3,3/4,,
{4}6,6,5/6,,
{4}3,3,4,4,
{4}5,5,4x/6x,,
{4}7,7,7/8,,
{4}2,2,1/2,,
{1}1pp4[4:5]/8qq5[4:5],
{1},
{2}6h[2:1],5,
{2}3h[2:1],4,
{2}6h[2:1],5,
{4}4,4,3/5,,
{2}2h[2:1],1,
{2}7h[2:1],8,
{4}2,2,1,1,
{4}8,8,1x/7x,,
{1}B7/B8,
{1}B5/B6,
{1}B3/B4,
{1}B1/B2,
{2}3h[2:1],4h[2:1],
{2}5h[2:1],6x,
{1}7-3[8:3],
{1}2-6[8:3],
{4}8,2/7,1x/8x,,
{1}7b-3[8:3]/8b-4[8:3],
{1}1-5[8:3]/2-6[8:3],
{4}7,7,7/8,7/8,
{4}6,5,4/6,,
{4}3h[4:1],4,4,,
{4}6h[4:1],5,5,,
{4}4,4,5,5,
{4}4x/5x,4x/5x,3x/6x,,
{1}1b-5[8:3]/2b-6[8:3],
{1}7-3[8:3]/8-4[8:3],
{4}2,2,1/2,1/2,
{4}3,4,3/5,,
{4}6,6,7,7,
{4}8,8,1,1,
{4}2,2,3,3,
{1}4h[4:3]/5h[4:3],
{4}3x/6x,3x/6x,2x/7x,2x/7x,
{1}1bpp4[4:5]/8bqq5[4:5],
{1},
{1}7z3[8:7],
{2},2,
{1}1s5[8:7],
{2},6,
{1}7<3[2:1],
{4}2x,1,1/8,2b/7b,
{4}3h[4:1],4,4,,
{4}6h[4:1],5,5,,
{4}3h[4:1],4,4,,
{2}5h[4:1]/6h[4:1],5/6,
{4}7,7,8,,
{4}2,2,1,,
{4}8,8,1,1,
{1}2/7,
{1}B5/B6,
{1}B7/B8,
{1}B1/B2,
{1}B3/B4,
{1}6<1[8:3],
{1}2>5[8:3],
{4}6,6,5/6,,
{4}3/4,3h[4:1]/4h[4:1],,,
{4}4,4,5,5,
{1}4>1[2:1]/5<8[2:1],
{1},
{1}7h[2:1]/8h[2:1],
{4}1/2,1/2,3/8,,
{4}7,7/8,2,1/2,
{4}3,4,3/5,,
{4}6h[4:1],5,5/6,,
{4}3h[4:1],4,3/4,,
{4}5,5,4,4,
{4}4x/5x,4x/5x,3x/6x,,
{1}1b-5[8:3]/2b-6[8:3],
{1}7-3[8:3]/8-4[8:3],
{4}2,1/2,7,7/8,
{4}6x,4x/5x,3x/6x,,
{4}6,6,7,7,
{4}8,8,1,1,
{4}2,2,3,3,
{1}4/5-1[8:3],
{4}2,1,8,7,
{4}6,5,4,3,
{1}4b/5b,
{4}3,3,3/4,,
{4}6,6,5,5,
{4}4,4,3/5,,
{4}2,2,1/2,,
{4}7,7,7/8,,
{1}1pp4[4:5]/8qq5[4:5],
{1},
{1}C1f,
{1},
{1},
{1},
E
&inote_4=
(155){1},
{4},,,4x/5x,
{8}3,,2/4,,5,5,4/6,,
{4}3,2/4,5-8[4:1],,
{4}2h[4:1],4h[4:1],5h[4:1],7,
{4}7x-3[4:1],,,2,
{8}4,,5/7,,4,4,3/5,,
{8}6,,5/7,,4,4,3/5,,
{16}1b,,,,,,,,,,,,,,,6xh[16:7],
{8},,,4x,,,3/5,,
{8}2h[1:1],,4,,5,5,4,,
{8}5-8[4:1],5,,,3-6[4:1],3,,,
{4}8h[2:1],,5,4,
{8}3/5,,2/4,,1/5,1/5,,,
{8}7h[4:3],,5,,4,4,5,,
{8}3,3,4,,6,6,5,,
{4}4/7,4/7,3/6,2q3[2:1]/5,
{4},,,8,
{4}8-4[4:1],,,2,
{4}1-5[4:1],,,7,
{4}8p4[4:1],,,2,
{8}1<4[2:1],,,,,,,8,
{8}8h[4:1],,1,,3,3,4,,
{8}6,6,5,5,4,,3h[4:5],,
{1}C1hf[4:5],
{4},,,2/7,
{16}2x/7x,,,3x/6x,,,4x/5x,,4b/5b,,,,,,,,
{16}1h[8:1]/7h[8:1],,,2h[8:1]/8h[8:1],,,1/7,,,,3,,2/4,,,,
{16}3h[8:1]/5h[8:1],,,4h[8:1]/6h[8:1],,,3/5,,,,6,,5/7,,,,
{8}3<6[4:1],3,,,7>2[4:1],7,,,
{8}3,3h[4:1],,8x,,6,4/6,,
{16}3/5,,,,3,,,2x/4x,,,,,6,,,5x/7x,
{16},,,,3,,,2x/4x,,,,,6,,,,
{4}8h[4:1],6h[4:1],5h[4:1],4,
{16}1x/8x,,,2x/7x,,,3x/6x,,,,,,8b,,,,
{16}2h[8:1]/8h[8:1],,,1h[8:1]/7h[8:1],,,2/8,,,,6,,5/7,,,,
{16}4h[8:1]/6h[8:1],,,3h[8:1]/5h[8:1],,,4/6,,,,3,,2/4,,,,
{8}6>3[4:1],6,,,2<7[4:1],2,,,
{16}6x,,,5x/7x,,,4x/8x,,,,1/2,,3/8,,,,
{4}7h[2:1],5,2h[2:1],4,
{4}6h[2:1],8,3h[2:1],1,
{4}8h[4:1],6h[4:1],5,4/5,
{4}3h[1:1],6,6,4,
{16}5,,,4x/6x,,4x/6x,,4x/6x,,,3/5,,3q5[4:3]/5,,,,
{1},
{4}B6,E8,B3,E2,
{4}8,7,6,5,
{4}4,3/5,2h[4:1]/6h[4:1],,
{4}E6,B7,E4,B2,
{4}5,4,3,2,
{8}1>4[4:1],,,,,,6,6xh[8:5],
{8},5,5,4,3,,1b,,
{16}6,,5,,4,,,,2h[16:3],,,3h[16:3],,,4,,
{16}7h[16:3],,,6h[16:3],,,5,,4h[16:3],,,3h[16:3],,,2,,
{8},1,1,,1/2,,3/4,,
{4}5/6,7/8,1-5[4:1],,
{8}6,6,4,4,5,5,3h[4:1],,
{8}4V26[8:3],4,,,,,,1xh[4:1],
{16},,8,,8,,,,5x/7x,,,4x/6x,,,3x/5x,,
{8}3-7[4:1]/5-1[4:1],,,,,,,8,
{4}8<5[4:1],,,2,
{4}1>4[4:1],,,6,
{4}5<8[4:1],,,2,
{1}1s5[2:1],
{1}7h[1:1],
{4}5h[4:3],,,4,
{8}3/6,,2,2,4,,7,7,
{4}5,C1f/B3/B6,,,
{16}8x,,,8x,,,8x,,1h[4:1],,,,3>4[4:3],,,,
{1},
{2},C1,
{4}1b,,,4/5,
{16}3h[8:1]/8h[8:1],,,1h[8:1]/6h[8:1],,,3x/8x,,,,5,,4/6,,,,
{8}3<6[4:1],3,,,7>2[4:1],7,,,
{8}3,3h[4:1],,8x,,6,4/6,,
{16}3/5,,,,3,,,2x/4x,,,,,6,,,5x/7x,
{16},,,,3,,,2x/4x,,,,,6,,,,
{4}8h[4:1],6h[4:1],5h[4:1],4,
{16}3x/6x,,,4x/5x,,,2x/7x,,,,,,1x,,,,
{16}3h[8:1]/8h[8:1],,,1h[8:1]/6h[8:1],,,3x/8x,,,,5,,4/6,,,,
{16}2h[8:1]/5h[8:1],,,4h[8:1]/7h[8:1],,,2x/5x,,,,4,,3/5,,,,
{8}6>3[4:1],6,,,2<7[4:1],2,,,
{16}6x,,,5x/7x,,,4x/8x,,,,1/2,,3/8,,,,
{4}7h[2:1],5,2h[2:1],4,
{4}6h[2:1],8,3h[2:1],1,
{4}8h[4:1],6h[4:1],5,4/5,
{4}3h[1:1],6,6,4,
{16}5,,,4x/6x,,4x/6x,,4x/6x,,,3/5,,3/5,,,,
{16}3/5,,,4x/6x,,4x/6x,,4x/6x,,,3/5,,3>6[4:3]/5,,,,
{1}C1f,
{4}6,5/7,4>1[4:1],,
{4}7h[4:1],5h[4:1],4h[4:1],2,
{8}2x-6[4:1],,,,,,7,7,
{8}5,,2/4,,5,5,4/6,,
{8}3,,2/4,,5,5,4/6,,
{16}8b,,,,,,,,,,,,,,,3xh[16:7]/6xh[16:7],
{8},,,,4,4,7<3[8:3],,
{4}C1f,,,1-5[8:1],
{1},
{1},
{1},
E
&inote_5=
(155){1},
{16},,,,,,,,,,,,4,,4,5h[16:3],
{16},,3,,6,,6,5h[16:3],,,7,,3,,3,4h[16:3],
{16},,2,,5,,5-1[8:1],4h[16:3],,,,,,,,,
{16}B7/E8/4,,,,B3/E4/6,,,,B6/E6/2,,,,B2/E2/8,,,1x/7xh[16:3],
{16},,8,,7,,1/6,1b/6b,,,,,6,,6,5h[16:3],
{16},,7,,3,,3,4h[16:3],,,2,,7,,7,8h[16:3],
{16},,6,,2,,2-6[8:1],1h[16:3],,,,,,,1x/5x,4x/8x,
{16}3x/7x,,,,,,,,,6xh[8:1],,5,6,,,4x/7x,
{16},,2x/5x,,3xh[8:1],,4,3,,8x,8x,1,8x,,,,
{8}3<6[8:1],,7-3[8:1],,2<7[8:1],,6,6,
{16},,2,,2h[16:3],,,3h[16:3],,,4,,5<4[2:1],,6,,
{8}7,,,,,,6,5x/7x,
{8},6,5,4,3,2b/4b,,,
{16}4x/5x,,3,4,3,,2/5,,1h[16:3],,,2h[16:3],,,3,,
{16},,6,5,6,,4/7,,8h[16:3],,,7h[16:3],,,6,,
{8}1x/8x,2,4,2,1/8,7,5,7,
{16}1/8,,2/7,,3/6,,1/8<5[8:1],1/8,,,2x,3x,4x,,,,
{8}2xh[8:5]/7b,,,,,4,2,3,
{8}4h[8:3],,,5h[8:3],,,4,5,
{8}7h[8:5],,,,,5,7,6,
{16}4h[16:3],,,3h[16:3],,,2,,2>5[8:1],,,,6,,,,
{8}8-6[8:1],8,5,5,4-2[8:1],4,1,1,
{8}8-2[8:1],8,3,3,4-6[8:1],4,7,7,
{32}E6,E5,E4,,,,,,,,,,,,,,,,,,,,,,,,,,,,,,
{4}B1/E1/B5/E5,C1f/B3/E3/B7/E7,,,
{16}1/2,,,7/8,,,4/5,,4-1[8:1]/5-8[8:1],,,,,,,,
{16}2V48[4:1]/7x,,,7x-5[16:1],,,7x,,,,1,,2,,3,,
{16}4V26[4:1]/7x,,,7x-1[16:1],,,7x,,,,5,,4,,3,,
{8}1/2,8,6/7,5,3/4,2,1/8>7[4:1],7,
{8}6h[8:3],,,B1/C1f/B2,,,,,
{16}4/6,,3/5,,2h[8:1],,1,3x/8x,,,4/6,,7h[8:1],,8,1x/6x,
{16},,3/5,,1h[8:1],,8,2x/7x,,,2/4,,3/5,,4/6,,
{4}5/7>2[8:1],3-7[8:1],6>3[8:1],2,
{16}5/7,,,2/4,,,1b>4[8:1]/8b,,,,7x,6x,5x,,,,
{16}2x/7V51[4:1],,,2x-4[16:1],,,2x,,,,8,,7,,6,,
{16}2x/5V73[4:1],,,2x-8[16:1],,,2x,,,,4,,5,,6,,
{8}7/8,1,2/3,4,5/6,7,1/8,2/7,
{16}3/6,,,1<6[8:1]/8>3[8:1],,,1b/8b,,,,4/5,,3/6,,2/7,,
{4}1-5[8:1]/8,1x/6<1[8:1],3<6[8:1]/6x,3x/8-4[8:1],
{4}3>8[8:1]/8x,3x/6>3[8:1],1w5[8:1]/6x,1x,
{16}7h[16:3],,,6h[16:3],,,5,,2h[16:3],,,3h[16:3],,,4,,
{4}4-1[8:1]/5x,4x/5-8[8:1],4-1[8:1]/5x,4x/5,
{16}2h[8:1]/7h[8:1],,,2/7,,3/6,,4>1[8:1]/5<8[8:1],,,,,,,,,
{12}2h[2:1]/7,,,,,,4,,4,3,,3,
{12}5h[4:1],,,4h[4:1],,,6,,6,5h[4:1],,,
{12}7h[4:1],,,6h[4:1],,,5,,5,4,,4,
{4}6h[4:1],5h[4:1],4h[4:1],3h[4:1],
{12}7xh[4:1],,,5h[4:1],,,4,,4,2,,2h[3:1],
{4},8h[4:1],6h[4:1],4h[4:1],
{24}5x,,,,,,E2,,E3,,E4,,E8,,E7,,E6,,C1,,,4x/5x,,,
{16},,3/6,,3/6,,3/6,,4,5,,5,4b,,,,
{8}3,4,5,6,7<4[8:1]/8h[16:3],,,3,
{16}1h[16:3]/2>5[8:1],,,,,,6,,7/8,,,2/3,,,5/6,,
{8}4,3,4,2/5,6,5,6,4/7,
{8}3,2,1,8,2h[16:3]/7-3[8:1],,,,
{16}2/4,,3,,4,,6,6,5,,7,,6,,3,3,
{16}4,,2,,3>6[4:1],,6,6,,,,,,,8h[4:1],,
{8},1,2,3,4,5,6,7,
{16}1/8,,1/8,,1/8,,2/7,2-5[8:1]/7-4[8:1],,,,,,,,,
{16}3h[16:3],,,4p6[4:1],,,5h[8:3],,,,,,,,,,
{16}6h[16:3],,,5q3[4:1],,,4h[8:3],,,,,,,,,,
{16}3h[16:3],,,4>6[8:3],,,5h[8:3],,,,,,,,,,
{16}6h[16:3],,,5<3[8:3],,,4h[8:3],,,,,,,,,,
{32}B4,C1,B8,,,,,,,,,,,,,,,,,,,,,,,,,,,,,,
{32}B1,C1,B5,,,,,,,,,,,,,,,,,,,,,,4/6,,,,3/5,,,,
{16}2,,2,5,,5,4,,4,7,,7,1,,1x/8x,,
{4}1xpp4[2:1]/8xqq5[2:1],1b/8b,,,
{48}4/5,,,,,,,,,3/6,,,,,,,,,2/7,,,,,,E2,,,,E3,,,,E4,,,,E8,,,,E7,,,,E6,,,,
{1}C1xh[1:1],
{1},
{16}8h[4:3],,,,,,,,,,,,1,8,1,8,
{16}2x/7x,,3,2x/4x,,6,5x/7x,,8,,1/8,,2/7,,3/6,,
{8}4/5x,2,4x/5,7,5/6x,1,3x/4,8,
{16}5x/7x,,1x/8x,,2x/4x,,6,5x/7x,,3,2x/4x,,1b/8b,,,,
{16}3/5,,4/6,,7h[8:1],,8,1x/6x,,,3/5,,2h[8:1],,1,3x/8x,
{16},,4/6,,8h[8:1],,1,2x/7x,,,5/7,,4/6,,3/5,,
{4}2x/4-8[8:1],1-5[8:1]/4x,1x/7>2[8:1],3x/7x,
{16}2/4x,,,5x/7,,,1b/8b<5[8:1],,,,2x,3x,4x,,,,
{16}1x/8x,,6,5x/7x,,3,2x/4x,,1/8,,1,8,1,,2/7,,
{16}4x/5x,,7,6x/8x,,2,1x/3x,,4/5,,3/6,,2/7,,1/8,,
{8}2x-6[8:1],2,1x-5[8:1],1,8x-4[8:1],8,7x-3[8:1],7,
{16}B1/B2/E2,,,B5/B6/E6,,,4b/8b,,,,3/4,,2/5,,1/6,,
{4}7-3[8:1]/8,1>4[8:1]/7x,1x/6<1[8:1],2-6[8:1]/6x,
{4}2x/8<5[8:1],3>8[8:1]/8x,3x/5w1[8:1],5x,
{16}2h[16:3],,,3h[16:3],,,4,,7h[16:3],,,6h[16:3],,,5,,
{4}4x/5<8[8:1],4>1[8:1]/5x,4x/5-1[8:1],4/5x,
{16}3h[8:1]/8h[8:1],,,3/8,,4/7,,5/6,,6,5,6,5,,3/8,,
{16}1h[8:1]/6h[8:1],,,1/6,,2/5,,3/4,,3,4,3,4,,1/6<3[8:5],,
{16}1b,,,,2,,,,3,,,,4,,4,6h[16:3],
{16},,8,,5,,5-1[8:1],3h[16:3],,,,,,,,,
{16}B2/E3/5,,,,B6/E7/3,,,,B3/E3/7,,,,B8/E8/1,,,2xh[16:3]/4x,
{16},,1,,7/8,,1/5,1b/5b,,,,,3,,3,4h[16:3],
{16},,2,,6,,6,5h[16:3],,,7,,2,,2,1h[16:3],
{16},,3,,7,,7-3[8:1],8h[16:3],,,,,,,4x/8x,1x/5x,
{16}2b/6b,,,,,,,,,3xh[8:1],,4,3,,,2x/5x,
{16},,4x/7x,,6xh[8:1],,5,6,,1x,1x,8,1x>8[8:5],,,,
{16}C1f,,,,,,,,,,,,5,5,4,6,
{1},
{1},
{1},
E
