&title=アルティメットセンパイ
&wholebpm=145
&artist=ピノキオピー
&des=サファ太
&shortid=11274
&genre=niconicoボーカロイド
&cabinet=DX
&version=maimai DX Splash PLUS
&chartconverter=Neskol
&lv_2=2
&des_2=
&lv_3=6
&des_3=
&lv_4=9
&des_4=畳返し
&lv_5=13
&des_5=サファ太
&des_6=
&inote_2=
(145){1},
{1},
{1},
{1},
{1},
{1}1,
{1}1,
{1}2,
{1}2,
{1}3,
{1}3,
{1}4,
{2}4x/5x,4x/5x,
{1}4x/5x,
{1}5,
{1}6,
{1}6,
{1}7,
{1}7,
{1}8,
{1}8,
{1}8-5[4:3],
{1},
{1}4-1[4:3],
{1},
{2}8b,8,
{1}8,
{2}7,7,
{1}7,
{2}6,6,
{1}6,
{2}5,5,
{1}4/5,
{2}4,4,
{1}4,
{2}3,3,
{1}3,
{2}2,2,
{1}2,
{2}1,1,
{2}1/8,1/8,
{1}1h[1:1]/8h[1:1],
{1},
{2}1x,1x,
{4}8x,8x,1x/8x,,
{1}2h[1:1],
{1},
{1}3h[1:1],
{1},
{1}4h[1:1],
{1},
{1}5h[1:1],
{1},
{1}6h[1:1],
{1},
{1}E6,
{1}E5,
{1}E4,
{1}E3,
{1}E2,
{1}E1,
{1}E8,
{1}E7,
{1}E6,
{1}C1hf[1:1],
{1},
{2}1,1,
{2}2,2,
{2}3/4,3/4,
{2}5/6,5/6,
{2}7,7,
{2}8,8,
{4}8,8,8,,
{2}7,7,
{4}6,6,6,,
{2}5/6,5/6,
{4}4,4,4,,
{2}3,3,
{4}2,2,2,,
{4}1/8,1/8,1x/8x,,
{4}2/7,2/7,2x/7x,,
{4}3/6,3/6,3x/6x,,
{1}4h[1:1]/5h[1:1],
{1},
{1}B4/B5,
{1}C1xh[4:3],
{1},
{1},
{1},
E
&inote_3=
(145){1},
{1}2pp5[8:9],
{1},
{1}6<1[8:3],
{4}2,2,1/8,,
{4}2,2,1/2,,
{4}7,7,7x/8x,,
{4}2,2,1/2,,
{4}8,8,1x/7x,,
{4}6,6,5/6,,
{4}3,3,3x/4x,,
{4}6,6,5/6,,
{4}4,4,3/5,,
{4}2h[4:1],1,1,,
{4}7h[4:1],8,8x,,
{4}2h[4:1],1,1,,
{2}7h[4:1]/8h[4:1],7x/8x,
{4}6h[4:1],5,5,,
{4}3h[4:1],4,4x,,
{4}6h[4:1],5,5,,
{2}3h[4:1]/4h[4:1],3x/4x,
{2}B2,B1,
{2}B8,B7,
{2}B6,B5,
{2}3x,3x/4x,
{4}2b,2,1/2,1/2,
{4}7b,7,7/8,7/8,
{4}6,6,5,5,
{4}4,4,3/5,,
{4}6b,6,5/6,5/6,
{4}3b,3,3/4,3/4,
{4}2,2,1,1,
{4}1/8,1/8,2x/7x,,
{4}1/2,1/2,1h[4:1]/2h[4:1],,
{4}7/8,7/8,7h[4:1]/8h[4:1],,
{4}5/6,5/6,5h[4:1]/6h[4:1],,
{4}3/4,3/4,2/5,,
{4}2b,2,1/2,1/2,
{4}3,4,3/5,,
{4}6,6,7,7,
{4}1x/8x,2x/7x,3x/6x,4x/5x,
{1}4b>1[8:3]/5b<8[8:3],
{1}C1f,
{2}7xh[4:1]/8xh[4:1],1h[4:1]/2h[4:1],
{4}1/8,1/8,2b/7b,,
{4}B6,B5,E5,,
{4}B3,B4,E5,,
{4}B6,B7,E8,,
{4}B3,B2,E2,,
{4}E8,B7,B6,,
{4}E2,B2,B3,,
{4}E7,B6,B5,,
{4}E3,B3,B4,,
{4}6x,6x,5x/6x,,
{4}4/5,4/5,3/6,,
{1}2h[1:1],
{1}1h[1:1],
{1}8h[1:1],
{1}7,
{1}6h[1:1],
{1}5h[1:1],
{1}4h[1:1],
{1}3>6[1:1],
{1},
{1}4x>1[8:3]/5x<8[8:3],
{1}C1f,
{4}8x,8x,1/8,1/8,
{4}7,6,5/6,,
{4}7b,7/8,7,7/8,
{4}6,5,4/6,,
{4}3,3,2,2,
{4}1/8,1/8,2x/7x,,
{4}3/4,3/4,3h[4:1]/4h[4:1],,
{4}5/6,5/6,5h[4:1]/6h[4:1],,
{4}7/8,7/8,7h[4:1]/8h[4:1],,
{4}1/2,1/2,3/8,,
{4}3b,3/4,3,3/4,
{4}2,1,2/8,,
{4}7,7,6,6,
{4}5x,4x,3x,2x,
{4}1x,8x,7x,6x,
{4}4x/5x,3x/6x,2x/7x,1x/8x,
{1}1bpp4[8:9]/8bqq5[8:9],
{1},
{4}6,6,5/6,,
{4}4/5,4/5,3xh[4:1]/6xh[4:1],,
{1},
{1},
{1},
E
&inote_4=
(145){1},
{1}C1,
{1}E1,
{2}1,2,
{4}3,4,3/5,,
{4}4/5,6,4/5,3,
{4}4/5,6,7,6,
{4}2/7,8,2/7,1,
{4}2/7,8,2,3,
{4}3/6,4/5,3/6,4/5,
{4}3/6,4/5,2/6,3/7,
{2}3h[2:1],4h[2:1],
{4}5h[4:1],6h[4:1],5,,
{4}3/4,4/5,5/6,B7/B8/E8,
{4}5/6,4/5,3/4,B1/B2/E2,
{4}3/5,4/6,8,1/7,
{4}2/8,1,8h[4:1],1h[4:1],
{4}8h[4:5],B1/B2/E2,,B2/B3/E3,
{4},B3/B4/E4,,B4/B5/E5,
{2}7-3[4:1],2-6[4:1],
{4}8h[4:1],1h[4:1],8,,
{1}2>6[4:3],
{4}7,5/6,4/5,,
{1}7<3[4:3],
{4}2,3/4,4/5,C1,
{4}2b/7b,1-4[4:1]/8-5[4:1],,,
{4}7b/8b,5-2[4:1]/6-1[4:1],,,
{4}1/2,2/8,2/7,2/6,
{4}2x/5x,3-8[4:1]/4-7[4:1],,,
{4}1b/8b,2-6[4:1]/3-7[4:1],,,
{4}5/6,6-3[4:1]/7q4[4:1],,,
{4}1/8,2/8,3/8,4/8,
{2}5h[4:1]/8h[4:1],2b,
{4}3/8,1<6[4:1]/2>5[4:1],,,
{4}1/6,7<4[4:1]/8>3[4:1],,,
{4}2/7,1>4[4:1]/8<5[4:1],,,
{8}6h[4:1]/8h[4:1],,,,1/7,8x,8x,,
{4}1h[4:1]/2b,8h[4:1],7,1/8,
{8}1h[4:1]/3h[4:1],,,,2/8,1x,1x,,
{4}3/4h[4:1],5h[4:1],6,4/5,
{4}1b/3b,6/8,2/4,5/7,
{1}3>6[2:1]/4p5[2:1],
{8},,,,,,,2x,
{8}3x,,,7x,6x,,,1x,
{8}1x,8x,8x,1,8b,,,,
{8}2/4,,3x,4x,,,B2/B3/E3,,
{8}5/7,,6x,5x,,,B6/B7/E7,,
{8}1/3,,2x,1x,,,B2/B3/E3,,
{4}1/8,1/8,2/7,3/6,
{8}8h[4:1],,1x,1x,,,7/8,,
{8}1h[4:1],,8x,8x,,,1/2,,
{8}3h[4:1],,4,4,,,5/7,,
{8}6h[4:1],,5,5,,,2/4,,
{8}2x,2x,1xh[4:1],,2x,,1x/8x,,
{8}7x,8x,7x,,C1,,,,
{1}1>5[2:1],
{1}8<4[2:1],
{2}3h[2:1],4h[2:1],
{2}5h[2:1],6,
{1}7<3[2:1],
{1}2>6[2:1],
{2}8h[2:1],1h[4:1],
{2}C1,2h[2:1]/7h[2:1],
{4},,,7/8,
{4}1b/2b,3>8[4:1]/5,6h[4:1],,
{4}7b/8b,4/6<1[4:1],3h[4:1],,
{4}2h[4:1],1h[4:1],8h[4:1],7h[4:1],
{4}6,1>4[4:1]/7,6h[4:1],,
{4}6b/8b,1/7-3[4:1],2h[4:1],,
{4}2/4,2z6[4:1]/8,7h[4:1],,
{4}5/6h[4:1],5h[4:1],4h[4:1],3h[4:1],
{8}4h[4:1],,5,,7b,,1x,8x,
{4}1x,7q5[4:1]/8>4[4:1],,,
{4}7/8,1<5[4:1]/2p4[4:1],,,
{4}1/2,7<3[4:1]/8p2[4:1],,,
{8}1h[4:1]/4h[4:1],,,,3/4,2x,2x,,
{4}7b/8h[4:1],1h[4:1],2,1/8,
{8}5h[4:1]/8h[4:1],,,,5/6,7x,7x,,
{4}5h[4:1]/6,4h[4:1],3,4/5,
{4}6b/8b,1/3,5/7,2/4,
{4}1b/8b,4/5,2/3,6/7,
{4}7b/8b,3/4,1/2,5>7[2:3]/6h[4:7],
{1},
{1},
{2}8,1,
{4}2,3/4,5/6,C1,
{1},
{1},
{1},
E
&inote_5=
(145){1},
{4}4h[16:11]/5,5,5h[8:3],,
{8},4,4h[16:7],5,5h[16:3],,,,
{4}3h[4:1],4h[4:1],5h[4:1],6h[2:1],
{4}5,4,3-5[8:1]/5h[4:1],,
{16}7,,,,6,,,,5/6,,,4/5,,,3/4,,
{8}2,2,4,3,B1/E1/B8,,B4/B5/E5,,
{16}2/7,,,,3,,,,3/4,,,4/5,,,5/6,,
{8}7,7,5,5,E6,E5,E8,E1,
{16}6h[4:1],,,,5h[4:1],,,,6,,,4/5,,,3/4,,
{8}2,2,4,3,E5,E4,C1,B2,
{16}7h[16:3],,,6h[16:3],,,5,,2h[16:3],,,3h[16:3],,,4,,
{4}4v2[8:1],7-5[8:1],3x,C1,
{8}6,6h[8:1],5,7,5,5h[8:1],7,5,
{8}8v3[8:1],8,5v2[8:1],5,7v4[8:1],7,3,2,
{8}1,1h[8:1],4,2,4,4h[8:1],2,4,
{8}3-8[8:1],3,7s3[8:3],7,1x,1x,1x,1x,
{8}2,2h[8:1],1,3,1,1h[8:1],3,1,
{8}4v2[8:1],4,7v5[8:1],7,3x,3x,3x,3x,
{8}2-4[8:1],2,4,5,6v4[8:1],6,3,2,
{8}2v5[8:1],5,7-4[8:1],8,4,,3/5,,
{8}4h[1:1],,,,,,E5,E4,
{4}6h[1:1],,,B3/B4,
{8}5h[4:3],,,,,E7,E6,,
{4}3x/5x,5x/7x,4/8-4[8:1],1b,
{16}3,5,2,6,1-5[8:1],7,1,8,1x,,6x,,4x/7x,,,,
{16}3,5,2,6,1-5[8:1],7,1,8,1x,,6x,,4x/7x,,,,
{16}7,5,,3,4,,2/5,,6h[8:1],,8h[8:1],,1h[8:1],,3,,
{16}6,5,7-4[8:1],4,8-3[8:1],3,7,,8,,7x,,2b/8b,,,,
{16}3,4,2,5,1-5[8:1],6,8,7,1x,,6x,,3x/7xh[4:1],,,,
{8}4>1[8:1],7<4[8:1],4,7,1x,B5/B6,B2/B3,,
{8}8-2[8:1],8,3-5[8:1],3,6-8[8:1],6,1,2,
{16}3x/8x,,6,5,,3,4,,1,8,1,,2b/7b,,,,
{16}3,4,3,4,3v8[8:1],,5,,3b/6x,,,,3x/7x,,3x/7x,,
{16}8,2,8,2,8<5[8:1],,3,,4x/8b,,,,2x/6x,,2x/6x,,
{16}7,8,7,8,7-2[8:1],,6,,5/7b,,,,1,,,,
{8}5h[8:1]/7h[8:1],,2h[8:1]/4h[8:1],,4/5,E6/E7,E2/E3,,
{16}6,5,7,4,8-4[8:1],3,1,2,8,,,,3/5,,4/6,,
{16}5/7,,6,5,,3,4,,2/6,,1b/7b,,2b/8b,,,,
{16}7,5,7,5,6,4,6,4,5,3,6,2,7-4[8:1],,,,
{4}3-7[8:1]/7x,3x/5-1[8:1],2-6[8:1]/5x,2x/8pp3[1:1]*qq5[1:1],
{1}8b,
{8},,,,,,,6x,
{8}5x/7h[8:3],,,3x,2h[8:3]/4x,,,6x,
{8}5x/7,2x,1/4x,7x,5x/8h[4:1],,C1,,
{8}1-5[8:1],,6,7,6x-2[8:1]/8x-4[8:1],,6/8,,
{8}1x>4[8:1],1,5<8[8:1],5,1,1,2,3/8,
{8}4/7-3[8:1],4,3,2,2-6[8:1]/5,5,6,7,
{8}5-1[8:1]/8,5,7-3[8:1],7,2,2x,1x/2x,,
{8}8x-4[8:1],,3,2,1x-5[8:1]/3x-7[8:1],,1/3,,
{8}8x<5[8:1],8,3>8[8:1],3,5<8[8:1],5,2,2,
{8}1x-5[8:1],1,3,2,1-5[8:1],1,6,7,
{8}8-4[8:1],8,2,1,8-4[8:1],8,5,6,
{8}4x/7,3,2/5>1[4:1],6,7,7,8,8,
{8}1,2,3/8>5[4:1],7,6h[2:1],,,,
{1}C1xh[1:1]/B4/B5,
{1}8h[2:5],
{1}4>1[8:3],
{1}1h[2:3],
{1}C1xh[1:1]/B4/B5,
{1}1>4[8:3],
{4}E5,C1,E1,E3/E7,
{2}C1f,1x/8x,
{16}6,6,5,7h[8:1],,1,,1,,4/5,4/5,,2>7[2:1]/7,,1/8,,
{4},,8p4[8:1]*q5[8:1],8x,
{16}3x/6x,,2,1,,7,8,,4-1[8:1]/5-8[8:1],,3/6,,,,,,
{16}2x/7x,,3,4,3,,6,5,7,,2,4,3,,2/6,,
{16}7,8,6-1[8:1],1,5-2[8:1],2,6,,5,,7x,,4x/8x,,,,
{16}2,1,3,8,4-8[8:1],7,5,6,4,,5x,,1x/7xh[4:1],,,,
{8}4>1[8:1],7v4[8:1],4,7,1x,B5/B6/E6,B2/B3/E3,,
{8}7>2[8:1],7,4-8[8:1],4,5-1[8:1],5,4,3,
{16}2/8,,6,5,,3,4,,7,8,7,,2b/6b,,,,
{16}1-5[8:1],5,1,5,1<6[8:1]*>4[8:1],,,,1b,,,,3x/7x,,,,
{16}8-4[8:1],4,8,4,8<5[8:1]*>3[8:1],,,,8b,,,,2x/6x,,,,
{16}1-5[8:1],5,1,5,1w5[8:1],,,,1b,,,,3x/7x,,,,
{16}6,5,,2,1,,7,8,6,,1b/5b,,3b/7b,,,,
{16}2,1,3,8,4-8[8:1],7,5,6,4,,,,1x/7x,,2/6,,
{16}3/5,,2,4,,7,5,,1/6,,3b/8b,,1b/6b,,,,
{16}2,4,3,5,4,6,5,7,1,8,1,8,1-5[8:1],,,,
{4}1x/6<1[8:1],2>5[8:1]/6x,2x/7-3[8:1],4-8[8:1]/7b,
{4}4x/6<1[8:1],2-6[8:1]/6x,2x/7-3[8:1],1-5[8:1]/7b,
{4}1b/6<1[8:1],4-8[8:1]/6b,4b/7-3[8:1],1bpp4[4:5]*qq6[4:5]/7b,
{1}1b,
{1},
{16}3h[4:1],,,,4h[4:1],,,,3,,,4/5,,,5/6h[4:1],,
{8},5,5,4,3/6-2[8:1],,,,
{1},
{1},
{1},
E
