&title=もぺもぺ
&wholebpm=100
&artist=LeaF & Optie
&des=さふぁた
&shortid=11282
&genre=ゲームバラエティ
&cabinet=DX
&version=maimai DX Splash PLUS
&chartconverter=Neskol
&lv_2=3
&des_2=
&lv_3=8
&des_3=
&lv_4=12+
&des_4=シチミヘルツ
&lv_5=13+
&des_5=さふぁた
&des_6=
&inote_2=
(100){1},
{1},
{1},
{1},
{2}1,1,
{1}1,
{2}8,8,
{1}8,
{2}1,2,
{2}3,4/5,
{2}5,6,
{2}7,1/8,
{4}8,8,8,,
{4}7,7,7,,
{4}6,6,6,,
{4}5,5,4/5,,
{4}4,4,4,,
{4}3,3,3,,
{4}2,2,2,,
{4}1,1,1/8,,
{1}1h[4:3]/8h[4:7],
{1},
{4},1,1,1,
{4},2,2,2,
{4},3,3-7[2:1],,
{1},
{4},8-5[1:1],,,
{1},
{4},4-1[1:1],,,
{1},
{4},8h[4:1],,8,
{4},7h[4:1],,7,
{4},6h[4:1],,6,
{4},4h[4:1]/5h[4:1],,4/5,
{4},4b,4,3,
{4}3,2,2,1b/2b,
{4},8b,8,7,
{4}7,6,6,5b/6b,
{4},5b,5,6,
{4}6,7,7,1/8,
{4}1/8,2,2,3,
{4}3,4,4,4b/5b,
{4},E6,,E5,
{4},E4,,,
{4},B3,,C1,
{4},B6,,,
{4},C1xh[8:3],,,
{1},
{1},
{1},
E
&inote_3=
(100){1},
{1},
{1},
{1},
{4}3h[4:1],4,6h[4:1],5,
{4}3h[4:1],4h[4:1],5h[4:1],6,
{4}7h[4:1],8,2h[4:1],1,
{4}7h[4:1],8h[4:1],1h[4:1],2,
{4}3,3/4,6,5/6,
{4}3,3/4,5,4/6,
{4}7,7/8,2,1/2,
{4}7,7/8,1/8,2b/7b,
{8}3,3,4,,6,6,5,,
{8}3,3,4,4,5,5,4/6,,
{8}7,7,8,,2,2,1,,
{8}7,7,8,8,1,1,2/7,,
{4}3h[4:1],4h[4:1],5h[4:1],6x,
{4}7h[4:1],8h[4:1],1h[4:1],2x,
{4}3h[4:1],4h[4:1],5h[4:1],6x,
{4}4/7,2/5,3/6,C1,
{4},1xs5[4:5]*z5[4:5],,,
{1},
{4},B3,B1/E2,B6,
{4}B8/E8,B3,B4,B5,
{4}B6,8xs4[4:5]*z4[4:5],,,
{1},
{8},,,,,,,3x/4x,
{16},,,,3xh[8:1]/4xh[8:1],,,,,3x/4x,,,3xh[4:1]/4xh[4:1],,,,
{8},,2,2,1,1,8,8,
{16}7,,7,,6,6,6,,5,5,5,,4,4,4,,
{16}3b/6b,,,,2,,1/2,,3,3,3,,4,,3/4,,
{16}2/5,,,,6,,5/6,,7,7,7,,8,,7/8,,
{16}1/6,,,,1/2,,3/8,,4,4,4,,5/6,,4/7,,
{16}8,8,8,,1/8,,2/7,,3,3,3,,5,,4/5,,
{4}3b/6b,B3/B4,B1/B2,B7/B8,
{4}B5/B6,B3/B4,B1/B2,B7/B8,
{4}C1f,B1/B8,B2/B3,B4/B5,
{4}B6/B7,B1/B8,B2/B3,B4/B5,
{4}C1f,8x<5[4:1],,4>1[4:1],
{4},8<5[4:1],,4,
{4}4/5,3<6[4:1],,7>2[4:1],
{4},3<6[4:1],,7,
{4}1b/8b,7h[4:1],8,2h[4:1],
{4}1,7h[4:1],8,1,
{4}2/8,3h[4:1],4,6h[4:1],
{4}5,4,4/5,3/6,
{8},,C1,,,8x-4[8:1],,,
{1},
{1},
{1},
E
&inote_4=
(100){1},
{1},
{2}6h[2:1],5h[2:1],
{4}4h[2:1],,3,2x/5x,
{16}3,,3,,4,,5,,6,6,5,,5/7,,6,6,
{16}4,,5,5,3h[8:1],,4,,3,,2,,2/4,,,,
{16}3,,3,,4,,5,,6,6,5,,5/7,,6,6,
{16}4,,5,5,3h[8:1],,4,,3,,2,,1/5,,,,
{8}2>5[16:3],2,,,6<1[16:3],6,,,
{8}2-6[16:3],2,,,8,,8,,
{8}7<4[16:3],7,,,3>8[16:3],3,,,
{8}7-3[16:3],7,,,1,,2/6,,
{16}7h[8:1],,5,5,6,,4,,5,5,3,,2/4,,3,3,
{16}5,,4,4,6h[8:1],,5,,6,,7,,6/8,,,,
{16}7h[8:1],,5,5,6,,4,,5,5,3,,2/4,,3,3,
{16}5,,4,4,6h[8:1],,5,,6,,3/7,,3/7,,,,
{8}8-5[16:3],8,,,4-1[16:3],4,,,
{8}7-2[16:3],7,,,3-6[16:3],3,,,
{8}8,8h[4:1],4,4h[4:1],6,6h[4:1],2,2h[8:1],
{16}4,4,,3/5,3/5,,4/6,,1/8,,2/7,,3h[4:1]/6h[32:9],,,,
{32},,,,,1q4[32:51]/8-5[32:51],,,,,,,,,,,,,,,,,,,,,,,,,,,
{1},
{16},,,,3,,3,,4,,5,,6,6,5,,
{16}5/7,,6,6,4,,5,5,3h[8:1],,4,,3,,2,,
{8}2/4,,2,3h[1:0],3s7[4:5]/4h[1:0],,,,
{1},
{64}3qq4[4:15],,,,,,,,,,,,,,,,,,,,,,,,,,,,,,,,,,,,,,,,,,,,,,,,,,,,,,E8,B7,B6,,,,,,,,
{64},,,,,,,,,,,,,,,,E7,B6,B5,,,,,,,,,,,,,,,,E8,B7,B6,,,,,,,,,,,,E7,B6,B5,,,,,,,,,,,,,,
{12}C1xh[8:1],,,8h[4:1],,,,7xh[6:1],,,6xh[6:1],,
{12},,,8h[4:1],,,,7xh[6:1],,,6xh[6:1],,
{16},,,,2/4,3,4/5,3,2/4,,1,,5/7,6,4/5,6,
{32}5/7,,,,8,,,,E2,B1,B8,E8,E4,B4,B5,E6,C1,,,,8,,,,1/2,,3,,4/5,,3,,
{16}1/2,,8,,7/8,6,4/5,6,7/8,,1,,2/4,3,4/5,6,
{16}5/7,,8,,5/7,6,4/5,3,2/4,,1,,2/7,,,,
{4}8-5[8:1],1b-4[8:1],6b-3[8:1],7b-2[8:1],
{4}4b-1[8:1],5b-8[8:1],2b-7[8:1],3b-6[8:1],
{4}1b-6[8:1],7b-4[8:1],5b-2[8:1],3b-8[8:1],
{4}1b-6[8:1],7b-4[8:1],5b-8[8:1],3b,
{4}1bv6[8:1],2bv7[8:1],3bv8[8:1],4bv1[8:1],
{4}5bv2[8:1],6bv3[8:1],7bv4[8:1],8bv5[8:1],
{4}2bv4[8:1],3bv5[8:1],4bv6[8:1],5bv7[8:1],
{4}6bv8[8:1],7bv1[8:1],8b-4[8:1],1b,
{4}2b/7b,6h[4:1],,3h[4:1]/4,
{4},6h[4:1],,3h[4:1]/4,
{4},7h[4:1],,2h[4:1]/4h[4:1],
{4},8h[4:1],,2x/7x,
{32}E7,,,,C1,,,,E3,,,,,,,,,,,8h[32:5],,,7,6,5,4b,3,2,1,8,,,
{1},
{1},
{1},
E
&inote_5=
(100){1},
{1},
{16}3,5,3,5,4,6,4,6,3,5,3,5,4,6,4,6,
{16}5,6,5,6,4,5,4,5,3,4,3,4,3,5,4,5,
{8}4/5,6,4/5,3,4/5,6,4/5,2,
{8}3/4,5,3/4,2,3/4,5,4/6,,
{8}4/5,3,4/5,6,4/5,3,4/5,7,
{8}5/6,4,5/6,7,5/6,4,3/5,,
{16}4/5,,6,5,6,,4/7,,3,4,3,4,3,,2/5,,
{16}3/4,,5,4,5,,3/6,,4,,7,,2/8,,,,
{16}4/5,,3,4,3,,2/5,,6,5,6,5,6,,4,5,
{16}4,,3,4,3,,2/5,,3/6,,7,,2/8,,,,
{8}3/5,7,4/6,2,3/5,7,4/6,2,
{8}3/5,6,3qq2[4:1]/5pp6[4:1],2,,,,,
{8}4/6,2,3/5,7,4/6,2,3/5,7,
{8}4/6,3,4qq3[4:1]/6pp7[4:1],7,,,,,
{16}6,5,6,4,5,4,5,3,4,3,4,2,4,3,4,2,
{16}5,3,4,2,6,4,5,3,7,5,6,4,6,5,7,7,
{16}3,4,3,5,4,5,4,6,5,6,5,7,5,6,4,5,
{16}4,4,,3/5,3/5,,2/6,,1/7,,2/8,,1h[4:1]/7h[8:3],,,,
{32},1h[32:3],,,,1s5[32:51]/7-3[32:11],,,,,,,,,,,,,,,,,,,,,,,,,,,
{1}3-7[8:3],
{8},,4/5,6,4/5,3,4/5,6,
{8}4/5,3,4/5,5/6,4/5,3/4,4/5,5/6,
{8}4/5,3/6,4/5h[32:1],6,4h[32:1]/5h[64:3],3h[32:1],4h[32:1]/5h[64:1],6h[32:1],
{384}4h[64:1]/5h[48:1],,,,,,,,,,,,,,,,,,,,,,,,,,,,,,,,,,,,,,,,,,,,,,,,3h[48:1],,,,,,,,,,,,,,,,,,,,,,,,,,,,,,,,,,,,,,,,,,,,,,,,4h[48:1],5h[384:11],,,,,,,,,,,,,,,,,,,,,,,,,,,,,,,,,,,,,,,,,,,,,,,5h[48:1]/6h[24:1],,,,,,,,,,,,,,,,,,,,,,,,,,,,,,,,,,,,,,,,,,,,,,,,5h[16:1],4h[128:5],,,,,,,,,,,,,,,,,,,,,,,,,,,,,,,,,,,,,,,,,,,,,,,3h[24:1]/4h[32:1],,,,,,,,,,,,,,,,,,,,,,,,,,,,,,,,,,,,,,,,,,,,,,,,4h[48:1],5h[128:5],,,,,,,,,,,,,,,,,,,,,,,,,,,,,,,,,,,,,,,,,,,,,,,5h[48:1],6h[128:5],,,,,,,,,,,,,,,,,,,,,,,,,,,,,,,,,,,,,,,,,,,,,,,
{64}4h[128:3]/5p4[2:3],,,,,,,,3h[48:1]/6h[24:1],,,,,,,,4/5,,,,,,,,,,,,,,,,,,,,,,,,,,,,,,,,,,,,,,B8,B7,B6,,,,,,,,
{64},,,,,,,,,,,,,,,,B1,E2,E3,,,,,,,,,,,,,,,,C1hf[32:7],,,,,,,,,,,,,,,,,,,,,,,,,,,,,,
{192}1x,,,,,,8x,,,,,,1x,,,,,,8x,,,,,,1x,,,,,,8x,,,,,,1x,,,,,,8x,,,,,,2b,,,,,,3,,,,,,4,,,,,,5,,,,,,6,,,,,,7,,,,,,8,,,,,,1,,,,,,2b,,,,,,,,3,,,,,,,,4,,,,,,,,5,,,,,,,,6,,,,,,,,7,,,,,,,,8b,,,,,,,,,,,,,1,,,,,,,,,,,,2,,,,,,,,,,,,3,,,,,,,,,,,
{32}4b,,,5,,,6,,5h[32:1]/7h[32:1],,5h[32:1]/7h[32:1],,5h[32:1]/7h[32:1],,5h[32:1]/7h[32:1],,4h[32:1]/5h[32:1],,4h[32:1]/5h[32:1],,4h[32:1]/5h[32:1],,4h[32:1]/5h[32:1],,2h[32:1]/4h[32:1],,2h[32:1]/4h[32:1],,2h[32:1]/4h[32:1],,2h[32:1]/4h[32:1],,
{32}3h[32:1]/5h[32:1],,3h[32:1]/5h[32:1],,3h[32:1]/5h[32:1],,,,7xh[32:1],5h[32:1],7h[32:1],5h[32:1],6h[32:1],4h[32:1],6h[32:1],4h[32:1],5xh[32:1],3h[32:1],5h[32:1],3h[32:1],4h[32:1],2h[32:1],4h[32:1],2h[32:1],5xh[32:1],1h[32:1],5h[32:1],1h[32:1],6h[32:1],2h[32:1],6h[32:1],2h[32:1],
{32}7xh[32:1],3h[32:1],7h[32:1],3h[32:1],8h[32:1],,,,2xh[32:1],4h[32:1],2h[32:1],4h[32:1],3h[32:1],5h[32:1],3h[32:1],5h[32:1],4xh[32:1],6h[32:1],4h[32:1],6h[32:1],5h[32:1],7h[32:1],5h[32:1],7h[32:1],6xh[32:1],8h[32:1],6h[32:1],8h[32:1],5h[32:1],7h[32:1],5h[32:1],7h[32:1],
{32}4h[32:1],6h[32:1],4h[32:1],6h[32:1],5h[32:1],,,,7xh[32:1],1h[32:1],7h[32:1],1h[32:1],5h[32:1],3h[32:1],5h[32:1],3h[32:1],8xh[32:1],2h[32:1],8h[32:1],2h[32:1],6h[32:1],4h[32:1],6h[32:1],4h[32:1],5xh[32:1],3h[32:1],5h[32:1],3h[32:1],7h[32:1],1h[32:1],7h[32:1],1h[32:1],
{32}6xh[32:1],2h[32:1],5h[32:1],3h[32:1],4h[32:1],,,,2xh[32:1],5h[32:1],2h[32:1],5h[32:1],3h[32:1],4h[32:1],3h[32:1],4h[32:1],2xh[32:1],6h[32:1],2h[32:1],6h[32:1],3h[32:1],7h[32:1],3h[32:1],7h[32:1],5xh[32:1],6h[32:1],5h[32:1],6h[32:1],4h[32:1],7h[32:1],3h[32:1],8h[32:1],
{384}2x-6[16:1],,,,,,,,,,,,,,,,,,,,,,,,,,,,,,,,,,,,,,,,,,,,,,,,,,,,,,,,,,,,,,,,,,,,,,,,,,,,,,,,,,,,,,,,,,,,,,,,2b/7b-3[16:1],C1f,,,,,,,,,,,,,,,,,,,,,,,,,,,,,,,,,,,,,,,,,,,,,,,,,,,,,,,,,,,,,,,,,,,,,,,,,,,,,,,,,,,,,,,,,,,,,,,2b-6[16:1]/7b,C1f,,,,,,,,,,,,,,,,,,,,,,,,,,,,,,,,,,,,,,,,,,,,,,,,,,,,,,,,,,,,,,,,,,,,,,,,,,,,,,,,,,,,,,,,,,,,,,,2b/7b-3[16:1],C1f,,,,,,,,,,,,,,,,,,,,,,,,,,,,,,,,,,,,,,,,,,,,,,,,,,,,,,,,,,,,,,,,,,,,,,,,,,,,,,,,,,,,,,,,,,,,,,,
{384}2b-6[16:1]/7b,C1f,,,,,,,,,,,,,,,,,,,,,,,,,,,,,,,,,,,,,,,,,,,,,,,,,,,,,,,,,,,,,,,,,,,,,,,,,,,,,,,,,,,,,,,,,,,,,,,2b/7b-3[16:1],C1f,,,,,,,,,,,,,,,,,,,,,,,,,,,,,,,,,,,,,,,,,,,,,,,,,,,,,,,,,,,,,,,,,,,,,,,,,,,,,,,,,,,,,,,,,,,,,,,2b-6[16:1]/7b,C1f,,,,,,,,,,,,,,,,,,,,,,,,,,,,,,,,,,,,,,,,,,,,,,,,,,,,,,,,,,,,,,,,,,,,,,,,,,,,,,,,,,,,,,,,,,,,,,,2b/7b-3[16:1],,C1f,,,,,,,,,,,,,,,,,,,,,,,,,,,,,,,,,,,,,,,,,,,,,,,,,,,,,,,,,,,,,,,,,,,,,,,,,,,,,,,,,,,,,,,,,,,,,,
{384}2bv7[16:1]/7b,C1f,,,,,,,,,,,,,,,,,,,,,,,,,,,,,,,,,,,,,,,,,,,,,,,,,,,,,,,,,,,,,,,,,,,,,,,,,,,,,,,,,,,,,,,,,,,,,,,C1f/2b/6bv3[16:1],,,,,,,,,,,,,,,,,,,,,,,,,,,,,,,,,,,,,,,,,,,,,,,,,,,,,,,,,,,,,,,,,,,,,,,,,,,,,,,,,,,,,,,,,,,,,,,,C1f/2bv7[16:1]/6b,,,,,,,,,,,,,,,,,,,,,,,,,,,,,,,,,,,,,,,,,,,,,,,,,,,,,,,,,,,,,,,,,,,,,,,,,,,,,,,,,,,,,,,,,,,,,,,,C1f/2b/6bv3[16:1],,,,,,,,,,,,,,,,,,,,,,,,,,,,,,,,,,,,,,,,,,,,,,,,,,,,,,,,,,,,,,,,,,,,,,,,,,,,,,,,,,,,,,,,,,,,,,,,
{4}C1f/2bv7[16:1]/6b,C1f/2b/6bv3[16:1],C1f/2bv7[16:1]/6b,C1f/2b/6bv3[16:1],
{8}C1f/1b-5[16:1]/6b,,C1hf[1:0]/1b/5b-1[16:1],4/6,C1hf[1:0]/2b-6[16:1]/5b,,C1hf[1:0]/2b/6b-2[16:1],5/7,
{8}C1hf[1:0]/3b-7[16:1]/6b,,C1hf[1:0]/3b/7b-3[16:1],6/8,C1hf[1:0]/4b-8[16:1]/7b,,C1hf[1:0]/4b/8b-4[16:1],1/7,
{8}C1hf[1:0]/5b-1[16:1]/8b,,C1hf[1:0]/1b-5[16:1]/5b,2/8,C1hf[1:0]/1b/6b-2[16:1],,C1hf[1:0]/2b-6[16:1]/6b,1/3,
{8}C1hf[1:0]/2b/7b-3[16:1],,C1hf[1:0]/3b-7[16:1]/7b,2/4,C1hf[1:0]/3b/8b-4[16:1],,C1hf[1:0]/4b/8b,3/5,
{4}B1/C1hf[1:0]/E1/B2/E2/B3/E3/B4/E4/B5/E5/B6/E6/B7/E7/B8/E8,4h[8:1]/6h[8:1],3h[8:1]/5h[8:1],4h[8:1]/6h[16:3],
{4}3h[8:1]/5h[8:1],4h[8:1]/6h[8:1],3h[8:1]/5h[8:1],4h[8:1]/6h[16:3],
{4}3h[8:1]/5h[8:1],5h[8:1]/6h[8:1],3h[8:1]/4h[8:1],5h[8:1]/6h[16:3],
{4}3h[8:1]/4h[8:1],5h[8:1]/6h[8:1],3h[8:1]/4h[8:1],4/5,
{32}E7,,,,C1,,,,E3,,,,,,,,,,,1-5[32:3],6h[32:1],4h[32:1],7h[32:1],3h[32:1],8h[64:1],2h[64:1],1h[96:1],B1,C1,B5,,,
{1},
{1},
{1},
E
