&title=emomomo
&wholebpm=145
&artist=Ras
&des=はっぴー
&shortid=11212
&genre=ゲームバラエティ
&cabinet=DX
&version=maimai DX Splash
&chartconverter=Neskol
&lv_2=4
&des_2=
&lv_3=7
&des_3=
&lv_4=10+
&des_4=小鳥遊さん
&lv_5=13+
&des_5=はっぴー
&des_6=
&inote_2=
(145){1},
{1}1h[1:1],
{1},
{1}8h[1:1],
{1},
{2}1,1,
{2}2,2,
{2}3,3,
{2}4,4x/5x,
{4}5,5,5,,
{4}6,6,6,,
{1}7h[2:1],
{1}7h[2:1],
{4}8,8,8,,
{4}1,1,1,,
{1}2h[2:1],
{1}2h[2:1],
{4}3,3,3,,
{4}4,4,4,,
{2}5h[4:1],4h[4:1],
{4}5,5,4/6,,
{4}3,3,3/4,,
{4}6,6,5/6,,
{2}4h[4:1],5h[4:1],
{4}4,4,3/5,,
{1}3-8[4:3],
{1},
{1}7-4[4:3],
{1},
{1}2-5[4:3],
{1},
{1}6-1[4:3],
{1},
{2}2,2,
{2}3,3,
{2}4,4,
{4}5,5,4/5,,
{2}6,6,
{2}7,7,
{2}8,8,
{4}1,1,1b/8b,,
{1}1-4[4:3],
{1},
{1}5-8[4:3],
{1},
{1}8-5[4:3],
{1},
{1}4-1[4:3],
{1},
{1}B1,
{1}B8,
{1}B2,
{1}B7,
{1}B4/B5,
{1}B3/B6,
{1}C1hf[1:1],
{1},
{4}8,8,8,,
{4}7,7,7,,
{4}6,6,5,5,
{4}4,4,3/5,,
{4}4,4,4,,
{4}3,3,3,,
{4}2,2,1,1,
{4}8,8,1x/7x,,
{4}1,1,1,,
{4}2,2,2,,
{4}3,3,4,4,
{4}5,5,4/6,,
{4}5,5,5,,
{4}6,6,6,,
{4}7,7,8,8,
{4}1,1,2b/8b,,
{1}1,
{1}1,
{1}8,
{1}8,
{2}2,1/2,
{2}7,7/8,
{2}1,1/8,
{1}1-4[4:3]/8-5[4:3],
{1},
{1},
{1},
E
&inote_3=
(145){1},
{1}3h[1:1]/5h[1:1],
{2},3/5,
{1}4h[1:1]/6h[1:1],
{2},4/6,
{2}6h[2:1],5,
{2}3h[2:1],4,
{2}6h[2:1],5,
{2}4/5,3x/6x,
{4}3,3,4,4,
{2}5,4/6,
{4}3,3,3/4,,
{4}6,6,5/6,,
{4}7,7,8,8,
{2}1,2/8,
{4}7,7,7/8,,
{4}2,2,1/2,,
{4}3,3,4,4,
{4}5,6,5/6,,
{4}3,3,2/4,,
{4}6,6,5/7,,
{4}6,6,7,7,
{4}8,8,1/8,,
{4}2,2,1,1,
{2}1/8,2x/7x,
{2}2h[2:1],3h[2:1],
{2}4,5,
{2}7h[2:1],6h[2:1],
{2}5,4/5,
{2}2h[2:1],3h[2:1],
{2}4,4/5,
{1}3h[2:1]/6h[2:1],
{4}4/5,4/5,3x/6x,,
{2}2h[2:1],3h[2:1],
{2}4h[2:1],5h[2:1],
{2}6h[2:1],7h[2:1],
{2}8,7/8,
{2}7h[2:1],6h[2:1],
{2}5h[2:1],4h[2:1],
{2}3h[2:1],2h[2:1],
{2}1,1x/8x,
{1}2bq5[4:5],
{1},
{1}6q1[4:5],
{1},
{1}2pp5[4:5],
{1},
{2}6h[2:1],5h[2:1],
{2}4,4x/5x,
{2}E4,B2,
{4}E3,B3,B4,,
{2}E6,B7,
{4}E7,B6,B5,,
{2}B3/B4,B5/B6,
{2}B2/E2,B7/E8,
{1}C1hf[1:1],
{1},
{8}1/8,,2,,3,3,3,,
{8}4/5,,6,,7,7,7,,
{4}7/8,1/6,1/2,3/8,
{4}1/8,2/7,3/6,3/6,
{8}7,7,7,,6,,5,,
{8}4,4,4,,3,,2,,
{4}2/4,3,5/7,6,
{4}3/4,3/4,2b/5b,,
{8}3,3,4,,2/5,,2/5,,
{8}6,6,5,,4/7,,4/7,,
{4}3/6,2/5,3/6,4/7,
{4}5/6,5/6,4b/7b,,
{8}2,2,1,,3/8,,3/8,,
{8}7,7,8,,1/6,,1/6,,
{4}2/7,3/8,2/7,1/6,
{4}7/8,5/6,3/4,2x/5x,
{1}1b>7[4:5],
{1},
{1}8<2[4:5],
{1},
{2}1h[2:1],2h[2:1],
{2}3h[2:1],4h[2:1],
{2}5h[2:1],6h[2:1],
{2}4h[8:7],C1xh[8:3],
{1},
{1},
{1},
E
&inote_4=
(145){1},
{1}2x-6[8:3]/5x,
{16}5/7,,,,6,,,,5h[16:3],,,4h[16:3],,,3,,
{1}2>6[8:3],
{4}5/6,3/4,4/5,1/8,
{1}2x/7x-3[8:3],
{16}2/4,,,,3,,,,4h[16:3],,,5h[16:3],,,6,,
{1}7<3[8:3],
{4}1w5[4:1],,,1b/7b,
{8}3x/4x,,2,2,1/3,,4/5,,
{8}8,7,1/6,,4,3,2/5,,
{4}1/8-6[8:1],5,1-5[8:1]/2,4,
{8}2,2,5,5,1,2,3/8,,
{8}5x/6x,,7,7,6/8,,4/5,,
{8}1,2,3/8,,5,6,4/7,,
{4}1-3[8:1]/8,4,7/8-4[8:1],5,
{8}7,7,4,4,8,7,1/6,,
{8}3x/4x,,2,2,1/3,,5/6,,
{8}3/8,7,1/6,,4/7,3,2/5,,
{4}1-5[8:1]/8,6,1-5[8:1]/2,4,
{8}2,2,5,5,1,2,3/8,,
{8}5x/6x,,7,7,6/8,,3/4,,
{8}1/6,2,3/8,,2/5,6,4/7,,
{4}1/8-4[8:1],3,7/8-4[8:1],5,
{8}6,6,3,3,4/5,,2b/7b,,
{1}3h[2:7]/8<4[2:1],
{4}E4,E5,E6,E7,
{1}8z4[2:1],
{4}E4,C1,E8,2/5,
{1}1>5[2:1]/6h[2:7],
{4}E6,E5,E4,E3,
{1}1s5[2:1],
{4}E1,E5,C1f,,
{8}1/2,,3,3,4,,1/5,,
{16}3/4,,,,1/2,,,,3h[16:3],,,4h[16:3],,,5,,
{8}5,,6,6,5,,4/8,,
{16}7h[16:3],,,6h[16:3],,,5,,3,,3,,2/4,,,,
{8}1/2,,3,3,4,,2/5,,
{16}3/4,,,,1/2,,,,3h[16:3],,,4h[16:3],,,5,,
{8}5,,6,6,5,,4/7,,
{8}B2/B3/E3,,B6/B7/E7,,4x/5x,4x/5x,4x/5x,,
{1}2b<3[2:3]/7b,
{1},
{1}5h[1:1],
{2}3h[2:1],8h[2:1],
{1}4>5[2:3]*q5[2:3],
{1},
{4}E8,E7,E6,E5,
{4}E4,E3,E2,1b/8b,
{16}2h[16:3],,,3h[16:3],,,4h[16:3],,,5,,,3/6,,,,
{16}7h[16:3],,,6h[16:3],,,5h[16:3],,,4,,,3/6,,,,
{16}1h[16:3],,,2h[16:3],,,3h[16:3],,,4,,,2/5,,,,
{16}8h[16:3],,,7h[16:3],,,6,,5,,5,,4/6,,,,
{4}1/2,2/3,3/4,4/5,
{4}5/6,6/7,7/8,1/8,
{8}2,3,4,5,6,7,8,1,
{4}2h[2:1],,B4/B5,C1f/E3/E7,
{8}8x-4[8:1],8,1-3[8:1],1,7-5[8:1],7,1,,
{2}3-1[8:1]/4-8[8:1],4-8[8:1]/5-7[8:1],
{4}2-7[8:1],5,6-3[8:1],1,
{8}2,2,5,6,7/8,,2b/5b,,
{8}1x-5[8:1],1,8-6[8:1],8,2-4[8:1],2,8,,
{2}5-1[8:1]/6-8[8:1],4-2[8:1]/5-1[8:1],
{4}7-2[8:1],4,3-6[8:1],8,
{8}7,7,4,3,1/2,,4b/7b,,
{8}2x-4[8:1],2,6-8[8:1],6,1-5[8:1],1,7,,
{2}1-7[8:1]/2-6[8:1],2-6[8:1]/3-5[8:1],
{4}8-4[8:1],2<7[8:1],6>3[8:1],1,
{8}2/8,3,4/5,6,7/8,,2b/5b,,
{8}7x-5[8:1],7,3-1[8:1],3,8-4[8:1],8,2,,
{2}7-3[8:1]/8-2[8:1],6-4[8:1]/7-3[8:1],
{4}1-5[8:1],7>2[8:1],3<6[8:1],8,
{16}1/7,,6,,4/5,,3,,2x/4x,,,5x/7x,,,1x/8x,,
{1}2b/7b>5[4:3],
{2}3h[2:1],C1xh[2:1],
{1}1<3[4:3],
{4}5h[2:1],,C1,1/8,
{16}2h[16:3],,,4h[16:3],,,5h[16:3],,,7,,,4/8,,,,
{16}7h[16:3],,,5h[16:3],,,4h[16:3],,,2,,,1/5,,,,
{8}8,8,1,1,2/7,,4v2[4:1]/5v7[4:1],,
{2},1-5[8:1]/8-4[8:1],
{1},
{1},
{1},
E
&inote_5=
(145){1},
{48}1,,,,,,,,,,,,3/5,,,,,,6,,5,,,,,,,4/7,,,,,,3/5,,,,,,1/4,,,,,,,,,
{48}6,,,,,,,,,,,,5/7,,,,,,3,,4,,,,2/5,,,,,,,,,4/7,,,,,,,,,2/6,,,,,,
{48}8,,,,,,,,,,,,4/6,,,,,,3,,4,,,,,,,2/5,,,,,,4/6,,,,,,5/8,,,,,,,,,
{48}3,,,,,,6,,,5,,,,,,2,,,1,,,,,,5/6,,,,,,4/7,,,,,,3,,4,,3,,4,,,,,,
{48}1/5h[4:1],,,,,,,,,,,,1,,,,,,E2,,B2,,B3,,B7,,B6,B5,,,,,,1,,,,,,2/8,,,,,,,,,
{48}3/5h[4:1],,,,,,,,,,,,3,,,,,,E4,,B4,,B5,,7h[16:3],,,,,,,,,6h[16:3],,,,,,,,,5,,,,,,
{48}4h[4:1]/8,,,,,,,,,,,,8,,,,,,E8,,B7,,B6,,B2,,B3,B4,,,,,,8,,,,,,1/7,,,,,,,,,
{48}4/6,,,,,,3,,,4,,,,,,7,,,8,,,,,,4/6,,,,,,3/7,,,,,,1,,8,,,,2/7,,,,,,
{16}4/6,,3,3,5,,7,,4/6,,1,,3/5,,7,,
{16}4/6,,3,3,5,,7,,4/6,,1,,3>1[8:1]/5,,5,,
{8}4,5,4/6<8[8:1],4,5,4qq5[8:3],5,5,
{8}6,6,6,6,B7/E8,B2/E2,E6,E4,
{16}3/5,,6,6,4,,2,,3/5,,8,,4/6,,2,,
{16}3/5,,6,6,4,,2,,3/5,,8,,4/6<8[8:1],,4,,
{8}5,4,3>1[8:1]/5,5,4,5pp4[8:3],4,4,
{8}3,3,3,3,B2/E2,B7/E8,E4,E6,
{16}4/6,,3,3,5,,6h[8:1],,4,4,5,3,7,,5,,
{16}4/6,,3,3,5,,7,,6,6,4,5,3>1[8:1],,5,,
{8}4,5,4/6<8[8:1],4,5,4qq5[8:3],5,5,
{8}6,6,6,6,B7/E8,B2/E2,E6,E4,
{16}3/5,,6,6,4,,3h[8:1],,5,5,4,6,2,,4,,
{16}3/5,,6,6,4,,2,,3,3,5,4,6<8[8:1],,4,,
{8}5,4,3>1[8:1]/5,5,4,5pp4[8:3],4,4,
{8}3,3,3,3,E4,E5,E6,,
{8}3h[2:1]/4-1[8:1],,4,,,8,4,,
{24}5-8[8:1]/6h[2:1],,,,,,5,,,,,,,,,3,,,5,,5,4,,,
{8}3h[2:1]/4-1[8:1],,4,,,8,4,,
{24}5-8[8:1]/6h[2:1],,,,,,5,,,,,,,,,3,,,5,,5,4,,4,
{8}5<8[8:1],,3h[4:1]/5,,,8,4,,
{24}5-8[8:1]/6h[2:1],,,,,,5,,,,,,,,,3,,,5,,5,4,,,
{8}3h[2:1]/4-1[8:1],,4,,,8,4,,
{16}5/6,,7,8,,3,4,,2x/5x,,2x/5x,,4x/7x,,2x/5x,,
{16}1,8,2,7,1,8,3,6,E2,E8,E3,E7,B1,B8,E4,E6,
{16}1,8,3,6,2,7,4,5,E2,E8,E4,E6,B1,B8,B3,B6,
{16}4,5,2,7,4,5,3,6,E4,E6,E3,E7,B3,B6,E2,E8,
{16}1,8,2,7,1,8,3,6,E2,E8,E3,E7,E4,E6,B3,B6,
{16}1,8,2,7,1,8,3,6,E2,E8,E3,E7,B1,B8,E4,E6,
{16}1,8,3,6,2,7,4,5,E2,E8,E4,E6,B1,B8,B3,B6,
{16}4,5,2,7,4,5,3,6,E4,E6,E3,E7,B3,B6,E2,E8,
{16}1,8,3,6,1,8,3,,4/5,,6/7,,1p8[1:3]/8<1[1:3],,2/3,,
{1}1b/8b,
{1},
{1},
{1},
{16}E1,B8,C1,B4,E5,,,,,,5h[16:3],,,,,,
{16}E1,B1,C1,B5,E5,,,,,,4h[16:3],,,,,,
{16}E5,B4,C1,B8,E1,,,,,,4/5,,4/5,,,,
{16}3h[8:1]/6h[8:1],,,4/5,,3,3,4,2,5,4,7,5b,,,,
{4}1/8h[2:1],E5,1h[2:1],E5,
{4}8h[2:1],E5,1h[2:1],E5,
{4}8h[2:1],B4/E5,1h[2:1],B5/E5,
{4}8h[2:1],B4/E4/E5,1h[2:1],B5/E5/E6,
{8}8,7,6,5,1,2,3,4,
{16}5,5,6,6,7,7,8,8,1,1,2,2,3,3,4,4,
{32}5x,6,7,8,1,2,3,4,5x,6,7,8,1,2,3,4,5x,6,7,8,1,2,3,4,5x,6,7,8,1,2,3,4,
{16}C1f,,,,,,,,B2,C1,B6,,1b/8b-5[8:1],,,,
{16}8-4[8:1],,3,3,8-6[8:1],,1,,8,5,5,,4/7,,8,,
{16}3,3,4,,2/5qq5[4:1],,6,6,,8,8,,6,,7,,
{16}8<4[4:1],,4,4,,2,2,,1>5[4:1],,5,5,,7,7,,
{16}8<4[4:1],,4,4,,2,2,,1,,2/6,,1b-4[8:1]/8b,,,,
{16}1-5[8:1],,6,6,1-3[8:1],,8,,1,4,4,,2/5,,1,,
{16}6,6,5,,4pp4[4:1]/7,,3,3,,1,1,,3,,2,,
{16}1>5[4:1],,5,5,,7,7,,8<4[4:1],,4,4,,2,2,,
{16}1>5[4:1],,5,5,,7,7,,8,,3/7,,1b/8b-5[8:1],,,,
{16}8-4[8:1],,3,3,8<6[8:1],,1,,8-5[8:1],4,4,,3/8-4[8:1],,1,,
{16}8-6[8:1],3,3,,4/8-5[8:1],,2,2,8,,1,,3/6,,7,,
{16}8V64[4:1],,4,4,,2,2,,1V35[4:1],,5,5,,7,7,,
{16}8V64[4:1],,4,4,,2,2,,1,,2/6,,1b-4[8:1]/8b,,,,
{16}1-5[8:1],,6,6,1-3[8:1],,8,,1,4,4,,1/8-5[8:1],,2,,
{16}8-4[8:1],3,3,,1/8-6[8:1],,2,2,8,,4,,1-4[8:1]/8,,7,,
{16}1-5[8:1],,6,6,1-3[8:1],,7,,1,5,5,,1-5[8:1]/8-4[8:1],,2/7,,
{8},,1/8,2-5[8:1]/7-4[8:1],4>1[8:1]/5<8[8:1],,,,
{16}4h[16:3]/6,,,6,,,5,,,3,4,2,3,,E1,,
{16},6,5,7,7h[8:1],,5,6,,,5,,7,,8,,
{16}2,2,4,3h[16:3],,,8h[16:3],,,5,,,4/6,,2,,
{16}1>4[8:1],,,4,,,5,,6,6,5,7,4,5,3,,
{16}2x/6xh[16:3],,,3,,,4,,,6,5,7,6,,E1,,
{16},3,4,2,2h[8:1],,4,3,,,4,,2,,1,,
{16}7,7,5,6h[16:3],,,1h[16:3],,,4,,,3/5,,6,,
{48}2/7,,,,,,1,,,8,,,,,,,,,3/6,,,,,,E8,,,,,,E2,,,,,,B6,,B5,,B4,,B3,,,,,,
{1},
{1},
{1},
E
