&title=c.s.q.n.
&wholebpm=174
&artist=Aoi
&des=七味星人
&shortid=11210
&genre=ゲームバラエティ
&cabinet=DX
&version=maimai DX Splash
&chartconverter=Neskol
&lv_2=5
&des_2=
&lv_3=7+
&des_3=
&lv_4=11
&des_4=サファ太
&lv_5=13+
&des_5=七味星人
&des_6=
&inote_2=
(174){1},
{1},
{1},
{1},
{1},
{2}1,1,
{2}8,8,
{2}1,1,
{1}1xh[4:3]/8xh[4:3],
{2}8,8,
{4}8,8,8,,
{2}7,7,
{4}7,7,7,,
{2}6,6,
{4}6,6,6,,
{2}5,5,
{1}4b/5b,
{1}3/4,
{1}3/4,
{1}5/6,
{1}5h[2:1]/6h[2:1],
{2}5/6,5/6,
{2}3/4,3/4,
{2}5/6,3/4,
{1}4b/5b,
{1}B3,
{1}B2,
{1}B1,
{1}B8,
{1}B7,
{1}B6,
{1}C1hf[1:1],
{1},
{4}8,8,8,,
{4}1,1,1,,
{1}2h[2:1],
{1}1h[2:1]/2h[2:1],
{4}1,1,1,,
{4}8,8,8,,
{1}7h[2:1],
{1}1/8,
{1}1-4[4:3],
{1},
{1}8-5[4:3],
{1},
{1}1-5[4:3],
{1},
{1}8-4[4:3],
{1},
{1}2-5[4:3],
{1},
{2}6,6,
{1}5/6,
{1}7-4[4:3],
{1},
{2}3,3,
{4}4x,4x,5x,5x,
{2}4,3,
{2}2,1,
{2}8,7,
{2}6,4x/5x,
{1}4h[2:1]/5h[2:1],
{1}3h[2:1]/6h[2:1],
{1}C1hf[1:1],
{1},
{4}1,1,1,,
{4}2,2,2,,
{1}3h[2:1],
{4}4,5,4,,
{4}5,5,5,,
{4}6,6,6,,
{1}7h[2:1],
{4}8,1,8b,,
{4}8,8,8,,
{4}7,7,7,,
{1}6h[2:1],
{4}5,4,5,,
{1}4-1[4:3]/5-8[4:3],
{1},
{1}C1hf[1:1],
{1},
{1}1h[2:1]/8h[2:1],
{1}2h[2:1]/7h[2:1],
{1}3h[2:1]/6h[2:1],
{1}4h[2:1]/5h[2:1],
{4}3/4,3/4,3/4,,
{4}5/6,5/6,5/6,,
{4}3/4,3/4,5/6,5/6,
{4}4,5,4,5,
{1}3/6,
{1},
{1},
{1},
E
&inote_3=
(174){1},
{1}3h[1:1],
{1}4h[1:1],
{1}5h[1:1],
{2}6,5/6,
{2}6h[2:1],5,
{2}3h[2:1],4,
{1}4h[2:1]/5h[2:1],
{4}6,5,4,3x,
{4}2,2,1,,
{4}8,8,7,,
{4}6,6,5,,
{4}4,4,4/5,,
{4}3,3,2,,
{4}8,8,7,,
{4}8,8,1,1,
{2}1h[4:1]/8h[4:1],2x/7x,
{4}3,3,4,4,
{2}5,4/6,
{4}6,6,5,5,
{2}4,3/5,
{4}2,2,1,1,
{2}8,1/7,
{4}7,7,8,8,
{2}1,2x/7x,
{1}1-5[4:3],
{4},,6,6,
{1}7-3[4:3],
{4},,2,2,
{1}2b-6[4:3],
{4},,7,7,
{1}7<2[8:7],
{2},1x/8x,
{2}2h[2:1],3h[2:1],
{4}4,4,5,,
{2}7h[2:1],6h[2:1],
{4}5,5,4,,
{2}3h[2:1],4h[2:1],
{4}5,5,5/6,,
{4}6,5,4,3,
{4}4/5,4/5,3x/6x,,
{1}C1f,
{1},
{1},
{1},
{1}4h[1:2],
{1},
{1}5h[1:1],
{4}4,3xh[2:1]/6xh[2:1],,,
{2}E4,E5,
{2}E6,E7,
{2}E8,E1,
{2}E2,E3,
{2}B4/B5,B6,
{2}B7,B8,
{2}B1,B2,
{1}C1xh[2:1],
{1}8x<5[4:3],
{2},4,
{1}4>1[4:3],
{2}8,2x/7x,
{2}3h[4:1]/4h[4:1],5h[4:1]/6h[4:1],
{2}2h[4:1]/4h[4:1],5h[4:1]/7h[4:1],
{4}6,5,4,3,
{1}2x/7x,
{4}3b,2/4,6,5/7,
{4}3,2/4,1,1/8,
{4}7,6,4/5,3/6,
{4}2,1,1/8,2/7,
{4}3,3/4,2/5,2/5,
{4}6,5/6,4/7,3/8,
{4}2,1/3,7,6/8,
{4}5,4,3b/6b,,
{8}2,2,2,,3,,4,,
{8}5,5,5,,6,,7,,
{8}8,8,8,,1,1,1,,
{4}1/8,2/7,3x/6x,,
{8}7,7,7,,6,,5,,
{8}4,4,4,,3,,2,,
{4}1/2,3/8,7/8,1/6,
{4}5,4/6,3x/7x,,
{1}6-3[2:1],
{1}2-6[2:1],
{1}7-3[2:1],
{2}1h[2:1],8b,
{8}7,,5/6,,4,4,4,,
{8}3,,1/2,,8,8,8,,
{8}1/7,1/7,1/7,,2/8,2/8,2-5[2:1]/8-5[2:1],,
{1},
{1}C1f,
{1},
{1},
{1},
E
&inote_4=
(174){1},
{4}6,6,4/6,4/6,
{4}6,6,5/6,5/6,
{4}3,3,3/5,3/5,
{4}3,3,3/4,2x/4x,
{4}3,3,3/4,3/5,
{4}3/6,6,4/6,5/6,
{2}5h[4:1]/6h[4:1],3h[4:1]/4h[4:1],
{4}E6,E5,E4,2b/7b,
{4}3/4,4,3/4,4/5,
{4}5/6,5,5/6,4/7,
{4}5/6,5,5/6,4/5,
{4}3/4,4/5,2b/7b,,
{4}3<6[8:3]/6,,7,7,
{4}3/6>3[8:3],,2,2,
{4}3/5,4/6,3/7,2/6,
{4}8b,,,3x/6x,
{4}2h[2:3],4,4,3,
{4}4,4,3,4/5,
{4}6h[4:5],5,5,7,
{4}5,5,4/7,,
{8}3,3,4,,6,6,5,,
{8}2,2,4,,3/5,,4/6,,
{8}6,6,4,4,5,5,3p6[8:3],,
{4},,8,8b,
{4}1x/7<4[8:3],,2,1h[2:1],
{4},4,8,3/7,
{4}2>5[8:3]/6x,,7,8h[2:1],
{4},5,1,2/7,
{4}3xh[4:1]/6xh[4:1],,2/4,1h[2:1],
{4},2,7/8,1/6,
{4}2h[4:1],4h[4:1],5h[4:1],7<2[2:1],
{4},,,1b/8b,
{8}3,3,5,5,3,3,8,8,
{8}4,4,7,6,4,3,3/5,,
{8}6,6,1,2,6,7,5/7-4[8:1],,
{4}1-5[8:1],8,6,1b/7b,
{8}2,2,5,6,1,2,2/8,,
{8}7,7,4,3,8,7,1/7,,
{8}2x,2x/4x,,7x,5x/7x,,4x/5x,3x/6x,
{8},1x/8x,1x>4[4:1]/8x<5[4:1],,,,,,
{1}C1f/B2/B7,
{1},
{1},
{1},
{1}4h[1:2]/5h[1:1],
{1},
{1}C1xh[1:1],
{8},,1x/8x,,,2x/7x,2b/7b,,
{2}3h[2:1],4h[2:1],
{4}E4,E3,E2/E8,,
{2}6h[2:1],5h[2:1],
{4}E6,E7,E2/E8,,
{4}E1,C1,E6,E7,
{4}E1,C1,E4,E3,
{4}E1,C1,E5,E4/E6,
{1}C1xh[4:3],
{1}1x>7[4:3]/8x,
{1}8<2[4:3],
{1}1p8[4:3],
{1}C1xh[2:1],
{8}2,2,5,5,4,4,7,7,
{8}4,4,5,5,2,2,7,7,
{16}1,8,1,8,1,8,1,8,1x,8,1,8,1,8,1,8,
{4}2b,,,4/5,
{8}3-8[8:1],3,7-4[8:1],7,1,,2/5,,
{8}6-1[8:1],6,2-5[8:1],2,8,,4/7,,
{8}3/5,4,5/7,,4/6,5,2/4,,
{4}1-5[8:1],6<3[4:1],4b,,
{8}2/7,,3,4,3/5,,4/7h[4:1],,
{8}8,,1/6,,1/2,3/8,4/7,,
{8}3,3,4,2,8,1,7h[4:1],,
{16}5x,,,4x/5x,,,2x/4x,,2x/4x,,,,1b,,,,
{8}2-5[8:1],2,6-1[8:1],6,4,,3/8,,
{8}7-4[8:1],7,3-8[8:1],3,5,,1/6,,
{8}5/7,6,3/5,,2/4,3,4/6,,
{4}5-1[8:1],2>7[4:1],8b,,
{8}1,1,6,6,4,4,8,8,
{8}3,3,1,1,8,8,6,6,
{16}4/5,,4/5,,4/5,,4/5,,3,6,3,6,3>6[2:1],6,3,6,
{4},,,2b/7b,
{4}3h[4:3],4,2,8,
{4}6h[4:3],5,7,1,
{4}2/4h[4:1],2,5h[4:1]/6,6,
{4}4/5,4/5,C1xh[4:1]/B3/B6,,
{8}1,1,7,7,4,4,6,6,
{8}3,3,4,4,2,2,7,7,
{16}1,8,1,8,1,8,1,8,2,7,2,7,2,7,2,7,
{4}1b,3bq8[4:1]/6bp1[4:1],,,
{1}C1f/E3/E7,
{1},
{1},
{1},
E
&inote_5=
(174){1},
{4}3h[4:7]/4h[1:0],4h[1:0],6h[1:0],6h[1:0],
{4}4h[1:0],4h[1:0],6h[1:0],6h[1:0],
{4}5h[1:0]/6h[4:7],5h[1:0],3h[1:0],3h[1:0],
{32}5h[1:0],,,,,,,,5h[1:0],,,,,,,,3h[1:0],,,,,,,,E4,B4,,,,,,,
{4}7h[4:7]/8h[1:0],8h[1:0],2h[1:0],2h[1:0],
{4}8h[1:0],8h[1:0],2h[1:0],2h[1:0],
{4}1h[1:0]/2h[2:1],1h[1:0],7h[1:0],2h[1:0]/7h[1:0],
{4}B1/B4/B5/B6/B7/B8,C1/E1/B4/E5/B8,B1/B2/B3/B4/E4/B5/B6/B7/B8,C1f/B3/E4/B6/E6,
{4}8x-5[8:1],5-8[8:1],8-5[8:1],4h[1:0],
{4}3-7[8:1],7-3[8:1],3-7[8:1],6h[1:0],
{4}5-1[8:1],1-5[8:1],5-1[8:1],3h[1:0],
{4}2-6[8:1],6-2[8:1],2p6[8:1]*q6[8:1],,
{8}4xh[1:0]/8xh[1:0],7h[1:0],2h[1:0]/6h[1:0],3h[1:0],4h[1:0]/8h[1:0],7h[1:0],2h[1:0]/6h[1:0],3h[1:0],
{8}4h[1:0]/8h[1:0],4h[1:0]/8h[1:0],3h[1:0]/7h[1:0],3h[1:0]/7h[1:0],2h[1:0]/6h[1:0],2h[1:0]/6h[1:0],1h[1:0]/5h[1:0],1h[1:0]/5h[1:0],
{48}6h[1:0],,,2h[1:0],,,6h[1:0],,,2h[1:0],,,7h[1:0],,,3h[1:0],,,7h[1:0],,,3h[1:0],,,8h[1:0],,,4h[1:0],,,8h[1:0],,,4h[1:0],,,7xh[1:0],,6xh[1:0],,5xh[1:0],,1xh[1:0],,2xh[1:0],,3xh[1:0],,
{4}4xpp8[8:3]*qq8[8:3]/8b,,,2b/6b,
{4}7<5[8:1],3<5[8:1],7>1[8:1],3>1[8:1],
{4}7<5[8:1],2pp4[8:1],6,3x/5x,
{8}7<5[8:1],7,3>1[8:1],3,6>4[8:1],6,2<8[8:1],2,
{8}5-8[8:1],5,4-1[8:1],4,8,,2x/7x,,
{8}5-1[8:1],4,3,2-6[8:1],8,7-5[16:1],7-1[16:1],7x-3[16:1],
{16},,,,1,1,,2/8,,,4/5,,2x/6x,,,,
{8}4-8[8:1],5,6,7-3[8:1],1,2-4[16:1],2-8[16:1],2x-6[16:1],
{48},,,,,,,,,,,,8,,,8,,,,,,1/7,,,,,,,E6,,B5,,B4,,E4,,,,,,,,,,,,,,
{4}1x>6[2:1]/6x,,6p1[8:3],7h[2:1],
{4},8,1/6,2/5,
{4}3/8<3[2:1],,3q8[8:3],2h[2:1],
{4},1,3/8,4v5[8:1]/7,
{8},,7,7,8,8,1,1,
{8}2,2,3,3,4,4,5,5,
{16}5h[8:1]/6h[8:1],,,,5h[8:1]/6h[8:1],,,,3h[8:1]/5h[8:1],,,4h[8:1]/6h[8:1],,,1/8,,
{16}2/7h[16:3],,,5,6,,4/7,,1/8,,2/7,,3b/6b,,,,
{16}2/5,,3,4,3,,4/5,,6,5,6,,4/7,,3/5,,
{16}6,5,6,5,6,,5/7,,2,4,2,4,2,,3/5,,
{16}4/7,,6,5,6,5,7,,1/8,,2/8,,2/7,,3/7,,
{16}2h[8:1]/6h[8:1],,,3h[8:1]/5h[8:1],,,4h[8:1]/6h[8:1],,,2h[8:1]/5h[8:1],,,4/5,,3/6,,
{16}2b/7b,,,,,,,,6,4,6,4,5,3,5,3,
{16}6,5,7,3,4,2,5,4h[8:1],,7h[8:1],,5,6,5,6,5,
{16}4xh[8:1]/6xh[8:1],,,4x/7x,,,3xh[8:1]/5xh[8:1],,,2x/5x,,,4x/7x,,2x/6x,,
{16}3,5,3,5,,4/6,,3/5,,2h[8:1]/4,,1,2,8,3,7,
{1}C1f,
{1},
{1}7p4[4:5],
{1},
{1}2q5[4:5],
{1},
{2}E4,E6,
{8}E5,,3b/6b,,,3b/6b,3b/6b,,
{4}7xh[1:1],E6,E7,E8,
{4}3xh[1:1],E4,E3,E2,
{4}6xh[1:1],E6,E7,E8,
{4}2xh[1:1],E4,E3,E2,
{4}8xh[1:1],E8,E7,E6,
{4}1xh[1:1],E2,E3,E4,
{4}E5,E4/E6,B3/B6,E2/E8,
{4}B1/B4/B5/B6/B7/B8,C1/E1/B4/E5/B8,B1/B2/B3/B4/E4/B5/B6/B7/B8,C1f,
{4}1xh[8:1]/8xh[8:1],1h[8:1]/2h[8:1],2h[8:1]/3h[8:1],3h[8:1]/4h[8:1],
{4}4h[8:1]/5h[8:1],5h[8:1]/6h[8:1],6h[8:1]/7h[8:1],7h[8:1]/8h[8:1],
{8}1/8,8,7/8,7,6/7,6,5/6,5,
{8}4/5,4/5,3/4,1/2,1-4[8:1]/8-5[8:1],,,,
{8}8-5[8:1],8,1-4[8:1],1,7-4[8:1],7,2-5[8:1],2,
{8}6-1[8:1],6,3-8[8:1],3,5-8[8:1],5,4-1[8:1],4,
{32}7x,,6x,,5x,,4x,,3x,,2x,,1x,,8x,,7x,6x,5x,4x,3x,2x,1x,8x,7x,6x,5x,4x,3x,2x,1x,8x,
{4}3x-6[8:3]/7x-2[8:3],,,4/8,
{16}2b/4b,,4/5,,5/7h[8:1],,8,7,1,6,2,5,3,4,2h[4:1],,
{16},,1,,4/8h[8:1],,6,8,5,7,4,6,3,5,2,4,
{16}1h[8:1],,3,,2/5,,4/8h[8:1],,6,7,4,5,2,3,1h[4:1],,
{16},,4,2,5,3,6,4,8-4[8:1],,,,2b/8b,,,,
{16}2,,3/4,,4/5,,6,5,,4/7,,6,5,,4/7h[8:1],,
{16}8,1,2,3,8,7,6,5,1,8,7,6,2,1,8,7,
{16}3,3h[16:3],,,8,,1/7h[8:1],,5,6,1,8,3,4,1,8,
{16}2/7h[16:3],,,5h[16:3],,,4,,2x/6x,,,,1b,,1b,,
{16}5/7,,4/5,,2h[8:1]/4,,1,2,8,3,7,4,6,5,7h[4:1],,
{16},,8,,1h[8:1]/5,,3,1,4,2,5,3,6,4,7,5,
{16}8h[8:1],,6,,4/7,,1h[8:1]/5,,3,2,5,4,7,6,8h[4:1],,
{16},,5,7,4,6,3,5,1,8,2,7,1,8,2,7,
{16}1/8,,1/8,,7,7h[8:1],,4,4h[8:1],,2,2h[8:1],,5,5h[8:1],,
{16}8,,1/7,,2,2h[8:1],,5,5h[8:1],,7,7h[8:1],,4,4h[8:1],,
{32}1,,5,,1,,6,,1,,7,,1,,8,,1,2,3,4,5,6,7,8,1,2,3,4,5,6,7,8,
{4}1bpp8[8:3]/5bpp4[8:3],,,2b/6b,
{8}8-4[8:1],3,3-1[8:1],,6x,,1x/8x,,
{8}1-5[8:1],6,6-8[8:1],,3x,,1x/8x,,
{8}8-4[8:1],3,3-1[8:1],,5-1[8:1],5,2-4[8:1],,
{8}7-3[8:1],7,5s1[4:1],,1w5[8:1],,,,
{8}2h[1:0]/4h[1:0],1h[1:0],5h[1:0]/7h[1:0],8h[1:0],3h[1:0]/5h[1:0],1h[1:0],4h[1:0]/6h[1:0],8h[1:0],
{16}3h[1:0],4h[1:0],3h[1:0],,8h[1:0],,5h[1:0]/6h[1:0],,3h[1:0],4h[1:0],,1/8,2b/7b,,,,
{16}8,2,5,1,7,3,5,2,6,4,5,2,8,1,8,1,
{32}7,6,5,,,,2,3,4,,,,7,6,5,,2,3,4,5,6,7,8,1,2-6[16:1],3,4,5,6,7,8,1,
{1}2x/5b,
{1},
{1},
{1},
E
