&title=Virtual to LIVE
&wholebpm=156
&artist=にじさんじ
&des=譜面-100号
&shortid=11184
&genre=POPSアニメ
&cabinet=DX
&version=maimai DX Splash
&chartconverter=Neskol
&lv_2=3
&des_2=
&lv_3=6
&des_3=
&lv_4=8+
&des_4=ものくろっく
&lv_5=12
&des_5=譜面-100号
&lv_6=12+
&des_6=はっぴー
&inote_2=
(156){1},
{1},
{1},
{1},
{1},
{1}5,
{1}5,
{1}4,
{1}4,
{1}5,
{1}5,
{1}4,
{1}4h[1:1],
{1},
{1}4b,
{2}3,3,
{1}3,
{2}2,2,
{1}2,
{2}1,1,
{1}1,
{2}8,8,
{1}1x/8x,
{1}7h[1:1],
{1},
{1}6h[1:1],
{1},
{1}5,
{1}4,
{1}3,
{1}2x,
{1}2-6[4:3],
{1},
{1}7-3[4:3],
{1},
{1}2,
{1}3,
{1}4,
{1}4x/5x,
{1}B5,
{1}B4,
{1}B5/B6,
{1}B3/B4,
{1}B5,
{1}B3,
{1}B6,
{1}C1f,
{4}8x,8,8,,
{4}7,7,7,,
{4}6,6,6,,
{1}4x/5x,
{4}4,4,4,,
{4}3,3,3,,
{4}2,2,2,,
{1}1x/8x,
{4}1x,1,1,,
{4}2,2,2,,
{4}3,3,3,,
{1}4b/5b,
{1}5h[2:1],
{1}6h[2:1],
{2}7,7,
{1}8b,
{2}8,8,
{1}7/8,
{2}6,6,
{1}5/6,
{2}4,4,
{2}3,3,
{2}2,2,
{1}1x/2x,
{4}1,1,1,,
{4}2,2,2,,
{4}3,3,3,,
{4}4,4,4/5,,
{4}6,6,6,,
{4}7,7,7,,
{4}8,8,8,,
{2}1x/8x,1x/8x,
{1}2xh[1:2]/7xh[1:2],
{1},
{1},
{1},
{1},
E
&inote_3=
(156){1},
{1},
{1},
{1},
{1},
{1}3xh[1:1],
{1}4h[1:1],
{1}5h[1:1],
{1}6,
{1}7h[1:1],
{1}8h[1:1],
{1}1h[1:1],
{1}2x,
{2}3/4,5/6,
{4}4/5,4/5,3x/6x,,
{4}7,7,7/8,,
{4}2,2,1/2,,
{4}7,7,8,8,
{4}1,1,2/8,,
{4}3,3,3/4,,
{4}6,6,5/6,,
{4}3,3,4,4,
{4}4/5,4/5,3x/6x,,
{2}7h[2:1],8,
{2}2h[2:1],1,
{2}7h[2:1],8,
{4}1,1,2/8,,
{2}3h[2:1],4,
{2}6h[2:1],5,
{2}3h[2:1],4,
{4}5,4,3/6,,
{4}7,7,8,,
{4}2,2,1,,
{4}7,7,8,,
{4}1,1,2/8,,
{4}3,3,4,,
{4}6,6,5,,
{4}4,4,5,5,
{4}4/5,4/5,3x/6x,,
{2}B2,B3,
{1}B4/B5,
{2}B7,B6,
{1}B4/B5,
{2}B3,B4,
{2}B5,B6,
{2}B2/B7,B1/B8,
{1}C1,
{4}2b,1/2,7,7/8,
{4}1,1,2/8,,
{4}3,3/4,6,5/6,
{4}4,4,3/5,,
{4}2,2,1/2,,
{4}7,7,7/8,,
{4}1,1,8,8,
{4}1/8,1/8,2x/7x,,
{4}6b,5/6,3,3/4,
{4}5,5,4/6,,
{4}7,7/8,2,1/2,
{4}8,8,1/7,,
{4}6,6,5/6,,
{4}3,3,3/4,,
{4}2,2,1,1,
{1}1-5[8:3]/8-4[8:3],
{4}3,3,3/4,,
{4}6,6,5/6,,
{4}3,3,4,4,
{4}5,5,4/6,,
{4}7,7,7/8,,
{4}2,2,1/2,,
{4}7,7,8,8,
{4}1/8,1/8,2x/7x,,
{1}6-1[8:3],
{4}2,2,1,,
{1}2-5[8:3],
{4}6,6,5,,
{1}6-3[8:3],
{1}2-5[8:3],
{2}6,7,
{1}1h[2:1]/8h[2:1],
{1}1xpp4[4:5]/8xqq5[4:5],
{1},
{1},
{1},
E
&inote_4=
(156){1},
{1},
{1},
{1},
{1},
{1}4-1[2:1]/5h[1:3],
{1}4-1[2:1],
{1}4-1[2:1],
{1}4-1[2:1],
{2}6,6h[4:5],
{2}3,3h[4:1],
{1}4>1[2:1]/5<8[2:1],
{4}3/6h[4:3],4,5-1[8:1],,
{4},,,3/6,
{8}4,4,5,,3-8[8:1],,,,
{4}7x,1/7,2,2/8,
{8}7h[4:1],,5h[4:1],,6,6,6,,
{4}2,2/8,7,1/7,
{8}2h[4:1],,4h[4:1],,3,3,3,,
{4}7,1/7,2,2/8,
{8}7,7,5,5,6,,4/7,,
{4}4>2[8:1]/7<5[8:1],,2/5,2/5,
{1}1p4[4:1]/7h[2:1],
{4}E7,E6,E5,E4,
{4}E3,1-5[4:1],,,
{4}E7,E6,E5,E4,
{4}E3,1-5[4:1],,,
{4}E7,E8,E1,E2,
{4}E3,4-8[4:1],,,
{4}6,5/6,3,3/4,
{1}5s1[2:1],
{4}E3,E4,E5,E6,
{4}E7,8p4[4:1],,,
{4}E3,E4,E5,E6,
{4}E7,8p4[4:1],,,
{4}E3,E2,E1,E8,
{4}E7,5q1[4:1],,,
{4}3,2/4,6,5/7,
{4}2>4[4:1]/6>4[4:1],,,2/6,
{8}4h[4:3]/5,,,3,3,,5,,
{8}2,2,4<6[4:1],,,,,,
{8}4/5h[4:3],,,6,6,,4,,
{8}7,7,5>3[4:1],,,,,,
{8}4h[4:3]/5,,,3,3,,5,,
{8}2,2,4<6[4:1],,,,,,
{4}4/5,2,4/5,7,
{1}C1hf[2:1],
{8}1b/8b,,3,4,2-5[8:1],,,,
{4}6,2>5[4:1]/7qq5[4:1],,,
{8}1/8,,6,5,7-4[8:1],,,,
{4}3,2pp4[4:1]/7<4[4:1],,,
{8}3,3,4,,B7/E7/B8,,,,
{8}6,6,5,,B1/B2/E3,,,,
{4}E5,E4/E6,E3/E7,1/8,
{4}2b/7b,,1,1,
{8}7b/8b,,6,5,7-4[8:1],,,,
{4}3/5,4<7[4:1]*q1[4:1],,,
{8}1/2,,3,4,2-5[8:1],,,,
{4}4/6,5>2[4:1]*p8[4:1],,,
{8}6,6,5,,B1/E1/B2/E3,,,,
{8}3,3,4,,E1/B7/E7/B8,,,,
{8}5h[2:1]/7,,4,4,4,,2/7,,
{4}1/6h[4:3],3,5-1[8:1],,
{4}7x,1/2,3,7/8,
{8}6h[4:1],,2h[4:1],,4,4,4,,
{4}3,7/8,6,1/2,
{8}3h[4:1],,7h[4:1],,5,5,5,,
{4}6,1/2,3,7/8,
{8}6,6,2,2,4,,3/6,,
{4}3<5[8:1]/6<8[8:1],,5/8,5/8,
{2}C1f,1h[4:1]/8h[4:1],
{4}2b/4h[2:3],8,2,8,
{4}2,8,2,1/8,
{4}5h[2:3]/7b,1,7,1,
{4}7,1,7,1/8,
{4}3b/4b,2<7[4:1]/3p6[4:1],,,
{4}5b/6b,6q3[4:1]/7>2[4:1],,,
{4}3b/4b,7/8,5b/6b,1/2,
{2}4xh[4:1]/5xh[4:1],B5/B6/B7,
{1}1b<3[4:7]/3bv1[4:7],
{1},
{1},
{1},
{1},
E
&inote_5=
(156){1},
{8}8,1,2,3h[4:1],,1,8,7h[4:1],
{8},1,2,3,7,6,5,,
{8}1,8,7,6h[4:1],,8,1,2h[4:1],
{8},8,7,6,2/5,,4/7,,
{8}2h[4:1]/4b,,5,6,5/7h[4:1],,4,3,
{8}2h[8:1]/4,6,5/7h[8:1],3,2h[4:1]/4h[4:1],,,6,
{8}5/7h[4:1],,4,3,2h[4:1]/4,,4,6,
{8}5/7h[8:1],3,2h[8:1]/4,6,5h[4:1]/7h[4:1],,,1,
{8}1,2,2,3,3p6[8:1],,,8,
{8}8,7,7,6,6q3[8:1],,,,
{2}4>1[8:1]/8<5[8:1],1>4[8:1]/5<8[8:1],
{4}1/3,6/8,1<3[16:3]/3v1[8:1],C1f,
{1},
{8}1/8,1/8,1pp4[4:1]/8qq5[4:1],1/8,1x/8x,,,,
{16}2b/7b,,,3,8,,4,,2/7,,,6,1,,5,,
{16}2/7,,,3,8,,4,,E1/E2,,C1,,E5/E6,,,,
{16}2/7,,,6,1,,5,,2/7,,,3,8,,4,,
{16}2/7,,,6,1,,5,,E1/E8,,C1,,E4/E5,,,,
{8}4/6,,1/2,,3/8,,1,2,
{8}7-4[8:1],8-3[8:1],,,,1,1,,
{2}1<6[8:1]/2>5[8:1],7<4[8:1]/8>3[8:1],
{2}C1hf[2:1],B2/B3/B6/B7,
{8}1/8,7,1/8,2,1/7,,2/8,3,
{8}1/7,6,2/8,,1/7,,2/8,3,
{8}1/2,8,7/8,1,1/2,,7/8,7,
{8}1/8,1,2/8,8,1/2,,7,3,
{8}7h[4:1],5,5h[4:1],4,4h[4:1],,2,6,
{8}2h[4:1],4,4h[4:1],5,5h[4:1],,7,,
{2}4>2[8:1]/7<5[8:1],2>4[8:1]/5<7[8:1],
{1}4>6[2:1]/6p4[2:1],
{8}2/4,6,5/7,3,2h[4:1]/4,,7,8,
{8}1/7,6,2/8,3,1s5[8:1]/7h[4:1],,,,
{4}E6,C1,E2,E4,
{4}E3/E5,C1/E2/E6,E1/B7/E7/B8,,
{8}2/8,1,2/8,3/7,4/6,,8,4,
{8}1/7,8,1/7,2/6,3/5,,4/6,,
{2}3<6[8:1]/8qq6[8:1],1pp3[8:1]/6>3[8:1],
{4}3qq5[4:1]/7pp5[4:1],,,C1,
{4}2h[4:1]/4,B8,5/7h[4:1],B1,
{4}2/4,5/7,1/3h[4:1],C1,
{4}5/7h[4:1],B1,2h[4:1]/4,B8,
{4}6/8,1/3,5/7h[4:1],C1,
{4}3h[4:1]/5,C1,4/6h[4:1],C1,
{4}2h[4:1]/4,B8,5/7h[4:1],B1,
{4}3/8,2/4,1/6,5/7,
{4}C1hf[4:1],,,1b/8b,
{16}2/6,,,7,5,,7,,2/6,,,7,5,,7,,
{8}1/5,3,4/8,6,1-5[8:1],,,,
{16}3/7,,,2,4,,2,,3/7,,,2,4,,2,,
{8}4/8,6,1/5,3,8-4[8:1],,,1,
{8}1,2,2,3,3p6[8:1],,,8,
{8}8,7,7,6,6q3[8:1],,,4,
{8}4-7[8:1],,,5,5-2[8:1],,,1,
{4}1w5[8:1],,3/6,1b/8b,
{16}3/7,,,2,4,,2,,3/7,,,2,4,,2,,
{8}4/8,6,1/5,3,8-4[8:1],,,,
{16}2/6,,,7,5,,7,,2/6,,,7,5,,7,,
{8}1/5,3,4/8,6,1-5[8:1],,,8,
{8}8,7,7,6q3[8:1],6,,,1,
{8}1,2,2,3p6[8:1],3,,7,7,
{8}7-4[8:1],,,2,2-5[8:1],,,,
{4}1/3,6/8,1<3[16:3]/3v1[8:1],,
{16}2,,,6,1,,8,,4/7,,,3,8,,1,,
{16}2/5,,,6,1,,8,,E8,,E2,,E6,,E4,,
{16}4/7,,,3,8,,1,,2/5,,,6,1,,8,,
{16}4/7,,,3,8,,1,,E2/E8,,C1,,E4/E6,,,,
{16}4-1[8:1]/5-8[8:1],,,,,,,,3/7,,,5,6,,4,,
{8}3/5,4/6,2/5,4/7,,1/8,3/6,,
{16}1/3,,,5,6,,7,,6/8,,,4,3,,2,,
{2}1q6[8:1]/2>5[8:1],7<4[8:1]/8p3[8:1],
{16}5/6,,,,1b/8b,,,,1/3,,,2/8,,,1/7,,
{16}5/8,,,1/6,,,2/7,,3>8[8:1]/8<5[8:1],,,,,,,,
{16}3/4,,,,1/8,,,,6/8,,,1/7,,,2/8,,
{16}1/4,,,3/8,,,2/7,,1>4[8:1]/6<1[8:1],,,,,,,,
{16}2/5,,,,4/7,,,,5/6,,,4/7,,,3/8,,
{4}1/2,5/6,3/4,7/8,
{4}4/8,2/6,1/5,3/7,
{2}2>6[8:1]/8qq6[8:1],1pp3[8:1]/7<3[8:1],
{1}1<3[4:11]/3v1[4:7],
{1},
{1},
{1},
{1},
{1},
E
&inote_6=
(156){1},
{1},
{1},
{1},
{4},,,4-1[8:5],
{4}5h[1:7],,,4-1[8:5],
{4},,,4-1[8:5],
{4},,,4-1[8:5],
{4},,,4-1[8:5],
{4},,,4-1[8:5],
{4},,,4-1[8:5],
{1},
{1}1b,
{8}3/7,,B2/E2,B6/B7,B3/E4,,2/5,,
{32}4/5,,,,3/6,,,,2/7,,,,1/8,,,,1x,2x,3x,4x,5x,6x,7x,8x,1x,,,,,,,,
{16}4/6-1[8:1],,,5,6,,5,,4/6-1[8:1],,,5,6,,5,,
{16}4/6-1[8:1],,,5,6,,5,,4/6,,3/7,,2/8,,,,
{16}3-8[8:1]/5,,,4,3,,4,,3-8[8:1]/5,,,4,3,,4,,
{16}3-8[8:1]/5,,,4,3,,4,,3/5,,2/6,,1/7,,,,
{16}4/6-1[8:1],,,5,6,,5,,4/6-1[8:1],,,5,6,,5,,
{16}4/6-1[8:1],,,5,6,,5,,4/6,,3,,3>8[8:1],,,,
{4}6,5<8[8:1],3,1<3[2:1]/3v1[2:1],
{4},,,5<8[4:1],
{4}1,1,1/8,1/8-4[4:1],
{4}1,1,1/4,1/4s8[2:1],
{4}1,1,1,1/8,
{4}1/8,1/7,1/6,1V35[2:1]/6,
{4}8,8,8,5/8,
{4}5/8,4/8,4/8,5>1[4:1]/8,
{4}8,8,1/8,1>5[4:1]/8,
{4}8,8,8,4/7,
{8}6h[8:1],4h[8:1],5h[8:1],3h[8:1],6z2[2:1],,2,,
{4}1,1>5[4:1],8h[2:1],,
{4}E7,C1,E3,4-8[8:1],
{4}4>1[8:1]*<7[8:1],4w8[8:1],4,,
{2}7<4[8:1]/8>3[8:1],1<6[8:1]/2>5[8:1],
{4}4>1[8:1]/5<8[8:1],,2/7,4>1[8:1],
{4}5,4<7[8:1],2,1/7,
{4}1bv4[4:1]/7bv4[4:1],,,4/5,
{8}6pp5[8:3],,,4,4-1[8:1]*-8[8:1],,4b,,
{8}6pp5[8:3],,,4,4-1[8:1]*-8[8:1],,4b,,
{8}6pp5[8:3],,,4,4-1[8:1]*-8[8:1],,4b,,
{4}2/7,3/6,1/8,4/5,
{8}3qq4[8:3],,,5,5-1[8:1]*-8[8:1],,5b,,
{8}3qq4[8:3],,,5,5-1[8:1]*-8[8:1],,5b,,
{8}3qq4[8:3],,,5,5-1[8:1]*-8[8:1],,5<4[4:1],,
{4}C1f,,5b-1[8:1]/7h[4:1],5b,
{16}2b/6b,,,1,8-4[8:1],,4,,8,,,,1,,1>5[8:1],,
{8}5<1[8:1],,1x,,5,,3/7,2,
{32}1-3[16:1]/8-4[16:1],,,,,,,,1x/8x,C1f,,,,,,,1-5[16:1]/8-6[16:1],,,,,,,,1x/8x,C1f,,,,,,,
{32}1-3[16:1]/8-4[16:1],,,,,,,,1-5[16:1]/8-6[16:1],C1f,,,,,,,1x/8x,C1f,,,,,,,1/7,,,,8,,,,
{2}1>4[8:1]/2<7[8:1],7>2[8:1]/8<5[8:1],
{4}1<6[8:1]/8>3[8:1],,2/7,4-1[8:1],
{4}4x/5-8[8:1],4-1[8:1]/5x,4x/5-8[8:1],4>5[4:1]/5x,
{4}C1f/4b,,5b-1[8:1]/7h[4:1],5b,
{16}2b/6b,,,5,4-8[8:1],,8,,4,,,,5,,5<1[8:1],,
{8}1>5[8:1],,5x,,1,,3/7,6,
{4}4-2[8:1]/5-1[8:1],4x/5x,4-8[8:1]/5-7[8:1],4x/5x,
{8}4-2[8:1]/5-1[8:1],,4-8[8:1]/5-7[8:1],,4x/5x,,2/8,3,
{8}4/6,7,1/8,2,3h[4:1]/5,,8,8,
{8}4/7,3,2/5,6,3/7,,1/8,1/8,
{8}2h[4:1]/7h[4:1],,,4/5,3h[4:1]/6h[4:1],,,,
{4}1b-4[8:1]/7b-4[8:1],1b/7b,2b/8p3[8:1],1/8b,
{16}3x-8[8:1]/5x,,,4,3,,4,,3-8[8:1]/5,,,4,3,,4,,
{16}3-8[8:1]/5,,,4,3,,4,,3/5,,2/6,,1/7,,,,
{16}4/6-1[8:1],,,5,6,,5,,4/6-1[8:1],,,5,6,,5,,
{16}4/6-1[8:1],,,5,6,,5,,4/6,,3/7,,2/8,,,,
{16}3-8[8:1]/5,,,4,3,,4,,3-8[8:1]/5,,,4,3,,4,,
{16}3-8[8:1]/5,,,4,3,,5,,4/6,,,,3/7,,,,
{4}2q6[4:1]/6,5,8p4[4:1],4,
{2}3h[4:3],5h[4:27],
{32}2x,1x,8x,7x,6x,,,,7x,8x,1x,2x,3x,,,,2x,1x,8x,7x,6x,,,,7x,8x,1x,2x,3x,,,,
{32}2x,1x,8x,7x,6x,,,,7x,8x,1x,2x,3x,,,,2x,1x,8x,7x,6x,,,,7x,8x,1x,2x,3x,,,,
{32}2x,1x,8x,7x,6x,,,,7x,8x,1x,2x,3x,,,,2x,1x,8x,7x,6x,,,,7x,8x,1x,2x,3x,,,,
{32}2x,1x,8x,7x,6x,,,,7x,8x,1x,2x,3x,,,,2x,1x,8x,7x,6x,,,,7x,8x,1x,2x,3x,,,,
{32}2x,1x,8x,7x,6x,,,,7x,8x,1x,2x,3x,,,,2x,1x,8x,7x,6x,,,,7x,8x,1x,2x,3x,,,,
{32}2x,1x,8x,7x,6x,,,,7x,8x,1x,2x,3x,,,,2x,1x,8x,7x,6x,,,,7x,8x,1x,2x,3x,,,,
{32}2x,1x,8x,7x,6x,,,,7x,8x,1x,2x,3x,,,,1x,,,,,,,,4-1[8:1]/5-8[8:1],,,,,,,,
{4},4-1[8:1]/5-8[8:1],,4>1[1:2]/5<8[1:2],
{1},
{1},
{1},
{1},
{1},
E
