&title=Sqlupp (Camellia's "Sqleipd*Hiytex" Remix)
&wholebpm=154
&artist=owl*tree Remixed by Camellia
&des=華火職人
&shortid=11215
&genre=maimai
&cabinet=DX
&version=maimai DX Splash
&chartconverter=Neskol
&lv_2=5
&des_2=
&lv_3=8
&des_3=
&lv_4=12
&des_4=小鳥遊さん
&lv_5=14
&des_5=華火職人
&des_6=
&inote_2=
(154){1},
{1},
{1}1h[8:7],
{1},
{1}8h[8:7],
{1},
{1}1h[8:7]/8h[8:7],
{1},
{1}1x/8x,
{4}2/7,2/7,2/7,,
{2}8,8,
{2}7,7,
{2}6,6,
{2}4/5,4/5,
{2}3,3,
{2}2,2,
{1}1h[2:1]/2h[2:1],
{1}7h[2:1]/8h[2:1],
{1}5h[2:1]/6h[2:1],
{1}3h[2:1]/4h[2:1],
{1}1b/2b,
{1},
{1}7-3[4:3],
{1},
{1}1-5[4:3],
{1},
{1}8-4[4:3],
{1},
{1}2-6[4:3],
{1},
{2}E7,E6,
{1}B5,
{2}E3,E4,
{1}B4,
{2}E5,E4/E6,
{1}B2/B7,
{1}C1hf[1:1],
{1},
{4}1,1,1,,
{4}2,2,2,,
{4}3,3,3,,
{4}4,4,4/5,,
{4}5,5,5,,
{4}6,6,6,,
{4}7,7,7,,
{4}8,8,1/8,,
{4}1x/8x,1x/8x,1x/8x,,
{1}2b/7b,
{1}8h[2:1],
{1}7h[2:1],
{4}6,6,5,5,
{1}4h[2:1]/5h[2:1],
{1}4h[2:1],
{1}3h[2:1],
{4}2,2,1,1,
{1}1h[2:1]/8h[2:1],
{1}1h[2:1],
{1}2h[2:1],
{4}3,3,4,4,
{2}4/5,4/5,
{4}6,6,6,,
{4}7,7,7,,
{1}8-4[4:3],
{1},
{1}3h[8:7]/5h[8:7],
{1},
{1}4h[8:7]/6h[8:7],
{1},
{1}3h[8:7]/5h[8:7],
{1},
{1}4h[8:7]/6h[8:7],
{1},
{4}5,5,6,6,
{4}7,7,1/8,,
{4}1,1,2,2,
{4}3,3,4/5,,
{2}E5,E4/E6,
{2}B3/B6,B2/B7,
{1}C1hf[1:1],
{1},
{4}1,1,2,2,
{4}3,3,4,4,
{4}5,5,6,6,
{4}7,7,8b,,
{4}8,8,7,7,
{4}6,6,5,5,
{4}4,4,3,3,
{4}2,2,1b,,
{2}2,1/2,
{2}3,3/4,
{4}5,5,4,4,
{4}4/5,4/5,4/5,,
{2}6,5/6,
{2}7,7/8,
{4}1,1,8,8,
{2}1x/8x,2x/7x,
{2}3x/6x,4x/5x,
{1}5-8[4:3],
{1},
{1}4-1[4:3],
{1},
{1}8h[1:1],
{1},
{4}1,2,3,4,
{4}5,6,7,8,
{1}1b,
{1},
{1},
{1},
E
&inote_3=
(154){1},
{1},
{1}4x-1[4:3],
{2},8,
{1}8x-5[4:3],
{2},4,
{1}4x>1[4:3],
{2},1x/8x,
{1}2xh[2:1]/7xh[2:1],
{4}3x/4x,3x/4x,5x/6x,5x/6x,
{4}2b/7b,2/7,3,4,
{4}5,6,7/8,7/8,
{4}1/6,1/6,2/7,2/7,
{4}3/8,3/8,1/2,,
{4}2x/7x,2/7,6,5,
{4}3/4,3/4,2/5,2/5,
{1}1x-5[2:1],
{1}6-3[2:1],
{1}2-6[2:1],
{1}7<4[2:1],
{1}C1xh[1:1],
{2},1x/8x,
{2}2h[2:1],3h[2:1],
{4}4,4,4/5,,
{2}7h[2:1],6h[2:1],
{4}5,5,4/5,,
{2}2h[2:1],3h[2:1],
{4}4,4,3/5,,
{4}6,5,3,4,
{8}5x,5x,4x,4x,,3x/6x,3x/6x,,
{4}3,3/4,6,5/6,
{4}4,3,2/5,2/5,
{4}6,5/6,3,3/4,
{4}5,6,7/8,,
{4}2,1/2,7,7/8,
{4}1,2,3/8,,
{4}5,5,4,4,
{8}4x/5x,,3x/6x,3x/6x,,2x/7x,2b/7b,,
{1}1-5[2:1],
{4}6,6,7,7,
{1}8-4[2:1],
{4}3,3,2x/4x,,
{1}5-8[2:1],
{1}1-4[2:1],
{1}5<8[2:1],
{1}1>4[2:1],
{1}C1hf[1:1],
{1},
{4}2h[4:1],1,7h[4:1],8,
{4}5/6,5/6,3/4,3/4,
{4}6h[4:1],5,3h[4:1],4,
{4}5/6,5/6,4/7,,
{8}6,6,5,,4/7,,4/7,,
{8}3,3,4,,2/5,,2/5,,
{1}1-4[2:1],
{1}5-8[2:1],
{4}2h[4:1],1,7h[4:1],8,
{4}5/6,5/6,4/5,4/5,
{4}2h[4:1],4,7h[4:1],5,
{4}4/5,3/6,2x/7x,,
{8}2,2,1,,3/8,,3/8,,
{8}7,7,8,,1/6,,1/6,,
{8}7/8,,1/8,,1/2,,3x/8x,3b/8b,
{1},
{1}1x-6[2:1]/2x-5[2:1],
{2},4/7,
{1}7-4[2:1]/8-3[2:1],
{2},2/5,
{1}3>8[2:1]/4<7[2:1],
{2},1x/6x,
{4}5,4,3,2q4[4:3],
{1},
{2}B5/E6,B4/E4,
{2}B6/B7,B2/B3,
{4}E7,B6,B5,,
{4}E3,B3,B4,,
{4}E6,E7,E8,E1,
{4}E2,E3,E4/E6,,
{1}C1xh[2:1],
{4}8x,8x,1x,1x,
{4}2b/7b,3/4,2/7,5/6,
{8}2/7,,3/4,,1x/8x,1x/8x,1xh[4:1]/8xh[4:1],,
{8},,2/7,2x/7x,,3/6,3/6,,
{4}5,6,4x/7x,,
{4}3x/6x,1/2,3/6,7/8,
{4}3/6,1/2,3x/8x,3x/8x,
{2}2h[2:1],1h[2:1],
{2}8h[2:1],7x,
{4}5h[4:1]/6h[4:1],,3/4,2/5,
{8}5/6,,4/7,,4x/5x,4x/5x,4x/5x,,
{4}3x,1x,7x,5x,
{4}2x,8x,5x/6x,3x/4x,
{2}2h[4:1]/4h[4:1],5h[4:1]/7h[4:1],
{4}4h[4:1]/5h[4:1],,4/5,3V14[4:3]/6V85[4:3],
{1},
{1}C1hf[1:1],
{1},
{1}8-4[2:1],
{1}3-8[2:1],
{1}7-3[2:1],
{1}2-5[2:1],
{1}4xh[1:1]/6xh[1:1],
{4},,4/5,4/5,
{8}3,3,5,5,4,4,6,6,
{8}7/8,7/8,7/8,,1/2,1/2,1/2,,
{1}3b/8b,
{1},
{1},
{1},
E
&inote_4=
(154){1},
{1}C1hf[4:3],
{8}1xh[4:3]/8xh[4:3],,,,,,,4xh[8:5]/7xh[8:5],
{16},,,,,,,,,,4x/7x,,,2x/5x,,,
{16}1xh[2:1]/8xh[2:1],,,,,,,,,,,3x,4x,,2xh[8:3]/5xh[8:3],,
{16},,,,,,2x/5x,,,,4x/7x,,6x,5x,,,
{8}4xh[4:3]/7xh[4:3],,,,,,,2xh[8:5]/5xh[8:5],
{8},,,,,2x/5x,5,5,
{4}4xh[2:1]/6xh[2:1],,,4/5,
{4}2x/4x,5x/7x,1x/8x,3b/6b,
{8}2-4[8:1],,1-5[8:1],,3,3,4,,
{8}2/5h[4:1],,4,4,6,,3/7,,
{4}8<5[8:1],4,1>4[8:1],5,
{4}6<3[4:1],,,1b/6b,
{8}7-5[8:1],,8-4[8:1],,6,6,5,,
{8}4h[4:1]/7,,5,5,3,,2/6,,
{16}7xh[16:3],,,6h[16:3],,,5h[16:3],,,4,,,3/7,,,,
{16}2xh[16:3],,,3h[16:3],,,4h[16:3],,,5,,,2/6,,,,
{16}5xh[16:3],,,6h[16:3],,,7h[16:3],,,8,,,1/6,,,,
{16}4xh[16:3],,,3h[16:3],,,2h[16:3],,,1,,,3/8,,,,
{1}2b<3[4:5]/7b,
{4},,C1,1/8,
{8}3h[4:1],,4,,E3,E4,E5,,
{8}6,6,5,7h[4:1],,5,5/7,,
{4}6h[4:1],5h[4:1],4h[4:1],3,
{8}3,3,4,,2/5,,4/7,,
{8}6h[4:1],,5,,E7,E6,E5,,
{8}3,3,4,2h[4:1],,4,2/4,,
{4}E3/E5,E1/E7,E2/E4,E6/E8,
{8}4x/5x,4x/5x,4x/5x,3b/6b,,,1/8,,
{8}7h[4:1],,8,,E5,E4,E3,,
{8}7,7,8,6h[4:1],,8,6/8,,
{4}3h[4:1],4h[4:1],5h[4:1],6,
{8}6,6,5,,4/7,,2/5,,
{8}2h[4:1],,1,,E5,E6,E7,,
{8}2,2,1,3h[4:1],,1,1/3,,
{8}E8,E1,E2,E3,E4,E5,E6,E7,
{8}1x/8x,1x/8x,1x/8x,2b/7b,,,C1f/B2/B7,,
{8}1-5[8:1],,8,,7,7-3[8:1],,2h[4:1],
{8},1h[4:1],,8h[4:1],,7,1/6,,
{8}3/8-4[8:1],,1,,2,2-6[8:1],,7h[4:1],
{8},5,5,6,5,8b,8b,,
{8}2>5[8:1]/6,,8,8-4[8:1],,3,3h[4:1],,
{8}7<4[8:1],,1,1-5[8:1],,6,6h[8:3],,
{8},5,4b/7b,,3/4,2b/5b,,7/8,
{8}1b/6b,,1/2,3b/8b,,4/5,3b/6b,,
{8},2x/3x,1b/4b,,6x/7x,5b/8b,,4x/5x,
{4}2b/7b>6[2:1],,,1b,
{16}4x/8x,,,,3,4,3,,5,4,5,,3,4,3,,
{16}2/5,,,,6,5,6,,4,5,4,,6,5,6,,
{16}4/7,,,,2,1,2,,8,1,8,,2,1,2,,
{8}7-3[8:1],,1-5[8:1],,6,6,3b/7b,,
{16}4x/8x,,7,,6,5,6,,4,5,4,,6,5,6,,
{16}4/7,,6,,3,4,3,,5,4,5,,3,4,3,,
{16}2/5,,1,,7,8,7,,1,8,1,,7,8,7,,
{8}2-6[8:1],,8-4[8:1],,2,2,1b/5b,,
{16}5h[8:1]/7h[8:1],,,5/7,,,4/6,,3,4,,2/5,,,1,,
{16}1,,2,,3,4,3,,6,5,6,,3,4,3,,
{16}2/5,,6,,7,8,7,,2,1,2,,7,8,7,,
{8}1/6,5,4<2[16:5],3,,,,,
{16}3b/8b,,,,2,1,2,,3/4,,5,,4/6,,7,,
{16}1,8,1,,6,5,6,,4/7,,3,,2/5,,6,,
{16}4xh[8:1]/6xh[8:1],,,3xh[8:1]/5xh[8:1],,,2xh[4:1]/4xh[4:1],,,,,,1x/8x,,2b/7xh[8:7],,
{8},4,4,4,4,4,C1f,,
{8}1xh[2:1]/8xh[2:1],,,,,,3/4,2xh[8:5]/5xh[8:5],
{16},,,,,,,,,,2x/5x,,,4x/7x,,,
{16}1xh[2:1]/8xh[2:1],,,,,,,,,,,6x,5x,,4xh[8:3]/7xh[8:3],,
{16},,,,,,4x/7x,,,,2x/5x,,3x,4x,,,
{8}2xh[2:1]/5x,,,,5,,5/6,4x/7xh[2:1],
{8},4,,4,5,6,5,4,
{16}3xh[2:1]/5x,,,,,,,,5,,,4x,5x,,2x/7xh[16:3],,
{16},6h[16:3],,,5h[16:3],,,4h[16:3],,,3h[16:3],,,2,,,
{8}1x/8,1,2,2,3,3,4,4,
{8}5,5,6,6,7-4[8:1],,,,
{8}1/8x,8,7,7,6,6,5,5,
{8}4,4,3,3,2-5[8:1],,,,
{16}3,4,3,4,3,,1/5,,6,5,6,5,6,,4/8,,
{16}7,8,7,8,7,,1/5,,2,1,2,1,2,,4/8,,
{1}1bs5[2:1],
{4}4x/7x,2x/5x,1x/8x,2b/7b,
{8}2-4[8:1],2,1-5[8:1],1,3,3,2/4,3,
{8}7-5[8:1],7,8-4[8:1],8,6b,6b,5b/6b,,
{8}3h[4:1]/4h[4:1],,,2x/5x,1-5[8:1],1,8-4[8:1],8,
{8}2,2,1/3,2,3<6[8:1],,8b,,
{8}7h[8:1],8,1/6,2,3h[8:1],4,2/5,6,
{16}7h[8:1],,8h[8:1],,1h[8:1],,2,,3xh[8:1]/4xh[8:1],,,2xh[8:1]/5xh[8:1],,,1/6,,
{12}7x,7,7,5x,5,5,4x,4,4,2x,2,2,
{12}8x,8,8,1x,1,1,5xh[4:1],,,4xh[4:1],,,
{8}5,,C1f,,7/8,7,1/2,2,
{8}6-8[8:1],6,2-4[8:1],2,5,,3b/7b,,
{4}1-4[8:1],8-5[8:1],1-3[8:1],8-4[8:1],
{8}1-5[8:1],,8-6[8:1],,4,4,2b/7b,,
{8}1x/2x,1x/2x,C1f/B3/B4,,7x/8x,7x/8x,C1f/B5/B6,,
{16}1xh[8:1]/2xh[8:1],,,3xh[8:1]/8xh[8:1],,,4/7,,5/6,,8b,,8b,,,,
{8}E7,E6,C1,E4,E3,,1/8,,
{16}2xh[16:3]/4x,,,1,,,3/8,,5x/7xh[16:3],,,8,,,1/6,,
{16}2xh[16:3]/5,,,4xh[16:3],,,5xh[16:3],,,7xh[16:3],,,8,,8,,
{16}2xh[8:1]/4xh[8:1],,,3xh[8:1]/5xh[8:1],,,4xh[8:1]/6xh[8:1],,,5xh[8:1]/7xh[8:1],,,4/8,,,,
{16}5xh[8:1]/7xh[8:1],,,4xh[8:1]/6xh[8:1],,,3xh[8:1]/5xh[8:1],,,2xh[8:1]/4xh[8:1],,,1/5,,,,
{16}2xh[8:1]/5xh[8:1],,,4xh[8:1]/7xh[8:1],,,2xh[8:1]/5xh[8:1],,,4xh[8:1]/7xh[8:1],,,1/6,,,,
{16}4xh[8:1]/7xh[8:1],,,2xh[8:1]/5xh[8:1],,,4xh[8:1]/7xh[8:1],,,2xh[8:1]/5xh[8:1],,,3/8,,,,
{1}1b/5b<4[2:3],
{1},
{16}2x>5[8:1],1,2,1,,,,,7x<4[8:1],8,7,8,,,,,
{16}3x,4,3,,6x,5,6,,1x,2x,3x,4x,5x,6x,7x,8x,
{1}1b/5b,
{1},
{1},
{1},
E
&inote_5=
(154){1},
{1}C1hf[1:1],
{8}1V75[4:1]*V35[4:1],,,,,,,3s7[16:5]/7s3[16:5],
{16},,,,,,,,,,5/6,,,3/4,,,
{16}1>4[4:1]/8q5[4:1],,,,,,,,,,,4/5,4/5,,2/7,,
{48}1/8h[4:1],,2,,3,,4h[4:1],,,,,,,,7,,6,,5h[4:1],,,,,,,,,,,,4,,,,,,5,,,5,,,4,,,,,,
{8}2/7<2[8:3]*q2[8:3],,,,,,,1s5[16:5]/3z7[16:5],
{24},,,,,,,,,,,,,,,6/8,,,2/8,3,4,5h[8:1],,,
{2}1z5[8:1],C1hf[2:1],
{8}7b,6/8,2b,1/3,4b/5b,3/6,2b/7b<8[16:5],,
{8}1h[2:1],,,,,2,2>7[4:1],8,
{8}8h[4:1],,,1,3,4,5/6,8,
{8}7h[8:3],5,4,3-8[8:1],,4,4,,
{16}6,5,6,,3,4,3,,2/4,,5/6,,2b>1[16:5]/7b,,,,
{8}8h[2:1],,,,,7,7<2[4:1],1,
{8}1h[4:1],,,8,6>3[8:1]*<1[8:1],5,,,
{16}1h[8:1]/2h[8:1],,,1/2,,,3h[8:1]/4h[8:1],,,3/4,,5,4b/6b,,,,
{16}7h[8:1]/8h[8:1],,,7/8,,,5h[8:1]/6h[8:1],,,5/6,,4,3b/5b,,,,
{16}2h[8:1]/4h[8:1],,,2/4,,,1h[8:1]/8h[8:1],,,1/8,,2,1b/3b,,,,
{16}5h[8:1]/7h[8:1],,,5/7,,,1h[8:1]/8h[8:1],,,1/8,,7,6b/8b,,,,
{1}4>5[16:19]*qq5[16:19]/5,
{8},,,,,E3,E7,E1,
{8}4h[4:1]/5,,B3,,4/5,6,4/5,3,
{8}B7/E7,B1/E2,B8/E8,B2/E3,,1/8,1/8,,
{8}4/5h[4:1],,B6,,4/5,3,4/5,6,
{8}B5/E5,B1/E1,B2/E3,B7/E7,,1/8,2/7,,
{8}3h[4:1]/4,,E2,,3/4,5,3/4,2,
{8}E6/E7,E3/E4,B4/B5,C1/E1,,1/8,2/7,3h[8:1]/6h[8:1],
{8},E6,E7,E8,E1,E2,E3,E4,
{8}4/5,6/7,1/8,2/3,,1b/8b,1b/8b,,
{16}4/5,,2,2,4,,3/5,,4/5,,2,2,4<8[4:1],,3/5,,
{8}8-4[8:1],8,6,6,,8h[8:1],6h[8:1],5,
{16}4/5,,7,7,5,,4/6,,4/5,,7,7,5>1[4:1],,4/6,,
{24}1-5[8:1],,,1,,,3,,,3,,,2x,,2x,,2x,,7x,,7x,,7x,,
{8}1/8,8,7/8,7,6/7,6,5/6,5,
{8}4/5,4,3/4,3,2/3,2,1/2,,
{16}8,1,8,1,7,2,7,2,6,3,6,3,5,4,5,,
{32}2x,3x,4x,5x,6x,7x,8x,1x,2x/6x,,,,4b/8b,,,,,,,,3/6,,,,1b/8b,,,,,,,,
{8}2-4[8:1]/5-1[8:1],3/6,,,1-5[8:1]/4,2/5,,2h[4:3],
{8},4,3,1,3,4,2/7,3/6,
{8}4-8[8:1]/7-5[8:1],5/8,,,5/8-4[8:1],4/7,,7h[8:5],
{8},5,6,8,1,B2/B3/E3,B2/B3/E3,,
{8}1-4[8:1]/5-8[8:1],2/6,,,4-1[8:1]/8-5[8:1],1/5,,,
{8}1/5,4/8,1/5,4/8,1/5,2/6,3/7,4/8,
{8},1/2,C1f/B7/E8,,7/8,C1f/B2/E2,,1/8,
{8}C1f/B6/E6,,4/5,C1f/B3/E4,,1/8,C1f/B6/E6,,
{8},2/3,C1f/E1/E5,,6/7,C1f/E1/E5,,2/3,
{4}C1f/B2/B3/E3/B6/B7/E7,,,1b/8b,
{16}2,4,2,4,2,3,2,3,2,4,2,,1b/8b,,,,
{16}7,5,7,5,7,6,7,6,7,5,7,,1b/8b,,,,
{16}5x/6x,,3x/4x,,,6x/7x,,,2h[16:3],,1,1,,3b/7b,,,
{16}6,5,8,,3,4,1,,2/4,,5/7,,2b/6b,,,,
{32}4/5,,,,2,3,4h[8:1],,,,8,1,2h[8:1],,,,7,6,5h[8:1],,,,1,8,7h[8:1],,,,2,3,4h[8:1],,
{32},,1,2,3h[8:1],,,,7,6,5h[8:1],,,,8,7,6,,,,4x/5x,3x/6x,2x/7x,,,,2x/7x,3x/6x,4x/5x,,,,
{16}4,5,4,,7/8,7/8,,6h[16:3],,,5,,3,4,2,2h[16:3],
{16},,1,,7/8,7/8,,5b/6b,,3b/4b,,5b/7b,,2b/6b,,,
{16}7,5,7,5,7,8,7,8,7,5,7,,1b/8b,,,,
{16}2,4,2,4,2,1,2,1,2,4,2,,1b/8b,,,,
{16}7,5,6,4,5,3,4,,2,4,3,5,4,6,5,7h[16:3],
{32},,,,8,,,,1x,2x,3x,4x,1x,2x,3x,4x,8x,7x,6x,5x,8x,7x,6x,5x,4x,3x,2x,1x,8x,7x,6x,5x,
{24}4b/8>4[8:1],,,,,,5,6,7,8,,,2<7[8:1]/8b,,,,,,6,5,4,3h[4:1],,,
{16},,2,2,4,3,7,7,1,8,1,8,2b/7b,,,,
{16}4/5,,1/2>7[8:1],1/2,,,8h[4:1],,,,1,,2/7,,3b/6b,,
{16},,E3,B6,E2,E8,E4,E7,B3,E6,B2,B7,C1f,,,,
{8}1V35[4:1]/8V64[4:1],,,,,,,2s6[16:5]/6z2[16:5],
{16},,,,,,,,,,3/4,,,5/6,,,
{16}1>4[4:1]/5p8[4:1],,,,,,,,,,,4/5,4/5,,3/8,,
{48}1/2h[4:1],,8,,7,,6h[4:1],,,,,,,,3,,4,,5h[4:1],,,,,,,,,,,,1,,,,,,4,,,4,,,5,,,,,,
{8}2>7[8:3]*qq7[8:3]/7,,,,,,,6s2[16:5]/8z4[16:5],
{24},,,,,,,,,,,,,,,1/3,,,1/7,6,5,4h[8:1],,,
{16}8<1[4:1],,,,,,,,,,,4/5,4/5,,2b/4b,,
{16}6,5b/6b,,3,3b/4b,,6,5b/7b,,3,2b/4b,,6,5b/7b,,,
{16}3,4,3,4,3,4,3,4,2,4,3,4,3,4,3,4,
{16}1,4,3,4,3,4,3,4,1,4,3,,B7/E7/E8,,B2/E2/E3,,
{16}6,5,6,5,6,5,6,5,7,5,6,5,6,5,6,5,
{16}8,5,6,5,6,5,6,5,8-4[8:1],5,6,,,,,,
{32}3,4,3,4,3,4,3,4,3b,,,,,,,,6,5,6,5,6,5,6,5,6b,,,,,,,,
{32}2,3,2,3,2,3,2,3,2b,,,,,,,,7,6,7,6,7,6,7,6,7b>7[4:3],,,,,,,,
{1},
{8}1b/3b,2,6b/8b,7,4b/5b,3/6,1bs5[8:1]/8bz4[8:1],,
{8}1b/8b,,2-4[8:1]/7,8-6[8:1],1-5[8:1],,,8b,
{16}3,3,1,,6,6,8,,2b/5b,,4b/7b,,1bz5[4:1]/8b,,2b/7b,,
{24},,,,,,,,,2b/6b,,,1/7p2[8:1],2,3,4,5,6,7,,,,,,
{16}6,6,1,1,8,8,3,,4/5,,7/8,,2b/6b,,,,
{8}1/8-5[8:1],4-1[8:1]/5,8,4,7b-4[8:1],3-8[8:1]/5,7,3,
{16}7,,3,4,2,6,5,7,3,4,1,6,5,8,2b/7b,,
{12}6h[4:1],5,5,2h[4:1],3,3,8h[4:1],5,5,1h[4:1],4,4,
{12}7,7,7,2w6[8:3],2,2,,,,,,,
{8}C1,,2/7-5[8:1],1-3[8:1],8-4[8:1],,,1b,
{16},,1/2,,4/5,,8,8,6,,1,1,3,,4/5,,
{4}C1f/B3/7x,C1f/B6/2x,C1f/B4/8x,C1f/B5/1x,
{96}1x/8x,,,,,,,,C1f,,,,,,,,,,,,,,,,1x/8x,,,,,,,,C1f,,,,,,,,,,,,,,,,1x/8x,,,,,,,,C1f,,,,,,,,,,,,,,,,1b/8b,,,7,,,6,,,5,,,4,,,3,,,2,,,1,,,
{32}8h[4:1],,,,,,,,,1,2,3,4,5,6,7,8h[4:1],,,,,,,,,6,5,4,3,2,1,8,
{32}7h[4:1],,,,,,5,,5,,,,4/8,,,,2,3,4,5,6,7,8,1,2b/6b,,,,,,,,
{8}4/5,E4,E3,E2,E1,E8,E7,E6,
{16}4h[8:1]/5h[8:1],,,5/6,,,7b/8b,,4h[8:1]/5h[8:1],,,3/4,,,1b/2b,,
{16}5h[8:1]/6h[8:1],,,6/7,,,3h[8:1]/4h[8:1],,,2/3,,,1b/8b,,,,
{16}4/5,,7/8,7/8,,,5/6,,3/8,3/8,,2,1b/3b,,,,
{16}4/5,,1/2,1/2,,,3/4,,1/6,1/6,,7,6b/8b,,,,
{16}4/5,,5/7,5/7,,,4/6,,1/3,1/3,,6/7,5b/8b,,,,
{16}4/5,,2/4,2/4,,,3/5,,6/8,6/8,,2/3,1b/4b,,,,
{1}1>8[16:19]*pp8[16:19]/8,
{1},
{32}2,,2,,4,,4,,3,5,3,5,3,5,3,,7,,7,,5,,5,,6,4,6,4,6,4,6,,
{32}1,,1,,8,,8,,2,,2,,7,,7,,1,8,1,8,1,8,1,8,1,8,1,8,1,8,1,8,
{1}1b>8[32:47],
{1},
{1},
{1},
E
