&title=Regulus
&wholebpm=212
&artist=お月さま交響曲
&des=7.3GHz
&shortid=11165
&genre=maimai
&cabinet=DX
&version=maimai DX Splash
&chartconverter=Neskol
&lv_2=5
&des_2=
&lv_3=8
&des_3=
&lv_4=12
&des_4=隅田川星人
&lv_5=14+
&des_5=7.3GHz
&des_6=
&inote_2=
(212){1},
{1},
{1},
{1},
{1},
{1},
{4},4xh[4:5],,,
{1},
{4},,,5xh[4:5],
{1},
{1},
{4},4xh[4:5]/5xh[4:5],,,
{1},
{4},,,4x,
{4},4x-1[1:1],,,
{1},
{4},8x,,1h[4:3]/8h[4:3],
{1},
{4},,,8x-5[1:1],
{1},
{1},
{4},4xh[4:5],,,
{1},
{1},
{1}E6,
{4},E5,,,
{2},E4,
{4},,,B3/B6,
{1},
{1}C1,
{4},E2,,,
{2},E1,
{4},,,E8,
{1},
{1}B2/B7,
{4},C1f,,,
{2},1,
{2}1,1,
{2}8,8,
{2}8,1-4[1:1]/8-5[1:1],
{1},
{2},3x/6x,
{1},
{1},
{1}1h[4:5]/8h[4:5],
{4},,,8,
{4}8,,7,7,
{4},6,6,,
{4}5,5,,4,
{4}4,,3,3,
{4},2,2,,
{4}1,1,,8h[4:3],
{1},
{4},1h[4:3],,,
{4},,,8x,
{4}8x,8x,8x,,
{4},1x,1x,1x,
{4}1x,,,2,
{4}2,,3,3,
{4},4,4,,
{4}5,5,,6,
{4}6,,7,7,
{4},8,8,,
{4}1x/8x,,,1-4[4:5],
{1},
{1},
{4},,,5-8[4:5],
{1},
{1},
{1}1b,
{1},
{2},1h[4:3]/8h[4:3],
{1},
{4},7h[4:3],,,
{2},6h[4:3],
{4},,,5h[4:3],
{1},
{4}4x,,3,3,
{4},2x,,1,
{2}1,8x,
{2}8,1,
{1}1h[2:3]/8h[2:3],
{1},
{1}1b/8b,
{2},C1xh[2:3],
{1},
{1},
{2},C1f,
{1},
{1}B5/B6/E6,
{2},B3/B4/E4,
{1},
{1}C1hf[2:3],
{1},
{1},
{4}1x,1,1,1,
{4},,8,8,
{4}8,8,,,
{4}1x,,1x/8x,1xh[4:3]/8xh[4:3],
{1},
{4},1/8,,,
{4}2,,1/2,1/2,
{2},3x,
{4}3x/4x,3x/4x,,,
{4}5,5,5,5,
{4},,4,4,
{4}4,4b/5b,,,
{4},,6,6,
{4}6,5/6,,7,
{4}7,7,7/8,,
{4}1,1,1,1/2,
{4},3,3,3,
{4}3/4,,5,5,
{4}5,4/5,,3/6,
{4}3/6,3/6,3b/6b,,
{1},
{1},
{1},
E
&inote_3=
(212){1},
{1},
{1},
{1},
{1},
{1},
{4},3,3,4,
{4}4,5,5<8[2:1],,
{4},,,2,
{4}2,1,1,8,
{1}8<5[2:1],
{4},3,3,2,
{4}2,1/8,1pp4[1:1]/8qq5[1:1],,
{1},
{4},6,6,5,
{4}5/6,,3,3,
{4}4,3/4,,6,
{4}6,5,5x/6x,4x/7x,
{4}3x/8x,,,7,
{4}7,8,1/6,,
{4}2,2,1,3/8,
{4}4/7,5-1[2:1]/6-2[2:1],,,
{2},1<6[2:1]/2>5[2:1],
{1},
{4}6,6,5,5,
{1}4z8[8:7]/6,
{4},,7,7,
{4}8,8,1s5[8:7]/7,,
{1},
{4}6x,6x,5x/6x,4x/5x,
{4}3x/6x,2,2,1,
{4}1,2/8z4[8:7],,,
{4},,,3,
{4}3,4,4,3/5s1[8:7],
{1},
{4},2x,2x,1x/2x,
{4}1x/8x,2x/7x,8x<5[8:3],,
{4},4,3,2,
{4}1>4[8:3],,,5,
{4}6,7,8<5[8:3],,
{4},3p7[2:1],,,
{2},C1f/B3/B6,
{4},,,E2/E8,
{1},
{1}B2/B7,
{4},2,1,7/8,
{8}6,6,6,,5/6,,5/6,,
{4}4/7,4>1[8:3]/7,,,
{4}7,7/8,1/6,2/5,
{8}3,3,3,,3/4,,3/4,,
{4}2/5,2/5<8[8:3],,,
{4}2,1,3/8,7h[2:1],
{4},8,7/8,1/6,
{4},2h[2:1],,1,
{4}1/2,1/8,2/7,2b-5[8:3]/7b-4[8:3],
{4},,,3/6,
{4}2/7,1bpp4[8:7]/8bqq5[8:7],,,
{4},,,3,
{8}2,2,2,,1/2,,3/8,,
{4}4/7,5/6<1[8:3],,,
{4}2,3/8,4/7,6,
{8}7,7,7,,7/8,,1/6,,
{4}2/5,3>8[8:3]/4,,,
{4}7,1/8,2/7,3h[2:1],
{4},4,3/4,2/5,
{4},3x/6x,,2x/7x,
{4},1x/8x,,2,
{4}3,4,5,6,
{8}7,,1x/8x,,1x,8x,1x,,
{1}2bv5[2:1]/7bv4[2:1],
{4},6,6,5/6,
{4}5/6,,3,3,
{4}3/4,3/4,,2/7,
{4}1x/8x,7,8,7/8,
{4}1/6,,2,1,
{4}1/2,3/8,,7,
{4}8,1/8,2b/7b,,
{1}B3/B4,
{4},B5/B6,,,
{2},E2/E8,
{2}B2/B7,B3/B6,
{1}C1hf[1:1],
{1},
{4}7xh[4:3],,,8h[4:3],
{2},1h[4:3],
{4},2,,,
{4}3h[4:3],,,4h[4:3],
{2},5h[4:3],
{4},6,,,
{4}7h[4:3],,,8,
{2}7/8,2h[4:3],
{4},1,1/2,1/8,
{1}2-5[8:3]/7-4[8:3],
{4}3/6,2/7,1pp4[8:7]/8qq5[8:7],,
{1},
{8}6,,7,7,7,,7/8,,
{4}1/6,2/5,3>8[8:3]/4,,
{4},7,7/8,1/6,
{8}2/5,,4,,3,,,1x/2x,
{8},1x/2x,,,1x/8xp4[8:3],,,,
{4},2x>5[8:3],,,
{4}6h[2:1],,5,5/6,
{2}4/7,3x/6x,
{2}2x/7x,1x/8x,
{4}7,6,5,4,
{8}3,,2,,1/8,,8,1,
{4}8,2b-6[2:1]/7b-3[2:1],,,
{2},1q5[2:1],
{4},,,7p3[2:1],
{1},
{8}2,,1,,1x/2x,1/2,1/2,,
{8},,7,,8,,7x/8x,7/8,
{4}7/8,,6,5,
{8}5x/6x,5/6,5/6,,,,4/5,,
{4}3/6,2/7,1b/8b,,
{1},
{1},
{1},
E
&inote_4=
(212){1},
{1},
{1},
{1},
{1},
{1},
{4},3x/5x,4,5,
{8}6,6,5,,7,7,5h[4:3],,
{4}7,6,7,4x/6x,
{8}5,,4,,3,3,4,,
{8}2,2,4h[4:3],,3,,2,,
{4}1,2x/5x,3,6,
{8}7,7,5,,6,6,4h[4:3],,
{4}5,6,7<4[4:1],,
{4},3h[2:1],4,4,
{4}3x/4x,4x/5x,6h[2:1],5,
{4}5,5x/6x,4x/5x,3h[2:1],
{12}4,,,4,,,2x,,1x,,8x,,
{4}2x/7x,,,7h[2:1],
{4}6,5,4/6,3/5,
{4}2h[2:1],3,4,4/5,
{8}3/6,,2/7,,6,5,,3,
{4}4,4>5[4:3]/5,C1f,,
{1},
{4}4/5,6,7h[4:1],5,
{8}5,,6x,6x,4x,,4/5,,
{8}3x,3x,4x,,4/5,,3,,
{8}2h[4:1],,4,,4,,3x,3x,
{8}5x,,4/5,,6x,6x,5x,,
{4}E5,E7,E1,E3,
{4}C1,5/6,7,8h[4:1],
{8}6,,5,,6x,6x,4x,,
{8}3/5,,2x,2x,4x,,3/4,,
{4}2,1h[4:1],3,4,
{8}2x,2x,4x,,3/5,,7x,7x,
{4}5x,E1,E3,E5,
{4}E7,C1,8h[2:3],6,
{4}6,5,4,3,
{4}2h[2:3],4,4,3,
{4}1,8,7,6,
{12}4/5,,,2,,1,,8,,7v4[4:1],,,
{2},3b>6[2:1],
{8},,,,,,5,5,
{8}4,4,6,6,5/7,,3/6,,
{8}4,4,5,5,3,3,2/4,,
{8}5/7,,3b/6b,,,,7,8,
{8}6,2,1,3,7h[4:1],,5h[4:1],,
{4}3h[4:1],1v3[8:1],5v7[8:1],,
{8}1>4[8:1],,5<8[8:1],,,,2,1,
{8}3,7,8,6,2h[4:1],,4h[4:1],,
{4}6h[4:1],8v6[8:1],4v2[8:1],,
{4}8<5[8:1],4>1[8:1],,8,
{8}6,5/7,,3,2<7[4:1]/4p7[4:1],,,,
{8},,6/7,,2,1/3,,6,
{8}5>2[4:1]/7p1[4:1],,,,,,2,2,
{8}1,3,,3/4,3/4,,2/5,,
{8}1/6,,7,7,8,6,,5/6,
{8}5/6,,4/7,,1b/8b,,6,5,
{8}8,3,4,1,6h[4:1],,4h[4:1],,
{4}2h[4:1],8>3[8:1],7<4[8:1],,
{8}2>5[8:1],,1<6[8:1],,,,3,4,
{8}1,6,5,8,3h[4:1],,5h[4:1],,
{4}7h[4:1],1<6[8:1],2>5[8:1],,
{4}7<4[8:1],8>3[8:1],,6,
{8}3,2/4,,7,6v3[4:1]/8v3[4:1],,,,
{12},,,1x/5x,,2x,,3x,,4x/8x,,7x,
{24},,6x,,,,2x/5x,,,,,,3/6,,,,,,4,,,4,,,
{8}6,6,3,3,7,7,2,2,
{16}1/8,,,,1,8,1,8,1,8,1,8,1>8[4:3],,,,
{1}C1f,
{8},,3,4,3,4,3,,
{8}3/4,,2/5,,6,5,6,5,
{4}6,5/6,4/7,B4/E4,
{8}B8/E8,,2,1,2,1,2,,
{8}1/2,,3/8,,7,8,7,8,
{8}7,,7/8,,1/6,,2,2,
{8}1,3,7,7,8,6,2,,
{4}B8/E8,,E4,B1/E2,
{4},B4/E4,,E6,
{4}B8/E8,,E4,B2/E3,
{4}E6,B7/E7,E5,C1,
{4}E7,E6,E5,E4,
{4}E3,C1f,,,
{8}4xh[4:1]/6xh[4:1],,,4xh[4:1]/6xh[4:1],,,4x/6x,,
{8},,,,3h[4:1]/5h[4:1],,,3h[4:1]/5h[4:1],
{4},3/5,,,
{8}5h[4:1]/7h[4:1],,,4h[4:1]/6h[4:1],,,3/5,,
{8},,,,2,2,4,4,
{8}3,3,5p1[4:1]*q1[4:1],,,,,,
{4}7h[1:1],,,B7,
{2}E6,2h[1:1],
{4},B2,E4,,
{8}6,6,5,7,,7,8,,
{8}1/8,,2/7,,2,2,1,3,
{8},3,4,,4/5,,2b/7b,,
{8}6,5,8,3,4,1,7h[4:1],,
{4}5h[4:1],3h[4:1],2<7[4:1],7<4[4:1],
{4},8x,1/7,3/5,
{8}2,1,4,7,8,5,,4x/7x,
{8},2x/5x,,4x/7x,4x/7x>2[4:1],,2>5[4:1],,
{4},1x,2/8,4/6,
{8}7,,3/5,3/5,,1/7,1v4[4:1]/7v4[4:1],,
{6},,,2/5,3,4,
{12}5/8,,7,,6,,1/5,,,3/7,,,
{8}4,4,6,6,3,3,7,7,
{16}2,,2,,1/8,,,,1,8,1,8,1,8,1,8,
{4}1<2[4:3],C1f,,,
{8},,,,5,2,5,4,
{16}7,,4,,6,5,6,,4/7,,,,4,,7,,
{16}4,,5,,2,,5,,3,4,3,,2/5,,,,
{8}1/8,,6,5/7,,3,2/4-8[8:1],,
{8}1,,2/7,,3,2/4,,6,
{8}5-1[8:1]/7,,8,,2/7,,5/6,4/7,
{8},3/4,2/5-8[8:1],,1,,4/7,4/7,
{8},2/5,2/5,,1b/8b,,,,
{1},
{1},
{1},
E
&inote_5=
(212){1},
{1},
{8},,,,4,4,4,5,
{16}5,,5,,3,4,3,4,3,,5,,6,,6,,
{16}6,,4,,4,,4,,6,5,6,5,6,,4,,
{16}3,,3,,3,,5,,5,,5,,3,4,3,4,
{8}3-6[4:1],,2,2,,3,,4,
{8},6<3[2:1],,4,4,,5,5,
{8},4,4,,2-7[4:1]/5,,6,6,
{8}6,5,,4,,3>6[2:1],,4,
{8}4,,5,5,,4,4,,
{8}3-6[4:1]/5,,2,2,,3,,4,
{8},6<3[2:1],,4,4,,5,5,
{8},4,4,,2z6[4:1]/5,,,,
{8},,4/7h[2:1],,,,5,6,
{4}3h[4:1],4,2h[2:1]/5,,
{8}4,3,6h[4:1],,5,,4/7h[2:1],,
{24},,,,,,1,,,8,,,E2/B5,,,,B4/E8,,,,E3/E7,,,,
{32}B1/C1f/E1/B5/E5,,,,,,,,,,,,,,,,,,,,,,,,4x/5x,E5,C1f,E1,,,,,
{4},1x/8x,B3/E3/B6/E7,,
{64}4x/5x,E5,,B3/B6,C1f,B2/B7,E1,,,,,,,,,,,,,,,,,,,,,,,,,,1x/8x,,,,,,,,,,,,,,,,B2/B3/E3/B6/B7/E7,,,,,,,,,,,,,,,,
{4}4/5q8[4:7],4b-1[16:11]/5x,,,
{1},
{16},,,,,,,,5,3,5,3,6,2,6,2,
{4}7<3[4:3],B5/E5,,B6,
{4}C1,2>6[4:3],B4/E5,,
{4}B3,C1,7<3[4:3],B6/E7,
{4},E5,C1,2>6[4:3],
{4}B3/E3,,E5,C1,
{8}7/8,1/8,1/2,3/4,4/5,5/6,7/8,1/6,
{8}2/5,3/4,2>6[4:3],,B4/E5,,,,
{4}E3,C1,7<3[4:3],B5/E5,
{4},E7,C1,2>6[4:3],
{4}B4/E5,,E4,C1,
{4}7<3[4:3],B5/E5,,E6,
{8}C1,,1/2,1/8,7/8,5/6,4/5,3/4,
{8}1/2,3/8,4/7,5/6,7,7h[2:1],,B4/B5/E5,
{8},1,1h[4:3],,B2/E3,,B4/E4,,
{8}8h[8:5],,B7/E8,B6/E7,,2,2h[2:1],,
{8}B4/B5/E5,,C1,,1/8,1/8,,4/6,
{24},,,2/5,,,E4/7,,,,E6/1,,,,E5/8,,,,C1f/2,,,,,,
{64},,,,,,,,,,,,,,,,,,,,,,,,,,,,,,,,4b>5[1:2]/5b<4[1:2],E5,,B3/B6,C1f/E3/E7,B2/B7,B1/B8,E1,,,,,,,,,,,,,,,,,,,,,,,,,
{1},
{1},
{16}3,,3,,5,,5,,3,4,2,4,1,,1,,
{16}5,,5,,3,7,3,7,2,6,2,6,1>4[8:1]/5,,,,
{16}1-5[8:1],,,,1,,,,3/7,2/6,1/5,4/8,3-6[8:1]/7-2[8:1],,,,
{4}3/7>6[4:3],3h[4:3],,,
{4},,,4/8<5[8:1],
{16}8-4[8:1],,,,8,,,,2/6,3/7,4/8,1/5,2-7[8:1]/6-3[8:1],,,,
{4}2<3[4:3]/6,6h[4:3],,,
{4},,,3/7-3[4:1],
{8}3,2,1V35[4:1],,5-2[8:1],,8-4[8:1],,
{8}1,,2-6[4:1],,6,7,8V64[4:1],,
{4}4-7[8:1],1-5[8:1],8<1[4:3],4h[1:1],
{4},,,7h[4:1],
{16}2,,,,1,8,1,8,1,8,1,8,1,8,1,8,
{16}1,8,1,8,1,8,1,8,2/7,,,,8<5[8:1],,2,,
{16}8-4[8:1],,,,8,,,,2/6,3/7,4/8,1/5,2-7[8:1]/6-3[8:1],,,,
{16}2<4[4:1]/6,,,,2/6,,,,1-5[8:1],8,7,6,1/5,,,,
{16}7,8,1,2,3,4,5,6,3/7h[4:1],,,,1>4[8:1],,6,,
{16}1-5[8:1],,,,1,,,,3/7,2/6,1/5,4/8,3-6[8:1]/7-2[8:1],,,,
{16}3/7>5[4:1],,,,3/7,,,,8-4[8:1],1,2,3,4/8,,,,
{16}2,1,8,7,6,5,4,3,2/6,,,,1/8,,1/8,,
{8},3h[4:1]/7h[4:1],,,2-5[8:1]/6-1[8:1],,2/6,,
{12},,,3/7,,5/6,,3/4,,5/7,,2/4,
{96},,,,,,,,4/5,,,,,,,,,,,,,,,,2/7,,,,,,,,,,,,,,,,,,,,,,,,4-1[8:1]/5-8[8:1],,,,,,,,,,,,,,,,,,,,,,,,4/5,E5,,,,,C1f,,,,,,E1,,,,,,,,,,,,
{8},2/7,,8,2/6,,3-8[12:1]/7-4[8:1],,
{24}3/7,,,,,,2/6,3/7,4/8,1/5,,,,,,3/7,2/6,1/5,4pp3[8:5]/8pp7[8:5],,,,,,
{1}4/8,
{16},,,,3,,3,,3,4,3,,3,,3,,
{16}3,4,3,4,3,4,3,,3,,3,,3,4,3,,
{16}3,,3,,3,4,3,4,3,4,3,,2,4,3,5,
{16}4,6,5,7,5,,5,,5,6,5,,5,,5,,
{16}5,6,5,6,5,6,5,,5,,5,,5,6,5,,
{16}5,,5,,5,6,5,6,5,6,5,,7,,7,,
{8}5,5,3,3,1h[4:1],,5,,
{12}2/4,3,4,3/5,4,5,4/6,,,5/7,6,5,
{12}4/6,5,4,3/5,4,3,2/6,5,4,3/7,,,
{12}7,6,5,7,6,5,2/4,3,4,3/5,4,5,
{12}4/6,5,6,5/7,6,7,6/8,7,8,1/7,8,1,
{4}2h[4:1]/6,8h[4:1],4h[4:1],2h[2:1],
{24}6h[4:1],,,,,,,,,,,,2/6,1/5,4/8,3/7,2/6,1/5,4/8,7,6,5,4,3,
{4}2b/6b,,,4/5,
{8},3/6,,,1-4[1:1]/8-5[1:1],,,,
{1},
{8}4/5,4/5,,3/6,,,,,
{8},2/7,,1/8,1-4[1:1]/8-5[1:1],,,,
{1},
{8}6>8[8:7],,,,,,,4,
{8},4,,3,3<1[8:7],,,,
{8},,,5,,6,,2/7,
{1}2V41[2:1]/7V58[2:1],
{16}1/8,,,,2/7,,,,1,8,1,8,1,8,1,8,
{16}1,8,1,8,1,8,1,8,1,8,1,8,2/7,,,,
{16}1-5[8:1],,7,,1>4[8:1],,,,1,,,,2/6,3/7,4/8,1/5,
{16}2-7[8:1]/6-3[8:1],,,,2<4[4:1]/6,,,,2/6,,,,1-5[8:1],8,7,6,
{16}1<6[8:1]/5,,,,1/4,3,2,1,5/8,,,,2/6,,,,
{8}1h[4:1]/8h[4:1],,,3/6,4/5,1b/8b,,2-7[8:1]/6-3[8:1],
{16},,2/6,,,,4/8,,2/6,,,,3/8,7,6,5,
{16}8-4[8:1],1,2,3,4/8>3[8:1],,,,5/8,6,7,8,1/4,,,,
{8}1/8,,2/4,3,5/7,6,7/8,1/8,
{24}1/2h[4:1],,,,,,3,,,3,,,2/4,,,,5/6,,,,3/4,,,,
{12}5/7,,2/4,,4/5,,2/7,,,4-1[8:1]/5-8[8:1],,,
{96}4/5,E5,,,,,C1f,,,,,,E1,,,,,,,,,,,,,,,,,,,,,,,,2/7,,,,,,,,,,,,,,,,,,,,,,,,1,,,,,,,,,,,,3/7,,,,,,,,,,,,,,,,,,,,,,,,
{24}2-5[8:1]/6-1[12:1],,,,,,2/6,,,,,,3/7,2/6,1/5,4/8,,,,,,2/6,3/7,4/8,
{4}1qq2[8:5]/5qq6[8:5],1/5,,,
{8},,,,1-4[8:1],8,7,6-1[8:1],
{8}5-2[8:1],5,5-8[8:1],,,,7-4[8:1],8,
{8}1,2>5[8:1],5q6[8:3],6,7h[2:1],,,,
{16}1,,8>3[8:1],,7,,6,,5<8[8:1],,4,,2v1[8:1],3,4,,
{16}7v8[8:1],6,5,,3,,4-1[8:1],,5,,6,,7-4[8:1],,8,,
{16}3v4[8:1],2,1,,6v5[8:1],7,8,,2,,1>4[8:1],,8,,7,,
{8}6,5,1h[4:1]/8h[4:1],,,,5/7,2/4,
{48},,,,,,3/6,,,,,,2/7,,,,,,1/8,,,,,,1b/8b,2/7,3/6,4/5,,,,,,,,,,,,,,,,,,,,,
{1},
{1},
{1},
E
