&title=Prismatic
&wholebpm=180
&artist=CielArc
&des=はっぴー
&shortid=11219
&genre=東方Project
&cabinet=DX
&version=maimai DX Splash
&chartconverter=Neskol
&lv_2=3
&des_2=
&lv_3=7
&des_3=
&lv_4=9
&des_4=某S氏
&lv_5=12
&des_5=はっぴー
&des_6=
&inote_2=
(180){1},
{1},
{1}4,
{1}4,
{1}5,
{1}5,
{1}4,
{1}4,
{1}5,
{1}5,
{1}4b/5b,
{1},
{1}5,
{1}5,
{1}6,
{1}6,
{1}7,
{1}7,
{1}8,
{1}1x/8x,
{1}1h[1:1],
{1},
{1}8h[1:1],
{1},
{1}1,
{1}1,
{1}2,
{1}2x,
{1}3,
{1}3,
{1}4,
{1}4x/5x,
{1}5h[1:1],
{1},
{1}4h[1:1],
{1},
{1}B3,
{1}B2,
{1}B1,
{1}B8,
{1}B7,
{1}B6,
{1}C1hf[1:1],
{1},
{2}1,1,
{1}1,
{2}2,2,
{1}2,
{2}3,3,
{1}3,
{2}4,4,
{1}4/5,
{2}5,5,
{1}5,
{2}6,6,
{1}6,
{2}7,7,
{1}7/8,
{2}1,1,
{1}1x/8x,
{1}1-4[4:3],
{1},
{1}8-5[4:3],
{1},
{1}1-4[4:3],
{1},
{2}5,5,
{1}4x/5x,
{1}4h[1:1],
{1},
{1}5h[1:1],
{1},
{1}B6,
{1}B7,
{1}B8,
{1}B1,
{1}B2,
{1}B3,
{1}C1hf[1:1],
{1},
{1},
{4}8,8,8,,
{1}7/8,
{4}6,6,6,,
{1}5/6,
{4}4,4,4,,
{4}5,5,5,,
{1}4h[2:1]/5h[2:1],
{2}4/5,4b/5b,
{4}4,4,4,,
{1}3/4,
{4}2,2,2,,
{1}1/2,
{4}8,8,8,,
{4}1,1,1,,
{1}1h[2:1]/8h[2:1],
{2}1/8,1x/8x,
{1}2h[1:1]/7h[1:1],
{1},
{2}2,2,
{2}3,3,
{2}4,4,
{1}4/5,
{2}5,5,
{2}6,6,
{2}7,7,
{1}1x/8x,
{1}2b/7b,
{1},
{1},
{1},
E
&inote_3=
(180){1},
{1},
{4}3x,3,3/4,,
{4}6,6,5/6,,
{4}3,3,3/4,,
{4}5,5,4/6,,
{4}7,7,7/8,,
{4}2,2,1/2,,
{4}7,7,7/8,,
{4}1,1,2b/7b,,
{1}1-4[2:1],
{4}5x,4x/5x,4x/5x,,
{2}6h[2:1],5,
{2}3h[2:1],4,
{2}6h[2:1],5,
{4}4,4,3/5,,
{2}2h[2:1],1,
{2}7h[2:1],8,
{2}2h[2:1],1,
{4}8,8,2/7,,
{4}3b,3,4,4,
{4}5,5,4/6,,
{4}6,6,5,5,
{4}4,4,3/5,,
{4}2,2,1,,
{4}7,7,8,,
{4}2,2,1,,
{4}8,8,1/7,,
{4}6,6,5,,
{4}3,3,4,,
{4}6,6,5,,
{4}4/5,4/5,3/6,,
{4}7b,7,8,8,
{4}1,1,2/8,,
{4}2,2,1,1,
{4}8,8,2/7,,
{1}B2,
{1}B3,
{1}B4,
{1}B5,
{1}B6,
{1}B7,
{4}7,7,8,,
{4}1/8,1/8,2b/7b,,
{4}3,3,3/4,3/4,
{4}2,1,2/8,,
{4}7,7,7/8,7/8,
{4}6,5,4/5,,
{4}6,6,5/6,5/6,
{4}7,8,1/7,,
{4}2,2,1/2,1/2,
{4}3,4/5,3x/6x,,
{4}2,1/2,2,1/2,
{4}3,4,3/5,,
{4}6,5/6,6,5/6,
{4}7,8,1/8,,
{4}7,7/8,7,7/8,
{4}6,5,4/6,,
{4}3,3/4,3,3/4,
{4}2,1/8,2x/7x,,
{4}2h[4:1],1,1,,
{4}7h[4:1],8,8,,
{4}2h[4:1],1,1,,
{4}8,8,1/7,,
{4}6h[4:1],5,5,,
{4}3h[4:1],4,4,,
{4}5,5,4,4,
{4}4/5,4/5,3x/6x,,
{4}7h[2:1],,8,8,
{4}1,1,2/8,,
{4}3h[2:1],,4,4,
{4}5,5,3/6,,
{1}B7,
{1}B6,
{1}B5,
{1}B4,
{1}B3,
{1}B2,
{1}C1hf[1:1],
{1},
{1}1x/8x,
{4}7,7,7/8,7/8,
{4}6,5,4/6,,
{4}3,3,3/4,3/4,
{4}2,1,1/8,,
{4}2,2,1/2,1/2,
{4}3,4,3/5,,
{4}6,6,5/6,5/6,
{4}7,1/8,2/7,,
{4}3,3/4,3,3/4,
{4}2,1,2/8,,
{4}7,7/8,7,7/8,
{4}6,5,4/6,,
{4}7,5/6,6,5/6,
{4}7,8,1/7,,
{4}2,1/2,2,1/2,
{4}3,4/5,4/5,,
{2}3x/6x,2x/7x,
{1}1-5[2:1]/8-4[2:1],
{4}3,3,2,2,
{4}1,1,2/8,,
{4}7,7,6,6,
{4}5,4/5,3/6,,
{4}2,2,1,1,
{4}8,8,1/7,,
{4}6,6,5,5,
{4}4/5,4/5,3/6,,
{1}2b/7b,
{1},
{1},
{1},
E
&inote_4=
(180){1},
{1},
{4}2h[4:1],4,1,1>6[2:1],
{4}8h[2:1],,,1/8,
{4}7h[4:1],5,8,8<3[2:1],
{4}1h[2:1],,,1/8,
{4}3h[4:1],4,6h[4:1],5,
{4}3h[4:1],4h[4:1],5h[4:1],6,
{4}6,5/7,4,3/5,
{2}4h[4:1]/5h[4:1],B3/E3/B6/E7,
{1}C1xh[4:3],
{4}8,8,8,8b,
{4}2h[4:3],,4,4,
{4}6h[4:3],,5,5,
{4}3h[4:3],,4,4,
{4}7h[2:1],,5,4/8,
{4}3h[4:3],1,1,1,
{4}7h[4:3],8,8,8,
{4}3h[4:3],4,4,4,
{4}C1xh[2:1],,1,1b,
{8}7h[4:1],,8,,6,6,,5,
{8}5,,4,4,,3,3/4,,
{8}2h[4:1],,1,,3,3,,4,
{8}4,,5,5,,6,5/6,,
{4}7h[4:3],4,5,4,
{4}2h[4:3],5,4,5<4[8:5],
{1},
{1}2bqq5[8:5],
{4}6h[4:3],1,8,1,
{4}3h[4:3],8,1,8,
{4}4/8,3/7,2/6,1/5,
{1}1V35[2:1]/5V71[2:1],
{8}3h[4:1],,1,,3,3,,8,
{8}8,,1,1,,6,5/6,,
{8}6h[4:1],,8,,6,6,,1,
{8}1,,8,8,,3,3/4,,
{1}3V16[2:1],
{1}7V52[2:1],
{1}3h[8:3]/8h[8:3],
{4}C1xh[8:3],,,1/8,
{8}7h[4:1]/8h[4:1],,,1h[4:1]/6h[4:1],,,2/5,,
{8}1h[4:1]/2h[4:1],,,3h[4:1]/8h[4:1],,,4/7,,
{8}4,5,,2h[8:3]/7h[8:3],,,,,
{8}C1f/B2/B3/B6/B7,,,,,1,1-5[4:1],,
{4}8,7-3[4:1],1,2>6[8:3],
{8}7,,,,,8,8-4[4:1],,
{4}1,2-6[4:1],8,7>3[8:3],
{4}4,,,1/8,
{4}7h[4:1],5,3h[4:1],4,
{8}2,1,2,,3/8,,1/7,,
{4}2h[4:1],4,6h[4:1],5,
{8}4h[8:3]/7h[8:3],,,,,8,8-4[4:1],,
{4}1,2-6[4:1],8,7<3[8:3],
{8}2,,,,,1,1-5[4:1],,
{4}8,7-3[4:1],1,2<6[8:3],
{4}5,,,1/8,
{4}2h[4:1],4,6h[4:1],5,
{8}7,8,7,,1/6,,2/8,,
{4}7h[4:1],5,3h[4:1],4,
{2}5h[4:1]/6h[4:1],4b/7b,
{8}7h[4:1],,8,,6,5,7<2[2:1],,
{4}4h[2:1],,,1/8,
{8}2h[4:1],,1,,3,4,2>7[2:1],,
{4}5h[2:1],,,1/8,
{4}7h[4:1],8,3h[4:1],4,
{4}6h[4:1],5h[4:1],4h[4:1],3,
{8}3,3,2/4,,5,5,4/6,,
{8}4h[8:3],,,5,4,,3b/6b,,
{8}2,,1/3,,2,2h[4:1],,8,
{8}8h[4:1],,4,4h[4:1],,6,4/6,,
{8}7,,6/8,,7,7h[4:1],,1,
{8}1h[4:1],,5,5h[4:1],,3,3/5,,
{4}3h[4:3],,E5,B6,
{4}7h[4:3],,B4,B2,
{1}1h[8:3]/5h[8:3],
{4}C1xh[8:3],,,1/8,
{8}1h[4:1]/2h[4:1],,,3h[4:1]/8h[4:1],,,4/7,,
{8}7h[4:1]/8h[4:1],,,1h[4:1]/6h[4:1],,,2/5,,
{1}C1hf[1:1],
{1},
{8}2b/7b,,,,,1,1q5[4:1],,
{4}8,7p3[4:1],1,2>6[8:3],
{8}7,,,,,8,8p4[4:1],,
{4}1,2q6[4:1],8,7>3[8:3],
{4}4,,,1/8,
{4}7h[4:1],5,3h[4:1],4,
{8}6,5,4/7,,5/6,,1/7,,
{4}2h[4:1],1,6h[4:1],5,
{8}4h[8:3]/7h[8:3],,,,,8,8p4[4:1],,
{4}1,2q6[4:1],8,7<3[8:3],
{8}2,,,,,1,1q5[4:1],,
{4}8,7p3[4:1],1,2<6[8:3],
{4}5,,,1/8,
{4}2h[4:1],4,6h[4:1],5,
{8}3,4,2/5,,3/4,,2/8,,
{4}7h[4:1],8,2h[4:1],3,
{4}4h[4:1]/5h[4:1],,3/6,1/2,
{4}1h[4:1]/2h[4:1],,3/8,4V62[2:1]/7V51[2:1],
{4},,,3b/8b,
{8}7h[4:1],,8,,6,5,6qq3[4:3],,
{1}1h[4:3],
{8}2h[4:1],,1,,3,4,3qq8[4:3],,
{1}6h[4:3],
{4}7h[4:1],5,2h[4:1],4,
{4}6h[4:1],5h[4:1],4h[4:1],3,
{8}2,1,2,,7,8,7,,
{8}4h[4:1],,5,4,6h[4:1],,5,,
{1}4b/7b,
{1},
{1},
{1},
E
&inote_5=
(180){1},
{16}1,8,1,8,2,7,2,7,3,,,,4x/6x,,,,
{8}3>1[8:1]/5,,8,,5,4,3s7[8:3],,
{8}8h[8:5],,,,,1,1,,
{8}4/6<8[8:1],,1,,4,5,6z2[8:3],,
{4}1h[4:3],,,8-4[8:1],
{4}3,2-6[8:1],7,4/8,
{8}3,4,2,7,5,6,1h[4:1],,
{8}6,5,7,2,4,3,6,6,
{8}1>7[8:3],,,8x,8x,,,,
{4}3,3,3,3,
{16}6,5,6,,3,4,3,,6,5,6,,4/7,,,,
{8}2,5<8[4:1],2,5x,2,,2,,
{8}2,8-5[4:1],2,8x,2,,2/4,,
{8}2,4-1[4:1],2,4x,2,,2/8,,
{4}E1/2,C1/2,E5/2,2/8,
{8}7,4>1[4:1],7,4x,7,,7,,
{8}7,1-4[4:1],7,1x,7,,5/7,,
{8}7,5-8[4:1],7,5x,7,,7,,
{8}1/8,1/8,2-5[8:1]/7-4[8:1],,,,2/7,,
{8}1b/8b,,5/7h[4:1],,3,2h[4:1]/4,,6,
{8}5/7h[4:1],,3,2h[4:1]/4,,4,1/5,,
{8}4/6,,2h[4:1]/4,,6,5/7h[4:1],,3,
{8}2h[4:1]/4,,6,5/7h[4:1],,5,4/8,,
{8}3,5q1[4:1],3,5x,3,,3,,
{8}3,1<6[4:1],3,1x,3,,3/7,,
{8}3,6-2[4:1],3,6x,3,,3,,
{4}C1f/3,3,3,3/7,
{8}6,4p8[4:1],6,4x,6,,6,,
{8}6,8>3[4:1],6,8x,6,,2/6,,
{8}6,3-7[4:1],6,3x,6,,6,,
{4}5/7,4V28[4:1]/8V64[4:1],,,
{8}2b/8b,,5/7h[4:1],,3,2h[4:1]/4,,6,
{8}5/7h[4:1],,3,2h[4:1]/4,,5,1/6,,
{8}5/7,,2h[4:1]/4,,6,5/7h[4:1],,3,
{8}2h[4:1]/4,,6,5/7h[4:1],,4,3/8,,
{8}2pp5[2:1],,1x,1x<6[8:1],,,,,
{8}7qq4[2:1],,8x,8x>3[8:1],,,,,
{8}1>5[8:3],,8,8h[8:3],,,,,
{8}1>7[2:1],,8,8h[8:3],,,,,
{8}3qq8[2:1],,4x,4x<7[8:1],,,,,
{8}2pp5[2:1],,1x,1x<6[8:1],,,,,
{8}8,8,1,2/6,,4,4>5[2:1],,
{4}C1f,,,3b/7b,
{4}1v6[8:1]/2>5[8:1],1x/2x,7<4[8:1]/8v3[8:1],7x/8x,
{8}2,2,3/4,5,4/6,,1/8,,
{4}3/5,2<7[4:1]/3p6[4:1],,,
{8}8,7,5/6,4,3/5,,1>6[4:1]/7,,
{8}8h[4:1],,,8,1,,2-6[8:1],,
{4}2x/5-8[8:1],3/5x,1b/4b,3-8[8:1],
{4}4,6-1[8:1],5,3>6[8:3],
{4}5h[2:1],,,3/6,
{4}7<4[8:1]/8v3[8:1],7x/8x,1v6[8:1]/2>5[8:1],1x/2x,
{8}7,7,5/6,4,3/5,,1/8,,
{4}4/5,8z4[4:1],4,3,
{8}2,2,3/4,5,4/6,,2/8<3[4:1],,
{8}1h[4:1],,,1,8,,3/7,,
{4}1w5[8:1],1x,3x/7x,6-1[8:1],
{4}5,3-8[8:1],4,6<3[8:3],
{2}4,C1f/B3/B6,
{8}2/8<5[8:1],,1,,3,4,5s1[2:1],,
{8}2h[2:1],,,,,2,3,5,
{8}4>1[8:1]/6,,8,,6,5,4z8[2:1],,
{4}7h[4:3],,,1-5[8:1],
{4}6,7-3[8:1],2,1/5,
{8}6,5,7,2,4,3,8h[4:1],,
{8}3,4,2,7,5,6,2/7,,
{16}1,8,1,8,1,8,1,8,1w5[8:1],,,,1x,,,,
{8}8b,,1/6,,2,1/3h[4:1],,7,
{8}6h[4:1]/8,,2,1/3h[4:1],,1,4/8,,
{8}1/7,,3h[4:1]/8,,7,6h[4:1]/8,,2,
{8}1/3h[4:1],,7,6h[4:1]/8,,8,1/5,,
{4}4>7[2:1]/6,5,5,5,
{4}5/7>4[2:1],5,5,5,
{4}5<2[2:1],4,4,4,
{1}2<5[2:1]/5<2[2:1],
{4}4v1[4:1]/6v1[4:1],,,8-4[8:1],
{4}1-7[8:1],6-2[8:1],,2xqq5[4:3]/5x<5[4:3],
{1},
{1}C1hf[4:1]/B2/B7,
{8}C1f/B3/B4/B5/B6,,,,,1x/8x,1x/8x,,
{4}3>8[8:1]/4v7[8:1],3x/4x,5v2[8:1]/6<1[8:1],5x/6x,
{8}3,4,5/6,7,1/8,,2/7,,
{4}4/6,6q3[4:1]/7>2[4:1],,,
{8}1,2,3/5,6,1/7,,2/8<3[4:1],,
{8}1h[4:1],,,1,8,,7-3[8:1],,
{4}4-1[8:1]/7x,4x/6,5b/8b,6-1[8:1],
{4}5,3-8[8:1],4,6<3[8:3],
{4}4h[2:1],,,2/7,
{4}5v2[8:1]/6<1[8:1],5x/6x,3>8[8:1]/4v7[8:1],3x/4x,
{8}6,5,3/4,2,1/8,,3/7,,
{4}4/6,1s5[4:1],5,6,
{8}8,7,4/6,3,2/8,,1>6[4:1]/7,,
{8}8h[4:1],,,8,1,,2/6,,
{4}8w4[8:1],8x,2x/6x,7-4[8:1],
{4}8,2-5[8:1],1,6<3[4:1],
{4}4,,C1f/B3/B6,1h[2:1],
{24}E2,E3,E4,,,,8h[2:1],,,,,,E8,E7,E6,,,,1,,,,,,
{4}C1f/B2/B3/B6/B7,,,1b/8b,
{4}3-8[8:1]/5,6-1[8:1],2-5[8:1],7<8[8:3],
{8}1,,,,,3/4,2/5,,
{4}4/6-1[8:1],3-8[8:1],7-4[8:1],2>1[8:3],
{8}8,,,,,5/6,4/7,,
{2}7<4[8:1]/8>3[8:1],1<6[8:1]/2>5[8:1],
{8}7,7,5,8,3,3,2/4,,
{8}6-3[8:1],6,2-7[8:1],2,5-1[8:1],5,2>6[4:1],2,
{16}8h[8:3],,,,,,2,,1,8,1,8,2,7,2qq5[1:3],7,
{1}2h[4:13],
{1},
{1},
{1},
{1},
{1},
E
