&title=Mutation
&wholebpm=155
&artist=Laur
&des=小鳥遊さん
&shortid=11160
&genre=maimai
&cabinet=DX
&version=maimai DX Splash
&chartconverter=Neskol
&lv_2=5
&des_2=
&lv_3=8
&des_3=
&lv_4=12
&des_4=サファ太
&lv_5=14
&des_5=小鳥遊さん
&des_6=
&inote_2=
(155){1},
{1},
{1}4,
{1}4,
{1}4h[1:1],
{1},
{1}5,
{1}5,
{1}5h[1:1],
{1},
{2}4,4,
{2}3,3,
{1}4h[1:1],
{1},
{2}5,5,
{2}6,6,
{1}5h[1:1],
{1},
{1}3/4,
{1}5/6,
{2}4/5,4/5,
{2}4/5,4b/5b,
{2}3,3,
{2}2,2,
{2}1,1,
{4}8,8,8x,,
{2}7,7,
{2}6,6,
{2}5,5,
{4}4,4,4x/5x,,
{4}3,3,3/4,,
{4}6,6,5/6,,
{4}7,7,7/8,,
{4}2,2,1/2,,
{1}2-6[4:3],
{1},
{1}7-3[4:3],
{1},
{1}B2,
{1}B3,
{1}B4,
{1}B5,
{1}B6,
{1}B7,
{1}C1xh[1:1],
{1},
{2}8,8,
{2}8,1/8,
{2}1,1,
{2}1,1/8,
{4}8,8,1/8,,
{4}8,8,1/8,,
{4}1,1,1/8,,
{4}1,1,1b/8b,,
{1}7/8,
{1}1/2,
{2}7/8,1/2,
{4}8,1,1b/8b,,
{4}2,2,2,,
{4}2,2,1/2,,
{4}3,3,3,,
{4}3,3,3/4,,
{4}5,5,5,5,
{4}5,5,5b,,
{4}4,4,4,4,
{4}4,4,4b,,
{2}5,5,
{2}6,5/6,
{2}7,7,
{2}8,1/8,
{4}1,1,1,1,
{4}1,1,1b,,
{4}8,8,8,8,
{1}1x/8x,
{4}1,1,2,2,
{4}3,3,4/5,,
{4}5,5,6,6,
{4}7,7,1/8,,
{4}8,8,7,7,
{4}6,6,4/5,,
{4}4,4,3,3,
{4}2,2,1/8,,
{1}8-5[4:3],
{1},
{4}4,4,4,,
{4}5,5,4/5,,
{4}6,6,6,,
{4}7,7,7/8,,
{4}1,1,8,8,
{4}1,1,1/8,,
{1}2x/7x,
{1},
{1},
{1},
E
&inote_3=
(155){1},
{1},
{1}3<6[4:5],
{1},
{1}7-4[4:5],
{1},
{1}2-5[4:5],
{1},
{1}C1xh[2:3],
{1},
{1}8<5[4:5],
{1},
{1}4>1[4:5],
{1},
{1}8z4[4:5],
{1},
{4}3,3,4,4,
{4}4/5,4/5,3/6,,
{4}5xh[4:1]/6xh[4:1],,5/6,4/5,
{4}3xh[4:1]/4xh[4:1],,3/4,2/5,
{4}2,1,8,7,
{2}2h[4:1]/7h[4:1],1b,
{8}3,3,3,,2/4,,3/5,,
{8}6,6,6,,5/7,,4/6,,
{8}3,3,3,,2/4,,1,,
{8}8,8,8,,1x/7x,,,,
{8}6,6,5,,3,3,4,,
{8}2,2,1,,1/8,,2/7,,
{1}C1xh[1:1],
{2},8b,
{1}6-3[8:3],
{1}2-6[8:3],
{1}7-3[8:3],
{4}2,1,1b/8b,,
{2}2h[2:1],3h[2:1],
{2}4h[2:1],5,
{2}5h[2:1],6h[2:1],
{2}7h[2:1],8,
{1}1b,
{1},
{1},
{1},
{2}E3,E4,
{2}E5,E6,
{2}E7,E8,
{1}C1xh[2:1],
{4}E7,B6,B5,,
{4}E3,B3,B4,,
{4}B5,B6,E7,,
{4}B4,B3,E3,,
{4}B8,B7,E7,,
{4}B1,B2,E3,,
{2}B4/E4,B5/E6,
{4}E5,E4/E6,E3/E7,,
{4}1xh[4:1]/8xh[4:1],,1/2,1/2,
{4}1xh[4:1]/8xh[4:1],,7/8,7/8,
{4}6,5,4,3,
{2}3h[4:1]/6h[4:1],2x/7x,
{4}3x/4x,2,3/4,5,
{4}3/4,2,3/4,4/5,
{4}5/6,7,5/6,4,
{4}5/6,7,1x/7x,,
{8}2/4,2/4,2/4,,5/7,5/7,5/7,,
{8}2/4,2/4,2/4,,1x,,8x,,
{8}5/7,5/7,5/7,,2/4,2/4,2/4,,
{8}1/8,1/8,1/8,,2b/7b,,,,
{4}3h[4:1],4,6h[4:1],5,
{4}2h[4:1],3,1,1,
{4}2h[4:1],1,7h[4:1],8,
{4}1/8,2/7,3x/6x,,
{8}2/4,2/4,2/4,,1/8,1/8,1/8,,
{8}5/7,5/7,5/7,,4x,,3x,,
{8}2/3,2/3,2/3,,6/7,6/7,6/7,,
{4}C1f,,,1x/8x,
{8}2,2,1/2,,3,3,3/4,,
{4}5/6,7/8,1/2,3x/8x,
{8}7,7,7/8,,6,6,5/6,,
{4}3/4,1/2,3b/8b,,
{8}2,2,1/2,,7,7,7/8,,
{4}1/2,3/4,5/6,4x/7x,
{8}6,6,4,4,5,,3/6,,
{2}1h[4:1]/8h[4:1],2b/7b,
{1}C1f,
{4},,,4x/5x,
{8}3,3,2/4,,6,6,5/7,,
{4}7/8,1/2,3/4,2/5,
{8}6,6,5/7,,3,3,2/4,,
{4}3/5,4/6,2b/8b,,
{8}1,1,8,8,2,2,7,7,
{4}3x/6x,4x/5x,C1hf[2:1],,
{1},
{1},
{1},
E
&inote_4=
(155){1},
{1},
{1}1-4[4:3],
{1}8-5[4:3],
{8}3h[2:1],,,,5,5,4,4,
{4}6h[2:1],,5,5/6,
{1}4>1[4:3],
{1}8<5[4:3],
{1}C1xh[1:1],
{2},2/7,
{4}1>4[4:3],,8,8,
{4}8<5[4:3],,4,4,
{8}3h[2:1],,4,,5,5,4,4,
{4}6h[2:1],5,4,3/5,
{4}2>5[4:3],,7,6,
{4}6h[1:1],,5,4,
{8}3,3,4,4,5,5,6,6,
{8}3,3,7,7,1,1,1b/8b,,
{8}2xh[2:1]/4h[4:1],,,4,4,,4/5,,
{8}5h[4:1]/7xh[2:1],,,5,5,,1/8,,
{8}2,2,4,3,6,6,5,7,
{16}1,8,1,8,1,8,1,,2x/7x,,,,,,,,
{16}4/5,,3,4,,4,2,,1/2,,1/2,,8,,8,,
{16}4/7,,6,5,,5,7,,7/8,,1/6,,2x/5x,,,,
{16}4/5,,6,5,,5,7,,7/8,,7/8,,1,,1,,
{16}2h[8:1]/4h[8:1],,,3h[8:1]/5h[8:1],,,4x/6x,,C1,,,,,,,,
{16}1,,1,8,,8,6,,6,8,,8,2x,,3x,,
{16}5,,5,4,,4,2,,2,4,,4,6b,,,,
{16}1,8,1,8,2,7,2,7,3,6,3,6,4,5,4,5,
{16}4,3,2,1,8,7,6,5,4b,,,,,,,,
{16}3h[8:1],,,2h[8:1]/4h[8:1],,,2/4,,3x/4x,,,,1b,,,,
{16}6h[8:1],,,5h[8:1]/7h[8:1],,,5/7,,8x,,8x,,5x/7x,,,,
{16}3h[8:1],,,2h[8:1]/4h[8:1],,,2/4,,3x/4x,,,,2b,,,,
{16}6h[8:1],,,5h[8:1]/7h[8:1],,,5/7,,1x,,2x,,3x,,4x,,
{8}5,5,4,4,6,6,4,5,
{8}3,3,5,5,4,4,5,4,
{8}6,6,4,4,5,5,3,5,
{8}4,4,6,6,3,5,4,6,
{1}5b,
{1},
{1}4h[1:2],
{2}5,5,
{8}6h[2:1],,,5,5,,4h[2:1]/5,,
{8},5,5,,3/6,,4/5,,
{8}4/6h[2:1],,,5,5,,4h[8:3]/5h[8:3],,
{4},4/5,3/6,,
{4}5h[4:3],E4,E3,E2,
{4}1h[4:3],E8,E7,E6,
{4}5h[4:3],B3,C1,B6,
{4}E5,C1,E2/E8,E3/E7,
{4}4h[4:3],E4,E6,C1,
{4}8h[4:3],E8,E2,C1,
{4}1h[4:3],E1,C1,E5,
{4}B5/B6,B2/B3,C1,,
{4}3h[4:3]/5xq2[4:1],,,4,
{4}4xp7[4:1]/6h[4:3],,,5,
{4}3h[4:1],4h[4:1],5h[4:1],6,
{4}4/5,4/5,2x/7x,,
{8}7xh[16:3]/8xh[16:3],,7/8,1,1h[16:3]/2h[16:3],,1/2,8,
{8}7xh[16:3]/8xh[16:3],,7/8,6,4/5,4/5,3/6,,
{8}2xh[16:3]/4xh[16:3],,2/4,1,5h[16:3]/7h[16:3],,5/7,8,
{8}1xh[16:3]/8xh[16:3],,1/8,2/7,3x/6x,,1x/8x,,
{8}5/7,5/7,4/5,4/5,2/4,2/4,1/8,1/8,
{8}5/7,5/7,4/5,4/5,3/6,3/6,1b/8b,,
{8}2/4,2/4,4/5,4/5,5/7,5/7,1/8,1/8,
{8}2/4,2/4,4/5,4/5,2b/7b,,,,
{4}7-5[8:1],4-2[8:1],E5,C1,
{4}2-4[8:1],8-6[8:1],B1,C1,
{4}7-1[8:1],2-4[8:1],E6,C1,
{4}2/7,3/6,4h[8:1]/5h[8:1],2b/7b,
{8}1/8,1/8,2/3,2/3,4/5,4/5,6/7,6/7,
{8}1/8,1/8,2/3,2/3,4/5,4/5,2b/7b,,
{8}1/3,1/3,2/4,2/4,6/8,6/8,5/7,5/7,
{4}1b/6b,,,8b,
{8}2-6[8:1],2,5-1[8:1],5,2>5[8:1],2,8,7,
{8}6,5/7,3,2/4,1,1,3x/7x,,
{8}4/5,7,4/5,2,5/6,8,3/4,1,
{8}8-4[8:1],8,3>6[4:1],3,6b,,,,
{8}7-3[8:1],7,4-8[8:1],4,7<4[8:1],7,1,2,
{8}3,2/4,6,5/7,8,8,2b/6b,,
{8}4/5,7,4/5,2,4/5,5/7,4/5,2/4,
{4}1-5[8:1],6p4[8:3],4b,,
{1}C1f,
{4},,,4/5,
{8}3,2/4,7,6/8,2,1/3,6,5/7,
{8}8-4[8:1],8,3>6[4:1],3,6b,,,,
{8}4/5,2/4,1/8,5/7,4/5,2/4,1/8,5/7,
{8}3/4,1/2,7/8,5/6,C1f/B3/B7,,1b,,
{8}8-4[8:1],8,3>8[8:1],3,6>3[8:1],6,1,1,
{8}8b,,4/5,3/6,1b-5[8:1]/8b-4[8:1],,,,
{1}C1f/B2/B7,
{1},
{1},
{1},
E
&inote_5=
(155){1},
{1}5-1[2:1],
{8}4,4,5,5,4h[4:1],,5h[4:1],,
{8}3,3,,3/4,,4/5,,5>3[4:1]/6,
{8},,,,5,5,5,5,
{24}5h[4:1],,,,,,E3,,,E7,,,E5,,,E6,B5,B4,E4,,,7,,,
{8},6,6,5h[4:1],,4h[4:1],,3h[4:1],
{8},4h[4:1],,5>3[4:1],,,,,
{16}E5,,C1,,E3,E4,,E7,E6,,B1,B2,,B8,B7,,
{16}4,5,4,,6,5,,3,4,,7,5,,2,4,,
{8}3/6,4,5,4,3/6,,3/5,,
{8}4/6,4h[4:1],,5h[4:1],,4h[4:1],,3<6[4:1],
{8},,,,4,4,4,4,
{24}4h[4:1],,,,,,E7,,,E3,,,E5,,,E4,B4,B5,E6,,,2,,,
{8}7,7,6,4h[4:1]/5,,3h[4:1],,4h[4:1],
{8},5h[4:1],,6>3[4:1],,,,,
{16}E5,,C1,,E7,E6,,E3,E4,,B8,B7,,B1,B2,,
{16}5,4,5,,3,4,,6,5,,2,4,,7,5,,
{8}2xh[8:1]/6xh[8:1],,2/6,1/5,4-7[8:1]/8-3[8:1],,4/8,,
{8}3xh[8:1]/7xh[8:1],,3/7,4/8,1-6[8:1]/5-2[8:1],,1/5,,
{8}2x/6x,4,3x/7x,5,2x/6x,4/5,3x/7x,4/5,
{16}2x,4,3,8,5,6,1,7,3h[4:1],,,,5,5,4,,
{32}2x/6x,,,,7,,8,,7,,1,,7,,2,,7,6,5,,3,,3h[8:1],,,,4,,3,,,,
{16}1/5,,2,4,3,5,4,6,5/7,,1/2,,7/8,,2/4,,
{32}3x/7x,,,,2,,1,,2,,8,,2,,7,,2,3,4,,6,,6h[8:1],,,,5,,6,,,,
{16}4/8,,7,5,6,4,5,3,2h[8:1]/4,,8h[8:1],,6h[8:1],,4,,
{32}1x,,8,,1,,8,,1,,8,,1,,8,,1,2,3,,5,,5,,2,3,4,,7,6,5,,
{16}1,8,1,8,1,8,1,8,1/8x,,6/7,,4/5,,2/3,,
{24}1,8,1,8,1,8,1,8,1,8,1,8,2,7,2,7,2,7,3,6,3,6,3,6,
{24}4,5,4,5,4,5,3,6,3,6,3,6,2-6[8:1],,,,,,,,,,,,
{16}4x/7x,,5/6,5/6,,4/7,4/7,,8h[8:1],,,,C1,,,,
{16}5x/6x,,4/7,4/7,,5/6,5/6,,7,,7,,6b/8b,,,,
{16}2x/5x,,3/4,3/4,,2/5,2/5,,1h[8:1],,,,E1/E5,,,,
{16}3x/4x,,2/5,2/5,,3/4,3/4,,1b,,2b,,3b,,4b,,
{48}2/5,,,,,,3,,,4,,,3,,,4,,,3,,,4,,,E4,,B4,,B5,,E6,,,C1,,,,,,7,,,7,,,,,,
{48}8,,,,,,6,,,5,,,6,,,5,,,6,,,5,,,E6,,B5,,B4,,E4,,,C1,,,,,,2,,,2,,,,,,
{48}1,,,,,,2,,,4,,,2,,,4,,,2,,,4,,,E4,,B4,,B5,,E6,,,C1,,,,,,7,,,7,,,,,,
{16}8,,7,5,7,5,7,5,6h[8:1],,5h[8:1],,4h[8:1],,3,,
{1}2bq5[2:3]/5b,
{1},
{1}7p4[2:3],
{1},
{4}3h[2:1],,4,5h[2:1],
{4},4,B6/E6,B3/E4,
{4}6h[2:1],,5,3h[8:3],
{8},4,4w8[4:1],,,,,,
{16}2b/6b,,,,6,4,4,,3/6,,,4,6,,4,,
{16}6,,5,5,6,,4,,4/6,,4,,5/6,,4,,
{16}3/6,,,,3,5,5,,3/6,,,5,3,,5,,
{16}3,,4,4,3,,5,,3/6h[8:1],,,,3/5h[8:1],,,,
{16}E6/3,,,,B6,4,4,,B7/3,,,4,E8,,3,,
{16}E6,,4,4,B6,,3,,B7,4,4,,E8/3,,4,,
{16}E4/6,,,,B3,5,5,,B2/6,,,5,E2,,6,,
{16}E4,,5,5,B3,,6,,2/7,,4/5,,1b/8b,,,,
{8}3xqq6[8:3]/4x,,7,6,5-8[8:1],,5x,,
{8}5x/6xpp3[8:3],,2,3,4-1[8:1],,4x,,
{8}1x/8x,1,1/2,2,2/3,3,3/4,4,
{16}5,5,6,6,7,7,8,8,1-5[8:1],,,,,,,,
{16}5h[8:1]/6,,7,5,6,5,7,,5h[8:1]/6,,7,5,6,5,7,,
{16}5h[8:1]/6,,7,5,6,5,7,,5/6,5/6,,6,4,5,3,,
{16}3/4h[8:1],,2,4,3,4,2,,3/4h[8:1],,2,4,3,4,2,,
{16}3/4h[8:1],,2,4,3,4,2,,3/4w8[8:1],,,,,,,,
{16}2xh[16:1]/6xh[16:1],,3xh[16:1]/4xh[16:1],,6xh[16:1]/8xh[16:1],,2xh[16:1]/3xh[16:1],,5xh[16:1]/7xh[16:1],,1xh[16:1]/4xh[16:1],,3xh[16:1]/5xh[16:1],,2x/6x,3x/7x,
{24}4x/8x,,,5xh[16:1]/7xh[16:1],,,1xh[16:1]/2xh[16:1],,,6xh[16:1]/7xh[16:1],,,4xz8[8:1]/8x,3x/7x,2x/6x,1x/5x,,,,,,,,,
{16}3xh[16:1]/7xh[16:1],,5xh[16:1]/6xh[16:1],,1xh[16:1]/3xh[16:1],,6xh[16:1]/7xh[16:1],,2xh[16:1]/4xh[16:1],,5xh[16:1]/8xh[16:1],,4xh[16:1]/6xh[16:1],,3x/7x,2x/6x,
{8}1x/5x,2xh[16:1]/4xh[16:1],7xh[16:1]/8xh[16:1],2xh[16:1]/3xh[16:1],1xw5[8:1]/5x,,,,
{16}5/7,,8,8,5,8,,8,5h[8:1],,6h[8:1],,5h[8:1],,4h[8:1],,
{16}3,,1,1,4,1,,1,4h[8:1],,3h[8:1],,2h[8:1],,1h[8:1],,
{16}8,,5,5,8,5,,5,7h[8:1],,8h[8:1],,1h[8:1],,2h[8:1],,
{16}1,,4,4,1,4,,4,1w5[8:1],,,,,,,,
{16}2xh[16:1]/6xh[16:1],,3xh[16:1]/4xh[16:1],,5xh[16:1]/8xh[16:1],,1xh[16:1]/6xh[16:1],,2xh[16:1]/3xh[16:1],,7xh[16:1]/8xh[16:1],,4xh[16:1]/6xh[16:1],,3x/7x,2x/6x,
{24}1x/5x,,,4xh[16:1]/6xh[16:1],,,7xh[16:1]/8xh[16:1],,,3xh[16:1]/4xh[16:1],,,2x/6xz2[8:1],3x/7x,4x/8x,1x/5x,,,,,,,,,
{8}3xh[16:1]/7xh[16:1],5xh[16:1]/6xh[16:1],1xh[16:1]/4xh[16:1],3xh[16:1]/8xh[16:1],6xh[16:1]/7xh[16:1],1xh[16:1]/2xh[16:1],3xh[16:1]/5xh[16:1],2x<4[16:7]/6x<4[16:7],
{4},,,2b/7b,
{48}1x/8x,2,3,4,,,,,,1x>6[48:5],2>7[48:5],3<8[48:5],4<1[48:5],,,,,,1x,,,,,,,,,,,,4,,,,,,3/5,,,,,,4/6,,,,,,
{16}5/7,,2,1/2,,3,3/4,,4/5,,6,5,4/7,,8,,
{16}1/6,,2,2/3,,5,4/5,,6,6,1,7,2,8,3,1,
{16}4,,3/5,3/5,,4/7,4/7,,1w5[8:1]/5,,,,1b,,,,
{48}1x/8x,7,6,5,,,,,,8x<3[48:5],7<2[48:5],6>1[48:5],5>8[48:5],,,,,,8x,,,,,,,,,,,,5,,,,,,4/6,,,,,,3/5,,,,,,
{16}2/4,,8,8,2-6[8:1],6,4,8,2,,,,5/7,,8,1,
{16}2/7,,3,3/4,,6,5/6,,1,1,7,4,6,3,5,2,
{8}1h[4:1]/4-8[4:1],,,3,4xw8[8:1],,C1f,,
{1}2b/7b>6[4:5],
{2},4-8[8:1],
{32}1/6,,,,2,,2/4,,,,7,,5/7,,,,1,8,1,,7,,4,,6,,3,,5,,2,,
{16}4,,3/6,3/6,,1/5,1/5,,4/8w4[8:1],,,,8b,,,,
{48}1x/8x,2,3,4,,,,,,1x>6[48:5],2>7[48:5],3<8[48:5],4<1[48:5],,,,,,1x,,,,,,,,,,,,4,,,,,,2/5,,,,,,3/6,,,,,,
{32}4/7,,,,8,,8,,1,2,3,4,1,8,7,6,1b>4[8:1]/5b<8[8:1],,,,,,,,1/5,,,,,,,,
{32}4/8,,,,7,,5/7,,,,2,,2/4,,,,7,8,7,,2,1,2,,8,7,6,5,8,1,2,3,
{32}4x/8xh[4:1],,,,,,,,1,,,,3,,6,,4<4[4:1],,5,,4,,5,,E5,E6,E7,E8,E1,E2,E3,E4,
{1}C1f/E5,
{1},
{1},
{1},
E
