&title=MIRACLE RUSH
&wholebpm=168
&artist=StylipS
&des=譜面男子学院 中堅 小鳥 遊
&shortid=11182
&genre=POPSアニメ
&cabinet=DX
&version=maimai DX Splash
&chartconverter=Neskol
&lv_2=3
&des_2=
&lv_3=6
&des_3=
&lv_4=9
&des_4=小鳥遊さん
&lv_5=12
&des_5=譜面男子学院 中堅 小鳥 遊
&des_6=
&inote_2=
(168){1},
{1},
{1},
{1},
{1},
{1},
{1}1,
{1}1,
{2}8,8,
{1}8b,
{2}1,1,
{2}8,8,
{1}1h[2:1]/8h[2:1],
{1}1x/8x,
{1}1,
{1}1,
{1}2,
{1}2,
{2}3,3,
{1}3,
{2}4,4,
{1}4,
{2}5,5,
{2}4,4,
{2}4/5,4/5,
{1}3x/6x,
{2}7,7,
{1}7,
{2}8,8,
{1}8,
{2}1,1,
{1}1,
{1}1h[1:1]/8h[1:1],
{1},
{1}B8,
{1}B7,
{1}B6,
{1}B5,
{1}B4,
{1}B3,
{1}B2,
{1}B1/B8,
{1}C1hf[1:1],
{1},
{4}8,8,8,,
{4}7,7,7,,
{4}6,6,6,,
{1}4h[2:1]/5h[2:1],
{2}3/4,3/4,
{4}5,4,5b,,
{2}5/6,5/6,
{1}4h[2:1]/5h[2:1],
{4}4,4,4,,
{4}3,3,3,,
{4}2,2,2,,
{1}1h[2:1]/8h[2:1],
{4}8,8,1/8,,
{4}1,1,1/8,,
{4}8,8,1,1,
{1}1x/8x,
{1}8-4[4:3],
{1},
{1}4h[8:7]/5h[8:7],
{1},
{1},
{1},
E
&inote_3=
(168){1},
{1},
{1}3x>5[1:2],
{1},
{1},
{1}4x/5x,
{1}3h[1:1],
{1}4h[1:1],
{1}5h[1:1],
{1}6h[2:1],
{4}7,7,7,,
{4}8,8,8,,
{4}1,1,8,8,
{1}1-5[8:3],
{4}6,6,5,,
{4}3,3,4,,
{4}5,5,4,4,
{1}3x/6x,
{2}3h[2:1],4,
{4}6,6,5/6,,
{2}3h[2:1],4,
{4}6,6,5/7,,
{1}6-1[8:3],
{1}2-5[8:3],
{1}6-1[8:3],
{4}2,2,1/2,,
{2}7h[2:1],8,
{4}2,2,1/2,,
{2}7h[2:1],8,
{4}1,1,2/8,,
{1}7<4[8:3],
{1}3>8[8:3],
{4}7,7,6,6,
{4}5,4/5,3/6,,
{2}B2,B3,
{1}C1xh[2:1],
{2}B5,B6,
{2}B7,B8,
{2}B1,B2,
{1}C1xh[2:1],
{1}8x<5[8:3],
{1}4>1[8:3],
{4}8,8,1,1,
{4}1/8,1/8,2b/7b,,
{4}1,2,1/2,1/2,
{4}3,4,5/6,,
{4}7,7,7/8,7/8,
{4}6,5,4/6,,
{4}3h[2:1],4,4,,
{4}6h[2:1],5,5,,
{4}7,7,8,8,
{4}1x/8x,1x/8x,2x/7x,,
{4}2,1/2,1/2,,
{4}7,7/8,7/8,,
{4}2,2,1,1,
{4}1x/8x,1x/8x,2x/7x,,
{4}3,3,3/4,,
{4}6,6,5/6,,
{4}3,3,4,4,
{4}4x/5x,4x/5x,3x/6x,,
{4}2,2,1,,
{4}7,7,8,,
{8}1xh[4:1]/8xh[4:1],,,,1x/8x,1x/8x,,2x/7x,
{1},
{1},
{1},
E
&inote_4=
(168){1},
{1},
{1},
{1},
{1},
{4},,1x,8x,
{4}2x-5[4:1]/7x,,6,5,
{4}4/7-3[4:1],,1,2,
{4}3h[4:1]/6,4h[4:1],5h[4:1],6<3[2:1],
{4},,,1b/8b,
{8}3,3,4,,2/5,,6,6h[4:1],
{8},5,5,,4/7,,1/2,,
{8}7/8,,4/5,,3/6,,1/8,1h[4:1]/8h[4:1],
{4},3b-8[4:1]/4b-7[4:1],,,
{8}1xh[4:1],,3,,5/6,,7,7h[4:1],
{8},8,8,,1/6,,3/8,,
{8}2/4,,5/7,,1/8,1-4[8:1]/8-5[8:1],,,
{4},,2/5,4/7,
{4}3h[4:1]/6,4,6h[4:1],5,
{8}3,3,4,,2/5,,4/6,,
{4}4/6h[4:1],5,3h[4:1],4,
{8}6,6,5,,4/7,,3/5,,
{4}3h[4:3]/5,E3,E4,E5,
{4}6h[4:3],E7,E6,E5,
{8}3h[4:1],,4,4,,2/5,,6h[4:1],
{8},5,5,,4b/7b,,,,
{8}2h[4:1],,4,,6,6,5,,
{8}3,3,4,,2/5,,4/7,,
{8}4/7h[4:1],,5,,3,3,4,,
{8}6,6,5,,4/7,,2/5,,
{4}2h[4:3]/5,E2,E3,E4,
{4}7h[4:3],E8,E7,E6,
{8}4/8,,2/5,,4/6,,2/7,2b/7b,
{4},3h[4:1],4h[4:1],5h[4:1],
{2}6-1[4:1],2-5[4:1],
{8}6,,5/7,,8,8,1,,
{4}3h[4:1],4h[4:1],5h[4:1],6h[4:1],
{4}7h[4:1],8h[4:1],1h[4:1],2h[4:1],
{2}3-8[4:1],7-4[4:1],
{8}3,,2/4,,1,1,8,,
{8}2h[4:1],,4,4,,7h[4:1],,5,
{8},3/6,,2/7,,1/8,1/8<1[4:3],,
{1},
{8}4x/6x,4x/6x,3x/5x,3x/5x,4x/6x,,2b/7b,,
{4}1>4[8:1]/8,6,5<8[8:1],1,
{4}2-5[8:1],1-6[8:1],2-5[8:1],8,
{8}7h[4:1],,4,4,5,,2<4[2:1]/4,,
{4}C1f,,,1b/8b,
{8}7,7,8,,1/6,,3/8,,
{8}2,2,1,,4/8,,7,7,
{8}5h[4:1],,4h[4:1],,3h[4:1],,1,1,
{8},2b/7b,2b/7b,,4x/5x,4x/5x,3x/6x,,
{8}2x/7x<4[8:1],,1,,3,3,4,,
{8}2>5[8:1]/6,,8,,7,7,8,,
{4}1/6h[4:1],5h[4:1],4h[4:1],3>6[2:1],
{4}C1f,,,1b/8b,
{8}6,6,5,,4/7,,3,3h[4:1],
{8},4,4,,1/5,,7/8,,
{8}1-4[8:1],,,,C1f,,1/8,1h[4:1]/8h[4:1],
{4},5b-2[4:1]/6b-1[4:1],,,
{8}8xh[4:1],,6,,3,3,4,2h[4:1],
{8},1,1,,3/8,,1/6,,
{8}5/7,,2/4,,1/8,1/8,,C1f/E3/E7,
{1},
{1},
{1},
E
&inote_5=
(168){1},
{16},,,,,,,,,,,,E7,B6,B5,B4,
{8}B3,,B1,B7/E8,,B8,B2/E2,,
{8},E8,E7,E6,E2,E3,E4,C1hf[8:9],
{1},
{8}B2/B7,,,,1x,1x,8x,7x,
{8}2xh[4:1]/6x>3[8:1],,,,8,8,1,2,
{8}3<6[8:1]/7h[4:1],,,,8,8,1,1,
{8}2/4,,5/7,,6,5,4pp8[2:1]*qq8[2:1],3,
{4},,,2b/6b,
{8}1/8,2,3/5,4,5h[4:1]/7h[4:1],,,4V25[4:1]/6V85[4:1],
{8},,,,3b/7b,,2/6,3/7,
{8}4h[4:1]/8-5[8:1],,8,,C1f/E3/E7,,1/8,1/8,
{8},3/4,1b/7b,,5xqq3[8:1]/6xq3[8:1],,,,
{8}2x/5xs1[4:1],,3,,2,3p2[8:3],4,5,
{8},8,8,,1x-5[8:1]/2xv4[8:1],,,,
{8}4x/5x-8[8:1],,2,,3/7,3v5[8:3]*V15[8:3]/7,,,
{4},,6x/8x,1x/3x,
{8}4x/5x,3,4,5,6,6,4,7,
{8}3,3,5,2,3/4,,7/8,,
{8}7/8,6,5h[4:1],,3,3,4,2,
{8}7,6,5,4,3/5,,1/2,,
{8}1/2,8,7,5,5h[4:1],,B5/B6,,
{8}7/8,1,2,4,4h[4:1],,B3/B4,,
{8}2>5[8:1],,7,7<4[8:1],,3,,2h[4:1],
{8},1,3/8,,1/6>3[8:1],,,,
{8}2/5,3,4,5,6,6,4,8,
{8}3,3,5,1,1/8,,5b/6b,,
{8}7b/8b,6,5,4,3,3,4,1,
{8}6,6,5,8,1/8,,3b/4,,
{8}1b/8b,7,6,5,4h[4:1],,B4/B5,,
{8}1/8,2,3h[4:1],,B2/B3,,B6/B7,,
{8}3,4,5,6,5,4,3,2b/7b,
{16},,1/8,,1/8,,,,3/6,,4,5,3,5,2,,
{4}1-4[8:1]/6,6,4-8[8:1]/6,6,
{8}6/8-3[8:1],,6,,3-5[8:1]/7,7,7,,
{4}3/6h[4:1],5h[4:1],4h[4:1],3h[4:1],
{4}2h[4:1],1h[4:1],8,2/7,
{4}3/6-2[8:1],3,2-7[8:1]/3,3,
{8}3/7-4[8:1],,3,,3,4,5,6,
{8}5/7,,1/8,1/8,,3>6[8:3]/4,,5h[8:3],
{8},,,5,6,5,4,3,
{16}2/5,,3,4,3,,4/7,,6,5,6,,1b/8b,,,,
{8}4x/6x,3x/5x,4x/6x,3x/5x,1x-5[8:1]/8x-4[8:1],,C1f,,
{8}2b>6[4:1]/7b,,6<2[4:1],,2,,6,7,
{8}8<4[4:1],,4>8[4:1],,8,,4,3,
{8}2-6[8:1]/5,,8-4[8:1],8,1-5[8:1],1,7<8[2:1],,
{4}3h[2:1],,,1b/5b,
{4}6h[4:1]/8p3[8:1],,1/2,3/8,
{8}1>4[8:1]/5<8[8:1],,1/5,,C1f/B2/B4/B6/B8,,1,1,
{8}7<4[8:1],,8-4[8:1],,1<3[4:1],,2,2h[8:3],
{8},1b,1b,,7x/8x,6x,4x/5x,3x,
{8}1x-5[8:1]/2x,,1/7,,1/2,3,4/5,6,
{8}7/8-4[8:1],,2/8,,5/7,6,2/4,3,
{8}4/8,,1/5,,3/6,4,5pp1[2:1]*qq1[2:1],6,
{4},,,3b/7b,
{8}1/8,7,4/6,5,2h[4:1]/4h[4:1],,,3V14[4:1]/5V74[4:1],
{8},,,,2b/6b,,3/7,2/6,
{8}1-4[8:1]/5h[4:1],,1,,C1f/E3/E7,,1/8,1/8,
{8},5/6,2b/8b,,3p6[8:1]/4pp6[8:1],,,,
{8}5xV71[4:1],,1V35[4:1],,5,,1,2h[4:1],
{16},,4,,4,,6,5,6,,7,,8,,1,,
{8}2-8[8:1]/7-3[8:1],,2/7,,1,1v4[8:1]*v6[8:1],,C1f,
{1},
{1},
{1},
E
