&title=Ether Strike
&wholebpm=156
&artist=Akira Complex
&des=シチミヘルツ
&shortid=11207
&genre=ゲームバラエティ
&cabinet=DX
&version=maimai DX Splash
&chartconverter=Neskol
&lv_2=4
&des_2=
&lv_3=7+
&des_3=
&lv_4=10+
&des_4=小鳥遊さん
&lv_5=13+
&des_5=シチミヘルツ
&des_6=
&inote_2=
(156){1},
{1},
{1}4x,
{1},
{1}5x,
{1},
{1}4x,
{1},
{1}5x,
{1},
{1}B4,
{1}B5,
{1}B3,
{1}B6,
{1}C1hf[1:2],
{1},
{1},
{2},1x,
{2}1x/8x,1,
{2}2,2,
{2}3,3,
{1}3x/4x,
{2}5x,5,
{2}6,6,
{2}7,7,
{1}7x/8x,
{2}8,8,
{2}7,7,
{2}6,6,
{1}4x/5x,
{2}4,4,
{2}3,3,
{2}2,2,
{1}1x/2x,
{1}B1/B2,
{1}B7/B8,
{1}B5/B6,
{1}B3/B4,
{1}C1hf[1:2],
{1},
{1},
{2},8x,
{1}8-4[4:3],
{1},
{1}1-5[4:3],
{1},
{1}7-4[4:3],
{1},
{1}2-5[4:3],
{1},
{1}8h[1:1],
{1},
{1}1h[1:1],
{1},
{1}C1hf[1:2],
{1},
{1},
{2},1x/8x,
{1}2h[4:3],
{2},2x,
{1}3h[4:3],
{2},3x,
{1}3h[4:3]/4h[4:3],
{2},3x/4x,
{1}5h[4:3]/6h[4:3],
{2},5b/6b,
{2}7,7,
{2}6,5/7,
{2}4,4,
{2}3,2/4,
{2}5,5,
{2}6,5/7,
{2}8,8,
{2}1x,1x/8x,
{4}2,2,2,,
{4}3,3,3,,
{4}4,4,4,,
{4}5,5,4/5,,
{4}6,6,6,,
{4}7,7,7,,
{1}8h[2:1],
{1}1b/8b,
{4}7,7,7,7,
{4}6,6,5/6,,
{4}5,5,5,5,
{4}4,4,3/4,,
{4}3,3,3,3,
{4}2,2,1/2,,
{2}1/8,1/8,
{4}1,8,1/8,,
{1}2b/7b,
{1},
{1},
{1},
E
&inote_3=
(156){1},
{1},
{1}1xpp4[4:5],
{1},
{1}5xpp8[4:5],
{1},
{1}1x>6[4:5],
{1},
{1}8x<5[2:1],
{16},,4x,,,4x,,,5x,,,5x,,,3x,,
{2}3xh[2:1],4,
{2}6h[2:1],5,
{2}3h[2:1],4,
{4}5,5,4/6,,
{1}2V48[4:5]/7V51[4:5],
{1},
{4}2,1/2,7,7/8,
{8}1,1,8,8,2b/7b,,,,
{4}3,3,3/4,,
{4}6,6,5/6,,
{4}7,7,7/8,,
{4}1/8,1/8,2x/7x,,
{4}3h[4:1],4,3/4,,
{4}6h[4:1],5,5/6,,
{4}7x/8x,7x/8x,1x/2x,1x/2x,
{4}1x/8x,1x/8x,2b/7b,,
{4}3,3/4,2/5,,
{4}6,5/6,4x/7x,,
{4}7,7x/8x,1/6,,
{4}1/8,2x/7x,3x/6x,4x/5x,
{4}6,5/6,4/7,,
{4}3,3/4,2/5,,
{4}1x/2x,1x/8x,7x/8x,1x/8x,
{4}2x/7x,2x/7x,2b/7b,,
{4}2h[4:1],1,1/2,3/8,
{4}7h[4:1],8,7/8,1/6,
{4}6h[4:1],5,5/6,4/7,
{4}3h[4:1],4,3/4,4/5,
{1}3xV15[4:5]/6xV84[4:5],
{1},
{8}3,3,3,,2,2,2,,
{8}1,1,8,8,2b/7b,,,,
{1}C1xh[1:1]/B3/B6,
{1},
{1}C1xh[1:1]/B2/B7,
{1},
{1}B1/B2,
{1}B3/B4,
{1}B5/B6,
{1}B2/B7,
{2}3h[2:1],4h[2:1],
{2}5h[2:1],6x,
{2}7h[2:1],8h[2:1],
{2}1h[2:1],2x,
{1}2x<3[2:3],
{1},
{8}2x,2,1,,7,7,8,,
{8}1,1,8,8,2b/7b,,,,
{4}3/5,6,7,8z4[2:1],
{1},
{4}3/4,3,2,1s5[2:1],
{1},
{4}5/6,6,7,8z4[2:1],
{1},
{4}3/5,3/5,2/6,2-5[8:3]/6-1[8:3],
{1},
{4}4/8,7,6,3/5s1[2:1],
{1},
{4}1/2,2,3,4z8[2:1]/6,
{1},
{4}7/8,7,6,3/5s1[2:1],
{1},
{4}1/2,1/2,3/8,3/8<3[8:5],
{1},
{4}2,1/2,7,7/8,
{4}6,5,4/6,,
{4}3,3/4,6,5/6,
{4}7,1/8,2x/7x,,
{4}3,3/4,6,5/6,
{4}7,8,1/7,,
{2}3x/6x,2x/7x,
{4}1/8,1/8,2b/7b,,
{4}1/2,1/2,3/4,3/4,
{4}5/6,5/6,4x/7x,,
{4}7/8,7/8,5/6,5/6,
{4}3/4,4/5,3x/6x,,
{4}5/6,5/6,3/4,3/4,
{4}1/2,1/2,3x/8x,,
{2}7xh[4:1]/8xh[4:1],1xh[4:1]/2xh[4:1],
{4}7/8,1/8,1/2,1/8,
{1}2bv5[4:3]/7bv4[4:3],
{1},
{1},
{1},
E
&inote_4=
(156){1},
{1},
{1}4x>5[4:5]/5x,
{16},,,,,,,,,,,,,4x/5x,,,
{1}4x/5x<4[4:5],
{2},5h[2:1],
{1}4x>5[1:1],
{16},,,,,,,,,,,3x/6x,,3x/6x,,,
{1}4x/5x-1[2:1],
{16},,4x/6x,,,3x/5x,,,4x/6x,,,3x/5x,,,2x/7x,,
{2}2b<3[2:3]/7b,E1,
{2}C1,E5,
{2}7>6[2:3],E1,
{2}C1,E5,
{16}3xh[16:3],,,4xh[16:3],,,5xh[16:3],,,6xh[16:3],,,7xh[16:3],,,8xh[16:3],
{16},,1xh[16:3],,,2xh[16:3],,,3xh[16:3],,,4x,,,2/5,,
{8}4,4,5,5,3,3,6,6,
{16}4x,5x,4x,5x,4x,5x,4x,5x,C1hf[4:1],,,,,,,,
{8}1x/8x,,6,5,7,7,5,4,
{8}8h[4:1],,5,7,4,3,6,5,
{8}2h[4:1],,4,3,7,6,4,7,
{8}8h[4:1],,6,6,5/7,,2/4,,
{8}3/6,,2,3,5,3,4,5,
{8}1h[4:1],,4,5,2,6,5,5,
{8}8h[4:1],,6,5,4h[4:1],,6,6h[4:1],
{16},,4x,,,3x/5x,,,4x/6x,,,3x/5x,,,2x/7x,,
{8}2b/7b,,3,4,5,1,1,4,
{16}2h[4:1],,,,3,,3,,3xh[8:1]/4xh[8:1],,,4xh[8:1]/5xh[8:1],,,5xh[4:1]/6xh[4:1],,
{8},,4x/7x,,8,7,4,4,
{16}7h[4:1],,,,5,,5,,5xh[8:1]/6xh[8:1],,,4xh[8:1]/5xh[8:1],,,3x/4x,,
{8}2x/5x,,6,5,4,8,8,5,
{8}7h[4:1],,5,4,6,1,5,4,
{8}2h[4:1],,3,4,5h[4:1],,4,3h[4:1],
{16},,5x,,,4x/6x,,,3x/5x,,,4x/6x,,,1x/8x,,
{8}1b/8b,,2,2,1,3,4,5,
{8}2h[4:1],,4,5,3,8,8,4,
{8}7h[4:1],,5,4,6,2,2,5,
{8}3h[4:1],,4,5,4/6,,3/7,,
{16}4/6xh[16:3],,,5xh[16:3],,,4xh[16:3],,,3xh[16:3],,,2xh[16:3],,,1xh[16:3],
{16},,8xh[16:3],,,7xh[16:3],,,6xh[16:3],,,5x,,,4/7,,
{8}5,5,4,4,6,6,3,3,
{16}5x,4x,5x,4x,5x,4x,5x,4x,C1hf[4:1],,,,,,,,
{2}1x/8x<1[4:5],E1,
{16}C1,,,,,,,,E5,,,,,2x/8x,,,
{2}1x>8[4:5]/7x,E1,
{2}C1,E5,
{1}5xpp1[8:9]*qq1[8:9],
{16},,,,,,,,,,,3x/7x,,3x/7x,,,
{1}1xv3[2:1]/5xv7[2:1],
{16}1xh[8:1]/8xh[8:1],,,2xh[8:1]/7xh[8:1],,,3xh[8:1]/6xh[8:1],,,4x/5x,,,4x,5x,,,
{2}3x/6x<5[4:13],E7,
{2}E8,E1,
{2}E2,E3,
{16}E4,,,,,,,,E5,,,,,,3x,4x,
{16}2xh[16:3],,,1xh[16:3],,,8xh[16:3],,,7xh[16:3],,,6xh[16:3],,,5xh[16:3],
{16},,4xh[16:3],,,3xh[16:3],,,2xh[16:3],,,1x,,,3x/8x,,
{8}1,1,8,8,2,2,7,7,
{16}1x,8x,1x,8x,1x,8x,1x,8x,C1hf[2:1],,,,,,,,
{2}B2/B7,1V37[16:9]/8>7[16:9],
{4},,1x/6x,3/4,
{2}2h[8:3]/5h[8:3],5V72[16:9]/6pp3[16:9],
{16},,,,,,,,2h[8:1]/5h[8:1],,,3h[8:1]/6h[8:1],,,4/7,,
{2}5h[8:3]/8h[8:3],3>6[16:9]/6qq3[16:9],
{4},,1/8,3/4,
{2}2h[8:3]/5h[8:3],1pp8[16:9]/6qq3[16:9],
{2},B1/C1f/B2/B5/B6,
{2}7h[8:3]/8h[8:3],1V38[16:9]/6p5[16:9],
{4},,3/7,4/5,
{2}1h[8:3]/3h[8:3],5s1[16:9]/7qq4[16:9],
{16},,,,,,,,2h[8:1]/5h[8:1],,,3h[8:1]/6h[8:1],,,4/7,,
{2}5h[8:3]/8h[8:3],4>6[16:9]/7s3[16:9],
{4},,1/7,3/5,
{2}1h[8:3]/4h[8:3],2q3[4:3]/3<2[4:3],
{4},,,2b/7b,
{16}3h[16:3]/6,,,4,2,,2,,6h[16:3],,,5,7,,7,,
{16}2h[16:3],,,1,3,,3,,8,,7,,1/6,,,,
{16}2h[16:3],,,1,3,,3,,7h[16:3],,,8,6,,6,,
{16}3h[16:3]/4h[16:3],,,,2h[16:3]/5h[16:3],,,,1x/6x,,,3b/8b,,,,,
{16}2/6h[16:3],,,5,7,,7,,3h[16:3],,,4,2,,2,,
{16}7h[16:3],,,8,6,,6,,1,,2,,3/8,,,,
{2}1-5[8:1]/6-8[8:1],3-1[8:1]/8-4[8:1],
{16}2h[8:1]/5h[8:1],,,4h[8:1]/7h[8:1],,,3h[8:1]/8h[8:1],,,1h[8:1]/6h[8:1],,,2b/7b,,,,
{16}3h[16:3],,,4,2,,1/5,,6h[16:3],,,5,7,,4/8,,
{16}2h[16:3],,,1,3,,4/8,,5h[8:1]/7h[8:1],,,2h[8:1]/4h[8:1],,,3x/6xh[16:5],,
{16},,,5,7,,4/8,,3h[16:3],,,4,2,,1/5,,
{16}3xh[16:3]/7xh[16:3],,,,2xh[16:3]/6xh[16:3],,,,7x/8x,,,4x/5x,,,1x/2x,,
{16}3xh[16:3]/8x,,,4,2,,1/5,,6h[16:3],,,5,7,,4/8,,
{16}2h[16:3],,,1,3,,4/8,,5/6,,5/6,,4b/7b,,,,
{2}2-4[8:1]/5-1[8:1],4-8[8:1]/7-5[8:1],
{16},,4x/5x,,,2x/3x,,,1x/8x,,,6x/7x,,,4x/5x,,
{1}2b<3[4:3]/7b,
{1},
{1},
{1},
E
&inote_5=
(156){1},
{1},
{1}2pp5[8:9]/6,
{16},,,,,,,,,,6,5,6,5,,,
{1}3/7s3[4:3],
{4},4w8[4:1],,,
{1}2qq3[8:9]/6qq7[8:9],
{16},,,,,,,,,,,4/8,,4h[8:1]/8h[8:1],,,
{8}2V83[2:1]/6V47[2:1],,,,,,,4/8h[4:1],
{16},,1,,,2h[8:1]/3h[8:1],,,1h[8:1]/8h[8:1],,,6h[8:1]/7h[8:1],,,1/8,,
{4}2/7<4[2:1],C1,C1,C1,
{16}2>5[2:1]/6,,,,C1,,,,C1,,,,E8,E4,E7,E3,
{4}C1,C1,C1/E2,C1/E4,
{16}2-5[8:1]/7-4[8:1],,,,,,,,2/8,,3/7,,6,5,,5,
{16}4/7h[8:1],,,3/6h[8:1],,,2/5h[8:1],,,1/4h[8:1],,,3h[8:1]/8,,,2h[8:1]/7,
{16},,1h[8:1]/6,,,5/8h[8:1],,,4/7h[8:1],,,3/6h[8:1],,,2/5h[8:1],,
{16}2,4,3,5,4,6,5,7,4,8,3,7,2,6,1,5,
{32}2x,3x,4x,5x,6x,7x,8x,1x,2xq5[8:3],3x,4x,5x,6x,7x,8x,1x,2x/6x,,,,,,,,,,,,,,,,
{16}4b/8b,,,,7,5,6,5,7,4,5,4,7-4[8:1],5,6,5,
{16},,,,2,4,3,4,2,5,4,5,2-5[8:1]*v5[8:1],4,3,,
{16},,,,7,5,6,5,7,4,5,4,7-4[8:1],5,6,5,
{16},,,,2,4,3,4,2,2,,6,5,7,,,
{24}4x/8x,,,,,,2,,4,3,,4,2,,5,4,,5,2-5[8:1],,4,3,,4,
{24},,,,,,7,,5,6,,5,7,,4,5,,4,7-1[8:1]*-5[8:1],,5,6,,,
{16},,,,3,3,4,4,2,2,7,7,5,5,6,6,
{16},,1h[8:1]/7h[8:1],,,3h[8:1]/4h[8:1],,,2h[8:1]/8h[8:1],,,5h[8:1]/6h[8:1],,,1/7,,
{24}2b/6b,,,,,,7,,5,6,,4,5,,4,6,,3,7-3[8:1],,5,6,,4,
{48},,,,,,,,,,,,2,,,,4,,3,,,,4,,2xh[8:1]/5xh[8:1],,,,,,,,,4h[8:1]/7h[8:1],,,,,,,,,1x/5x,,,,,,
{24},,,,,,2,,4,3,,5,4,,5,3,,6,2-6[8:1],,4,3,,5,
{48},,,,,,,,,,,,7,,,,5,,6,,,,5,,4xh[8:1]/7xh[8:1],,,,,,,,,2h[8:1]/5h[8:1],,,,,,,,,1/7,,,,,,
{24}2x/6x,,,,,,7,,5,6,,4,5,,4,6,,3,7-3[8:1],,5,6,,4,
{24},,,,,,2,,4,3,,5,4,,6,3,,7,2-5[8:1]*-7[8:1],,1,3,,,
{16},,,,6,6,5,5,7,7,2,2,4,4,3,3,
{16},,2h[8:1]/8h[8:1],,,5h[8:1]/6h[8:1],,,1h[8:1]/7h[8:1],,,3h[8:1]/4h[8:1],,,2/8,,
{16}3b/7b,,,,2,4,3,5,4,6,5,7,4-1[8:1],6,3,5,
{16}4,,,,7,5,6,4,5,3,4,2,5-8[8:1],3,6,4,
{16}5,,,,1,7,5,6,2,8,3,4,1,7,5,6,
{16}1b,,,,1/5,2/6,3/7,4/8,1p4[8:1]/5p8[8:1],,,,,,,,
{16}2h[8:1]/6,,,3h[8:1]/7,,,4h[8:1]/8,,,1/5h[8:1],,,2/6h[8:1],,,3/7h[8:1],
{16},,4/8h[8:1],,,1h[8:1]/5,,,2h[8:1]/6,,,3h[8:1]/7,,,4h[8:1]/8,,
{16}7,5,6,4,5,3,4,2,5,1,6,2,7,3,8,4,
{32}7x,6x,5x,4x,3x,2x,1x,8x,7xp4[8:3],6x,5x,4x,3x,2x,1x,8x,3x/7x,,,,,,,,,,,,,,,,
{1}C1xh[1:7]/1b>5[16:19],
{16},,,,,,,,,,,,,4h[8:1],,,
{1}3p5[2:3],
{1},
{1}6q3[4:5],
{16},,,,,,,,,,,2,,2h[8:1],,,
{1}1V72[16:9],
{16}2h[8:1],,,3h[8:1],,,4h[8:1],,,3h[8:1],,,2,2,,,
{1}C1xh[2:7]/8b<4[8:11],
{1},
{1}5q2[1:1],
{16},,,,,,,,2,,1h[8:1],,,8,,,
{16}3/7h[8:1],,,2/6h[8:1],,,1/5h[8:1],,,4h[8:1]/8,,,3h[8:1]/7,,,2h[8:1]/6,
{16},,1h[8:1]/5,,,4/8h[8:1],,,3/7h[8:1],,,2/6h[8:1],,,1/5h[8:1],,
{16}2,4,3,5,4,6,5,7,4,8,3,7,2,6,1,5,
{32}1x,2x,3x,4x,5x,6x,7x,8x,1x,2x,3x,4x,5x,6x,7x,8x,C1f/1b,,,,,,,,3<7[4:1]/7-4[8:1],,,,,,,,
{4}7>3[4:1],4-1[8:1],4xqq8[8:7],8b,
{4},7-4[8:1],7x,2-5[8:1]/6>2[4:1],
{4}2<6[4:1],5-8[8:1],5x>7[2:1],1b,
{16},,,,3,,,,2x/4x,2/4,,3/7,3<7[4:1]/7v4[8:1],,2/8,,
{4}7>3[8:3],4-1[8:1],4xqq8[8:7],8b,
{4},7-4[8:1],7x,2v5[8:1]/6>2[4:1],
{4}2<6[8:3],5-8[8:1],5x>7[2:1],1b,
{4},3,1b/5b,3V57[4:1]/7-4[8:1],
{4}7V13[4:1],4-1[8:1],4xqq8[8:7],8b,
{4},7-4[8:1],7x,2-5[8:1]/6V42[4:1],
{4}2V86[4:1],5-8[8:1],5x>7[2:1],1b,
{16},,,,3,,,,2x/4x,2/4,,3/7,3V57[4:1]/7v4[8:1],,2/8,,
{4}7V13[8:3],4-1[8:1],4xqq8[8:7],8b,
{4},7-4[8:1],7x,2v5[8:1]/6V42[4:1],
{4}2V86[8:3],5-8[8:1],5x>7[8:3],1b,
{4},2-5[8:1]/6-1[8:1],,3b/7b,
{16}7-4[8:1],8,,8,7,,1,,2-5[8:1],1,,1,2,,8,,
{16}6-1[8:1],5,,5,6,,4,,3-8[8:1],4,,4,3,,5,,
{16}7<4[8:1],8,,8,7,,1,,2>5[8:1],1,,1,2,,8,,
{16}3/7h[4:1],,,,8,7,2,1,3/8b,,,1b/6,,,3/7,,
{16}2v5[8:1],1,,1,2,,8,,7v4[8:1],8,,8,7,,1,,
{16}3v8[8:1],4,,4,3,,5,,6v1[8:1],5,,5,6,,4,,
{32}3b-1[8:1]/8b-4[8:1],,,,,,,,,,,,,,,,1h[4:1]/4b-7[8:1],,,,,,,,4,,,,2,3,4,5,
{16}8b,,,1b/7,,,3/8b,,,2b/6h[16:3],,,,,4/5,,
{16}2-5[8:1],1,3,1,2,,8,,7-4[8:1],8,6,8,7,,1,,
{16}2,4,3,5,4,6,5,7,4/8b,,,2b/5,,,4b/8,,
{16}7<4[8:1],8,6,8,7,,1,,2>5[8:1],1,3,1,2,,8,,
{16}1/7h[4:1],,,,8,7,2,1,3/8b,,,1b/6,,,4/8b,,
{16}6v1[8:1],5,7,5,6,,4,,3v8[8:1],4,2,4,3,,5,,
{16}7v4[8:1],8,6,8,7,,1,,3,4,1,8,5,6,1,8,
{16}3b-8[8:1]/7b-4[8:1],,,,,,,,2b/6b,,,,4,4,5,5,
{32},,,,3b/8b,,3/8,,,,1b/6b,,1/6,,,,3b/7b,,,,1,2/8,3b/7b,4/6,5>5[1:1]*<5[1:1],,,,3b/7b,,,,
{1}5b,
{1},
{1},
{1},
E
