&title=Climax
&wholebpm=190
&artist=USAO
&des=シチミヘルツ
&shortid=11176
&genre=オンゲキCHUNITHM
&cabinet=DX
&version=maimai DX Splash
&chartconverter=Neskol
&lv_2=4
&des_2=
&lv_3=8
&des_3=
&lv_4=12
&des_4=隅田川星人
&lv_5=14
&des_5=シチミヘルツ
&des_6=
&inote_2=
(190){1},
{1},
{1},
{1},
{1},
{1},
{1}1,
{1}1,
{1}8,
{1}8x,
{1}7,
{1}6,
{1}5,
{1}4,
{1}3x,
{1}2x,
{1}1x,
{1}8b,
{2}1,1,
{1}1,
{2}2,2,
{1}2,
{2}3,3,
{1}3,
{2}4,4,
{1}4x/5x,
{2}5,5,
{1}5,
{2}6,6,
{1}6,
{2}7,7,
{1}7,
{2}8,8,
{1}1x/8x,
{2}8,8,
{1}7,
{2}6,6,
{1}5,
{2}4,4,
{1}3,
{2}2,2,
{1}1x,
{2}1,1,
{1}2,
{2}3,3,
{1}4x,
{2}5,5,
{1}5/6,
{2}4,4,
{1}4b/5b,
{1}6h[1:1],
{1},
{1}5h[1:1],
{1},
{1}4h[1:1],
{1},
{1}3h[1:1],
{1},
{1}4x/5x,
{1},
{1},
{1},
{1}B5,
{1}B4,
{1}B6,
{1}C1,
{1}1x>4[4:5],
{1},
{1},
{1}5x,
{1}5x<8[4:5],
{1},
{1},
{1}8x,
{4}8x,8,8,,
{2}7,7/8,
{4}6,6,6,,
{2}5x,5x/6x,
{4}4,4,4,,
{2}4/5,4/5,
{2}3,2,
{1}1x/8x,
{4}1b,1,1,,
{4}2,2,2,,
{4}3,3,3,,
{4}4,5,4x,,
{4}5,5,5,,
{4}6,6,6,,
{4}7,7,7,,
{4}8,8,1x/8x,,
{4}8,8,8,,
{4}7,7,7,,
{4}6,6,6,,
{4}5,4,5x,,
{4}3,3,3,,
{4}2,2,2,,
{4}1,1,1,,
{1}1b/8b,
{4}2,2,2,,
{4}3,3,3/4,,
{4}5,5,5,,
{4}6,6,5/6,,
{4}7,7,7,,
{4}8,8,1/8,,
{1}1h[2:1]/8h[2:1],
{2}1x/8x,2b/7b,
{4}6,6,6,6,
{4}5,5,5x,,
{4}4,4,4,4,
{4}3,3,3x,,
{1}1xh[2:1]/2xh[2:1],
{1}7xh[2:1]/8xh[2:1],
{4}1,1,1,,
{4}1/8,1/8,1x/8x,,
{1}2h[2:1],
{2}3,3/4,
{1}5h[2:1],
{2}6,5/6,
{1}7h[2:1],
{2}8,1/8,
{1}1xh[2:1]/8xh[2:1],
{4}1/8,1/8,1/8,,
{1}2b/7b,
{1},
{1},
{1},
E
&inote_3=
(190){1},
{1},
{1}4>5[4:13],
{1},
{1},
{1},
{2}4,4,
{2}5,5,
{2}3/6,3/6,
{1}2b-4[4:1]/7b-5[4:1],
{2}4/5,4/5,
{2}3/6,3/6,
{2}2/7,2/7,
{1}1x-5[8:3]/8x,
{4}6,6,5,5,
{4}4,4,3,3,
{4}2,2,1,1,
{1}2b/7b,
{4}3,3,4,4,
{4}3/4,3/4,2/5,,
{4}6,6,5,5,
{4}5/6,5/6,4/7,,
{4}7,7,8,8,
{4}7/8,7/8,1/6,,
{4}2,2,1,1,
{4}1/2,1/8,2x/7x,,
{4}3h[2:1],4,4,,
{4}6h[2:1],5,5,,
{2}7h[2:1],8h[2:1],
{2}1h[2:1],2x,
{4}3,3,4,4,
{4}5,5,6,6,
{1}2-5[8:3]/7-4[8:3],
{4}4x/5x,4x/5x,3b/6b,,
{4}3h[2:3]/4,4,5,5,
{4}4,4,4,,
{4}5/6h[4:5],5,4,4,
{4}5,5,4/6,,
{4}7h[2:3]/8,8,1,1,
{4}8,8,1,,
{4}1/2h[4:5],1,8,8,
{4}1,1,3/8,,
{4}7,7,7x/8x,7x/8x,
{4}7x/8x,7x/8x,1x/6x,,
{4}2,2,1x/2x,1x/2x,
{4}1x/2x,1x/2x,3x/8x,,
{4}1,2,3,4,
{4}5,6,7,8,
{8}1,1,1,,8,8,8,,
{1}2b/7b,
{1}2xq6[8:3],
{1}7-4[8:3],
{1}3-6[8:3],
{1}7-3[8:3],
{1}2-6[8:3],
{1}8-4[8:3],
{4}3,3,2,2,
{4}1/8,1/8,2x/7x,,
{1}C1f,
{1},
{1},
{1}8b,
{4},B1,,B2,
{4},B3,,B4,
{4},B5,,B6,
{4},B2/B7,,,
{1}4xqq1[4:5]/5xpp8[4:5],
{1},
{1}1xpp4[4:5]/8xqq5[4:5],
{1},
{1}3xV14[1:1]/6xV85[1:1],
{1},
{1}2xV41[1:1]/7xV58[1:1],
{1},
{4}2,2,1,1,
{4}8,8,1/7,,
{4}6,6,5,5,
{4}4,4,3/5,,
{4}2,2,1,1,
{4}8,8,7,7,
{8}6,6,6,,4,4,4,,
{1}3b/6b,
{4}2,1/2,7,7/8,
{4}6,5,4/6,,
{4}3,3/4,6,5/6,
{8}7,7,7,,1,1,1,,
{4}7,7/8,2,1/2,
{4}3,4,3/5,,
{4}6,6x,3,3x,
{4}5,4x/5x,3x/6x,,
{4}7,7/8,2,1/2,
{4}3,4,3/5,,
{4}6,5/6,3,3/4,
{8}2,2,2,,8,8,8,,
{4}2,1/2,7,7/8,
{4}6,5,4/6,,
{4}3,3,6,6,
{4}4/5,4/5,3b/6b,,
{4}7,7/8,2,1/2,
{4}3,3/4,6,5/6,
{4}7,7/8,6,5/6,
{8}4,4,4,,5,5,5,,
{4}3,3/4,6,5/6,
{4}7,7/8,2,1/2,
{4}8,8,1,1,
{4}1/8,1/8,2/7,,
{4}5/6,5/6,4/7,4/7,
{4}3/6,3/6,2x/5x,,
{4}3/4,3/4,2/5,2/5,
{4}3x/6x,3x/6x,4x/7x,,
{4}6,6,5,5,
{4}4,4,3,3,
{8}2,2,2,,1,1,1,,
{1}1-5[8:3]/8-4[8:3],
{1}E4/E6,
{1}B3/B6,
{1}B2/B7,
{1}E2/E8,
{4}1x/8x,1x/8x,2/7,2/7,
{4}3/6,3/6,4/5,4/5,
{8}3,3,3,,2,2,2,,
{8}1,1,1,,8,8,8,,
{1}2b/7b,
{1},
{1},
{1},
E
&inote_4=
(190){1},
{1},
{1}4>5[4:13]/5,
{1},
{1},
{1},
{4}4/5,4/5,,3,
{4},2,,1,
{2}1-3[8:1],8-6[8:1],
{8}1,,1/8,1/8,2x/7x,,,,
{2}2h[1:3]/4x,4x,
{2}5x,5x,
{2}6x,7x,
{4}8x<5[4:1],,,3/6,
{4}4,4,5,5,
{4}3,3,6,6,
{8}2,2,7,7,1,1,8,8,
{4}2b/7b,,,C1,
{8}4x/7x,4x/7xh[4:5],,5,,5,,4,
{8},4,,5,4/6,,,,
{8}2/5,2h[4:5]/5,,4,,4,,5,
{8},5,,4,3/5,,1x/7x,,
{8}2x/8x,2x/8xh[4:5],,3,,1,,3,
{8},5,,3,4/7,,,,
{8}1/7,1/7h[4:3],,8,,2,,4,
{4}5x/6x,3x/4x,4x/5x,2x/7x,
{8}3/5,,4,4,5,5h[4:1],,7h[4:1],
{8},1h[4:1],,3-7[8:1],,8x,8x-4[8:1],,
{4},3x>8[8:1],,7x<4[8:1],
{4},2-6[8:1],,4/8,
{8}6,6,4,4h[4:1],,7h[4:1],,2h[4:1],
{8},4,4,3,2/5,,4/7,,
{8}8x,7x,6x,5x,4x,3x,2x,1x,
{2}8-4[8:1],C1f/B2/B3/B6/B7,
{8}1x,2x,3xh[8:1]/5xh[8:1],,4h[8:1]/6h[8:1],,4h[8:1]/6h[8:1],,
{8}3h[8:1]/5h[8:1],,3h[8:1]/5h[8:1],,8,8,2,2,
{4}3h[8:1]/5h[8:1],3h[8:1]/5h[8:1],4h[8:1]/6h[8:1],4h[8:1]/6h[8:1],
{4}3h[8:1]/5h[8:1],4h[8:1]/6h[8:1],3/7,,
{8}8,1,2h[8:1]/4h[8:1],,2h[8:1]/4h[8:1],,5h[8:1]/7h[8:1],,
{8}5h[8:1]/7h[8:1],,2h[8:1]/4h[8:1],,3,3,8,8,
{4}5h[8:1]/7h[8:1],4h[8:1]/6h[8:1],3h[8:1]/5h[8:1],2/4,
{8}1,1,8,8,2-4[8:1]/7-5[8:1],,,,
{4},3b/8b-6[8:1],1-4[8:1],8-5[8:1],
{4}1-3[8:1],8-4[8:1],4,2/6,
{4}1-3[8:1]/6,8-5[8:1],1-5[8:1],6,
{16}5x/6x,,,5x/6x,,,3x/4x,,,3x/4x,,,2x,,1x,,
{4}8h[8:1],5h[8:1]/7h[8:1],4h[8:1]/6h[8:1],3/5,
{4}1h[8:1],2h[8:1]/4h[8:1],3h[8:1]/5h[8:1],4/6,
{16}7,,7,,2,,2,,8,1,8,1,8,1,8,1,
{4}8p4[4:1]*q4[4:1],,,3x/7x,
{8}2-4[8:1]/5b,,,,5,5,4,4,
{4}3/5,4/6,5/7,5/7h[2:3],
{2}6-2[8:1],3-5[8:1],
{4}1-5[8:1],,3/7,2b/6b,
{8}4-1[8:1]/7,,,,8,8,2,2h[8:9],
{2}4-6[8:1],7-3[8:1],
{8}1x,1,2x,2,3x,3,4x,4,
{4}5v2[4:1]*v8[4:1],,,3b/7b,
{1}5h[4:15],
{1},
{2}2x,3x,
{1}4x>1[8:3],
{4}2h[1:2],4,,4,
{4},5,,6,
{4}7xh[4:5],5x,,6x,
{4},8x,1x/8x,2b/7b,
{8}3h[4:1]/5h[4:1],,,4/6,,5<4[4:3]/7,,5/7,
{1},
{8}4h[4:1]/6h[4:1],,,3/5,,2/4>5[4:3],,2/4,
{1},
{8}1h[4:1]/7h[4:1],,,2/8,,1>8[4:3]/3,,1/3h[8:7],
{1},
{8}2h[4:1]/8h[4:1],,,1/7,,6/8<2[8:5],,6h[8:5]/8,
{4},,,2b/7b,
{4}7x/8x,C1/B7,1x/2x,C1/B2,
{4}7x/8x,C1/B7,1x/2x,3x/8x,
{4}1x/7x,B1/C1/B7,2x/8x,C1/B2/B8,
{4}1x/7x,B1/C1/B7,2x/8x,3x/7x,
{4}5,5,4/6,4/6,
{4}3/7,3/7,2/8,2/8,
{16}1,,1,,8,,8,,1,8,1,8,1,8,1,8,
{4}1<5[4:1]*>5[4:1],,,C1f,
{8}7x,7x,8x,6,2,2,1,3,
{8}7,7,8,5,1,1,2/8,,
{8}3,3,1,4,6,6,8,5,
{16}2x,1x,2x,1x,2x,,7,,7/8,,7/8,,1b/6b,,,,
{8}2,2,4,1,7,7,5,8,
{8}2,2,4,1,5,5,2/6,,
{4}7h[4:1],B6/B7,2h[4:1],B2/B3,
{4}5h[4:1],B4/B5,C1f/E3/E7,,
{8}7x/8x,6x,4/5,3,1/2,8,5/7,6,
{8}2/4,1,7/8,6,3/5-1[8:1],,2,,
{8}1x/2x,3x,4/5,6,7/8,1,2/4,3,
{16}6x,5x,6x,5x,6x,,3,,3/4,,3/4,,2b/5b,,,,
{8}7/8,6,4/5,3,1/2,8,5/7,6,
{8}4/5,3,1/2,8,5/7,6,4/5,3,
{16}1x/2x,,,1x/2x,,,7x/8x,,,7x/8x,,,1x/8x,,1x/8x,,
{4}2xV41[4:1]/7xV58[4:1],,,C1f,
{8}7x-4[8:1],7x,3-8[8:1],3,5,5,1/6,,
{8}2-5[8:1],2,6-1[8:1],6,4,4,3/8,,
{8}7-2[8:1],7,3-6[8:1],3,7-2[8:1],7,4,,
{16}3x,4x,3x,4x,3x,,5,,5/6,,,,4b/7b,,,,
{8}6v1[8:1],6,2>5[8:1],2,8,8,4/7,,
{8}3>8[8:1],3,7v4[8:1],7,1,1,2/5,,
{2}3h[4:1]/4-7[8:1],5-2[8:1]/6h[4:1],
{2}3h[4:1]/4-7[8:1],C1f/B2/B3/B6/B7,
{8}8x,8x,1x/7x,,2x/8xh[4:1],,B4/B5/E5,,
{4}1xh[4:1]/7x,B4/B5/E5,2xh[8:1]/8xh[8:1],3x/7x,
{4}2xh[4:1]/4x,B1/E1/B8,5x/7xh[4:1],B1/E1/B8,
{16}3x/5x,,,3x/5x,,,4x/6x,,,4x/6x,,,3x/7x,,,,
{8}1,1,2,2,3,3,4,4,
{8}5,5,6,6,7,7,8,8,
{16}1,8,1,8,1,8,1,8,2,7,2,7,2,7,2,7,
{16}1x,2x,3x,4x,5x,6x,7x,8x,1b,,,,,,,,
{4}5x/7xh[4:7],5,6,6,
{4}8x,1x,2x,3x,
{4}2h[2:3]/4,4-8[8:1],,7-5[8:1],
{4},4-8[8:1],,1/6,
{8}3,3,5,5,4,4,6,6,
{8}1,1,8,8,2,2,7,7,
{16}1,8,1,8,1,8,1,8,2,7,2,7,2,7,2,7,
{4}1pp5[8:3]*qq5[8:3],,,3/7,
{1}1b/5b,
{1},
{1},
{1},
E
&inote_5=
(190){1},
{1},
{1}3b<2[4:13]/6b,
{1},
{4}5h[2:1],,,5-8[2:1],
{4},,,3x/6x,
{4}4/5,5/7,4/5,2/4,
{48}3x,,,4x,,,3x,,,4x,,,3x,,,,7x,,,,5x,,,,6x,,,,1x,,,,,,,,1x,,,,,,,,1x,,,,
{48},,,,1x,,,,,,,,1xh[4:1]/6x,,,5x,,,4x,,,3x,,,,,,,,,,,,,,,7x,,,6x,,,5x,,,4x,,,
{8}2z6[4:1],,8x,8x,7x-3[8:1],,1b,,
{8}2h[1:1]/4,,,4,,4,,4,
{8}6h[1:1],,,5,,5,,5,
{8}3h[1:1],,,4,,4,,4,
{8}7h[8:7],,,5,,5,,5,
{8}3b/6,,5,5,4,6,5,7,
{8}2b/8,,3,1,2,8,1,7,
{8}1b/6,,2/4,3,5/7,6,1x/5xh[4:1],,
{8}3h[8:1],4h[8:1],1h[8:1],8h[8:1],5h[8:1],6,2b/7b,,
{8}3,2,3,4,3,2,3>6[4:1],5,
{8}4,4,5-8[8:1],5,4-1[8:1],4,7x,,
{8}6,7,6,5,6,7,6<3[4:1],4,
{8}5,5,4-1[8:1],4,5-8[8:1],5,2x,,
{8}1/8,2/7,3/6,5,3/4,2,3>6[4:1]/4,5,
{8}4,4,5-8[8:1],5,4-1[8:1],4,7x,,
{8}5/6,7,5/6,4,5/6,7,5/6-2[8:1]*-8[8:1],4,
{16}6x,,,,1x-5[8:1],1x,1x,1x,1x,,,,3b-6[8:1]/7b-2[8:1],,,,
{8}3x/7x,,5/6,7,5/6,4-2[8:1],4,5-1[8:1],
{16}5,,2-7[8:1],,2,,5,,5,,5,,3,4,2,5,
{16}3,,3,,6,5,7,4,6,,6,,3,4,2,5,
{8}3h[8:1],7,3h[8:1],4,3h[8:1],8,3h[8:1],4,
{8}2/5,3,4/6,7,1/8,2-6[8:1],4,2,
{8}8-4[8:1],1,8,1,2/6,3,4x/8x,,
{16}2,3,4,5,6,7,8,1,6,5,4,3,2,1,8,7,
{4}2/6-2[8:1],1s5[8:1]*v3[8:1]/6,1b,2x/6x,
{8}7-2[8:1],7,3-6[8:1],,7-2[8:1],,3-6[8:1],,
{8}7-2[8:1],,4,,5/7,6,2/4,3,
{8}8-5[8:1],8,4-1[8:1],,8-5[8:1],,4-1[8:1],,
{8}8-5[8:1],,4-2[8:1]*-6[8:1],,,,1x,1x,
{8}7>2[8:1],7,3<6[8:1],,7>2[8:1],,3<6[8:1],,
{8}7>2[8:1],,4,,5/7,6,2/4,3,
{8}8<5[8:1],8,4>1[8:1],,8<5[8:1],,4,,
{8}1/8,2/7,3v1[8:1]/6v8[8:1],4/5,3/6,,2b/7b,,
{4}4/5h[4:1],1b,3/7-5[8:1],4/7-3[8:1],
{8}2/7-5[8:1],,4/7,,2/4,3,5/7,6,
{16}3,4,3,4,2h[8:1]/5h[8:1],,,4h[8:1]/7h[8:1],,,1/5,,3/7,,2/4,,
{16}2h[8:1]/4h[8:1],,,5h[8:1]/6h[8:1],,,2h[8:1]/3h[8:1],,,4h[8:1]/8h[8:1],,,2/6,,2/6,3/7,
{4}4/8<3[2:1],3,2,1,
{4}1>6[2:1]/5,6,7,8,
{32}8,,1,,8,,1,,7,,2,,7,,2,,8,1,2,3,4,5,6,7,8,1,2,3,4,5,6,7,
{4}1-6[8:1]/8-3[8:1],1>4[8:1]/8<5[8:1],1b/8b,2z6[8:3]/7s3[8:3],
{8},,,,B2/E3,B7/E7,B4/E4,B5/E6,
{8}C1xh[8:3],,,8,8-4[8:1]*s4[8:1],,,,
{16}2/6h[4:1],,,,E4,B4,B5,E6,7h[4:1],,,,E2,B1,B8,E8,
{8}B6/E7,B2/E3,B4/E5,C1,1/8,2/7,3s7[8:3]/6z2[8:3],,
{8},,,,B1/E1,B5/E5,B3/E3,B7/E7,
{16}C1,,,,E8,B8,B1,E2,3h[4:1],,,,E7,B6,B5,E5,
{4}1b,2b,3b,4bp2[2:1],
{4}4<7[4:1],,,1x<2[1:2]/8x,
{1},
{1},
{4}C1xh[4:3],,,2>1[4:3],
{1},
{4}6h[4:5],5,,5,
{4},5,,3x/6x,
{8}3,4,5,6,,6,,4,
{8}4,6,5,4,3,4/5,2b/7b,,
{8}4h[4:1]/6h[4:1],,,2/4,,5/7<8[8:5],,C1f,
{4},,2x,1/6,
{8}2h[4:1]/4h[4:1],,,5/7,,3>4[8:5]/8,,C1f,
{4},,6x,2/5,
{8}4h[4:1]/6h[4:1],,,2/4,,5/7<8[8:5],,C1f,
{4},,2x,1/5,
{8}5/6,,2/4,2/4,,5/7,,3/4,
{16}2/5,,6,5,7,,3,4,2,,1b/8b,,2b/7b,,,,
{4}2h[8:1]/4h[8:1],5h[8:1]/7h[8:1],2h[8:1]/3h[8:1],6h[8:1]/7h[8:1],
{8}2h[8:1]/4h[8:1],,5h[8:1]/7h[8:1],,3,2/4,1b/5b,,
{4}7h[8:1]/8h[8:1],1h[8:1]/2h[8:1],6h[8:1]/8h[8:1],1h[8:1]/3h[8:1],
{4}2/6-2[8:1],1s5[8:1]*v3[8:1]/6,1b,3x/7x,
{8}2/4h[8:1],3,4/5,6,4h[8:1]/7,6,3/5,2,
{8}1/5h[8:1],2,3/6,7,5h[8:1]/8,7,1x/6x,,
{32}4/7,,,,3/6,,,,2/5,,,,1/4,,,,1,2,3,4,5,6,7,8,1,2,3,4,5,6,7,8,
{4}1b/5h[2:1],,4,1b/8b,
{8}2v5[8:1]/6,5,2,8V64[4:1],,4v6[8:1]/8,,1<6[8:1],
{8},1,4-7[8:1],8,1-5[8:1]/4,2,1/3,,
{8}4/7v4[8:1],5,7,1V35[4:1],,1/5v3[8:1],,8,
{16}8,7,6,5,4,3,2,1,4,3,2,1,4,5,6,7,
{8}4/8b-4[8:1],,8,1V35[4:1],,1/5v3[8:1],,8>3[8:1],
{16},,8,,5,,5,,3/7,,6,,1/5-1[8:1],2,3,4,
{16}5/8b,,,,2/6-2[8:1],3,4,5,6/8b,,,,1/5-1[8:1],2,3,4,
{16}5/8b,,,,2/6-1[8:1]*v3[8:1],3,4,5,6b,,,,4b/8b,,,,
{8}3/7-3[8:1],4,7,8V25[4:1],,5v3[8:1]/8,,8>3[8:1],
{8},8,5-2[8:1],1,5/8-4[8:1],7,6/8,,
{8}2-6[8:1]/5,4,2,1V74[4:1],,1/4v6[8:1],,1,
{16}1,2,3,4,5,6,7,8,5,6,7,8,5,4,3,2,
{4}1b/5<3[16:3],3/5b,5>7[16:3],5b/7,
{4}5<3[16:3],3/5b,5w1[8:1],5b,
{16}3h[8:1]/7h[8:1],,,2h[8:1]/4h[8:1],,,1h[8:1]/7h[8:1],,,5h[8:1]/6h[8:1],,,1b/8b,,,,
{4}4>5[16:5]/5pp4[16:5],4x/5x,,2b/6b,
{8}7V51[4:1],8,1,2,3V15[4:1],4,5,6,
{8}7V51[4:1],8,1,2,3,4,5>2[8:1],6,
{8}5/7,8<5[8:1],1,2/8,3>8[8:1],4,3/5-2[8:1],6,
{8}5/7,8-4[8:1],1,2z6[16:3]/8,,8,8b,,
{8}2V48[4:1],1,8,7,6V84[4:1],5,4,3,
{8}2V48[4:1],1,8,7,6,6,3/5,4/6,
{16}5/7h[4:1],,,,,,5/7,,4h[4:1]/8,,,,6,,6,5,
{16}7h[16:3],,,5h[16:3],,,4h[8:3],,,,1b,,1b,,,,
{8}1-3[8:1]/6,5,1-5[8:1]/6,7,1-3[8:1]/6,4,1-5[8:1]/6,7,
{8}1-3[8:1]/6,4,1/6,7,4/6,5,3/4,2,
{16}7/8,,1/6,,2h[8:1]/4h[8:1],,,5h[8:1]/7h[8:1],,,1/4,,2/5,,3/6,,
{16}4h[8:1]/8h[8:1],,,2V47[8:1]/6V83[8:1],,,2b/6b,,,,,,4b/8b,,,,
{4}1>7[16:3]/5,1b/7,1<3[16:3],1b/3,
{4}1>7[16:3],1b/7,1w5[8:1],1b,
{32}8,,4,,8,,4,,7,,3,,7,,3,,6,,2,,6,,2,,5,4,3,2,1,8,7,6,
{4}1bqq8[4:1]/5b,8-3[8:1]*v5[8:1],,2b/6b,
{8}3/4,2,3/4,5,3/4,2,3>6[4:1]/4,5,
{8}4,4,5-8[8:1],5,4-1[8:1],4,6x,,
{8}5/6,7,5/6,4,5/6,7,5/6<3[4:1],4,
{8}5,5,4-1[8:1],4,5-8[8:1],5,3x,,
{8}4/7,6,3/5,2,1/8,7-3[8:1],5,7,
{8}1-5[8:1],8,1,8,3-7[8:1]/7-3[8:1],,,,
{16}2/4,,3,,5/7,,6,,1b/5,2,3/8b,7,2b/6,3,4/7b,6,
{16}1b/5,,3/7,,3/7,2/6,1/5,4/8,3/7,,1/5,,3-6[16:1]/7-2[16:1],,,,
{1}3b/7b,
{1},
{1},
{1},
E
