&title=BIRTH
&wholebpm=176
&artist=llliiillliiilll
&des=Safata.Hz
&shortid=11167
&genre=maimai
&cabinet=DX
&version=maimai DX Splash
&chartconverter=Neskol
&lv_2=3
&des_2=
&lv_3=7+
&des_3=
&lv_4=12+
&des_4=はっぴー
&lv_5=14
&des_5=Safata.Hz
&des_6=
&inote_2=
(176){1},
{1},
{1},
{1}4,
{1}4,
{1}5,
{1}5,
{1}4h[1:1],
{1},
{1}5h[1:1],
{1},
{1}6x,
{1}7x,
{1}8x,
{1}1x,
{1}1x/2x,
{1}7x/8x,
{1}1,
{1}1b,
{2}2,2,
{1}2,
{2}3,3,
{1}3,
{2}4,4,
{1}4,
{1}4h[1:1]/5h[1:1],
{1},
{2}5,5,
{1}5,
{2}6,6,
{1}6,
{2}7,7,
{1}7,
{2}8,8,
{1}8b,
{1}1-4[4:3],
{1},
{1}8-5[4:3],
{1},
{1}4-1[4:3],
{1},
{1}8,
{1}1/8,
{1}2-5[4:3],
{1},
{1}7-4[4:3],
{1},
{2}3,3,
{2}2,2,
{1}1h[1:1]/8h[1:1],
{2},1b/8b,
{2}8,8,
{4}7,7,7,,
{2}6,6,
{4}5,4,5,,
{2}4,4,
{4}3,3,3,,
{2}2,2,
{2}1/2,1x/2x,
{2}1,1,
{4}2,2,2,,
{2}3,3,
{4}4,5,4,,
{2}6,6,
{4}7,7,7,,
{2}1/8,1/8,
{1}2b/7b,
{1}E3,
{1}E4,
{1}E5,
{1}E6,
{1}C1xh[1:2],
{1},
{1},
{1},
{1}E7,
{1}B5,
{1}B4,
{1}E3,
{1}C1xh[1:1],
{1},
{4}8b,8,8,,
{4}7,7,7,,
{4}5/6,,4,4,
{4}4,,3,3,
{4}3,,2,2,
{2}2,1x/8x,
{4}2,2,2,,
{4}3,3,3,,
{4}4,4,4/5,,
{1}4h[2:1]/5h[2:1],
{2}4/5,3h[2:1]/6h[2:1],
{2},3/6,
{1}3b/6b,
{1}E5,
{1}E4/E6,
{1}C1hf[16:21],
{1},
{1},
{1},
E
&inote_3=
(176){1},
{1},
{1},
{1}C1hf[1:3],
{1},
{1},
{1},
{4}3x,3x,3x/4x,,
{4}6,6,5/6,,
{4}3,3,4,4,
{4}5,5,4x/6x,,
{2}7h[2:1],8h[2:1],
{2}1h[2:1],2,
{2}3h[2:1],4h[2:1],
{4}5h[2:1],,6x,4x/7x,
{4}3,3,2,2,
{4}1,1,2V48[4:5]/7V51[4:5],,
{1},
{1},
{4}2h[2:1],,1,1,
{4}8,8,1/7,,
{4}6h[2:1],,5,5,
{4}4,4/5,3/6,,
{4}7h[2:1],,8,8,
{4}1,1,2/8,,
{2}3h[2:1],5h[2:1],
{4}4,4/5,3b/6b,,
{4}2,2,3,3,
{4}3/4,3/4,4/5,,
{4}6,6,7,7,
{4}7/8,7/8,1/8,,
{4}8,8,7,7,
{4}5/6,5/6,4/5,,
{4}3,3,2,2,
{4}1/2,1/8,2b/7b,,
{1}B1/B2,
{1}B3/B4,
{1}B5/B6,
{1}B7/B8,
{2}E2/E8,B2/B7,
{2}B3/B6,E4/E6,
{1}C1hf[1:1],
{1},
{1}7xv4[8:3],
{1}3v8[8:3],
{1}7v2[8:3],
{4}1,1/8,2/7,,
{1}7-3[8:3]/8-4[8:3],
{1}1-5[8:3]/2-6[8:3],
{2}4/5,3/6,
{4}2/7,2/7,1b/8b,,
{4}2,2,1/2,3/8,
{4}7,7,7/8,1/6,
{4}5,5,4,4,
{4}5,5,4x/6x,,
{4}7,7x/8x,7,1/6,
{4}2,1x/2x,2,3/8,
{4}4,4,5,5,
{4}4/5,3/6,2b/7b,,
{4}6,6,5/6,4/7,
{4}3,3,3/4,2/5,
{4}1,1,8,8,
{4}1,1,2x/8x,,
{4}3,3x/4x,3,2/5,
{4}6,5x/6x,6,4/7,
{4}8,8,1,1,
{4}1/8,2/7,3b/6b,,
{1}3>4[4:11],
{1},
{1},
{1},
{1}3h[1:1],
{1}4h[1:1],
{2}3x,3x/4x,
{2}4x/5x,5x/6x,
{1}7-4[8:3],
{1}3<6[8:3],
{1}7>2[8:3],
{2}3,4,
{1}4-8[8:3]/5-1[8:3],
{1}1-4[8:3]/8-5[8:3],
{8}6,,5/6,,7,7,7,,
{4}7/8,7/8,1/6,,
{8}2,,1/2,,3,3,3,,
{4}4/5,4/5,3x/6x,,
{8}3,,3/4,,2,2,2,,
{8}1,,1/8,,7,7,7,,
{8}6,,5/6,,4,4,4,,
{1}4xv1[2:1]/5x,
{8}8,,1/8,,7,7,7,,
{8}5/6,,5/6,,4,4,4,,
{8}3/4,,3/4,,2,2,2,,
{8}1/8,,1/8,,2/7,2/7,2/7,,
{1}5x>2[8:3]/6x<1[8:3],
{1}3x>8[8:3]/4x<7[8:3],
{1}1pp4[4:5]/8qq5[4:5],
{1},
{16},,,,,3xh[16:43]/6xh[16:43],,,,,,,,,,,
{1},
{1},
{1},
{1},
{1},
E
&inote_4=
(176){1},
{1},
{1},
{4}2/7h[4:3],,,5,
{4}5h[4:3],,,4,
{4}4h[4:3],,,2,
{4}2h[4:3],,,6,
{8}5,5,4,6,5,4,7,5,
{8}4,4,6,3,2,5,6,4,
{8}7,6,5,5,7,4,3,5,
{8}2,2,7p5[2:1],7,,,,,
{1}1h[1:1],
{1}2h[1:1],
{1}3h[1:1],
{12}4,,,,,,5,5,4,,3/6,3/6,
{2}3/6h[2:1],7h[2:1],
{2}8h[8:21],1h[8:17],
{1},
{4},,,2/7,
{8}3,3h[8:1],4,5,4/6,7h[8:1],5,5,
{8}8,8,1,2/4,5,5,3,2,
{8}6,6h[8:1],5,4,3/5,2h[8:1],4,4,
{8}1,1,8,5/7,4,4,6,7,
{8}7,1,1,4,4,3,2,8,
{8}8,3,6,5,4,4,6,7,
{8}5/8,4,4,3/6,5,5,3,2,
{8}1/4,5,5,3/6,4,3,2,5,
{8}6,6h[8:1],5,4,3/5,2h[8:1],4,4,
{8}1,1,8,5/7,4,4,6,7,
{8}3,3h[8:1],4,5,4/6,7h[8:1],5,5,
{8}8,8,1,2/4,5,5,3,2,
{8}2,8,8,5,5,6,7,1,
{8}1,6,3,4,5,5,3,2,
{8}1/4,5,5,3/6,4,4,6,7,
{8}5/8,4,4,3/6,3/6,4/5,4/5,,
{8}7<3[8:3],,,,,,1,1h[2:1],
{8},,,4,4,,3/5,,
{8}2>6[8:3],,,,,,8,8h[2:1],
{8},,,5,5,,4/6,,
{8}2,3,,2/4,,6,,5/7h[4:1],
{8},6,5,,8h[4:1],,6h[4:1],,
{8}4h[4:1],,2h[4:1],,8h[4:1],,5p4[2:1],5,
{4},,,4/5,
{8}3>7[8:3],,,,,,5,5h[2:1],
{8},,,3,3,,2/7,,
{8}6<2[8:3],,,,,,4,4h[2:1],
{8},,,6,6,,3/7,,
{8}7,6,,5/7,,2,3,4,
{8}5h[8:3],,,1h[8:3],,,3>4[1:1],,
{1},
{16},,,,,,,,1,8,1,,2b/7b,,,,
{16}3/5,,6,5,7,,1,,1,,4,,6,,3,,
{8}2,8,8,6,5,4,4,5,
{16}4/6,,3,4,2,,8,,8,,5,,3,,6,,
{8}7,1,4,5,7,8b,8b,3/7,
{8}2,1h[8:1],4h[8:1],1,1,2/6,7,8h[8:1],
{8}5h[8:1],8,6,5,4,3,3,5,
{8}4/6,7,8,1,3/5,2,1,8,
{8}4/6,7,8,1,3/5,2,1/8,7,
{16}4/6,,3,4,2,,8,,8,,6,,4,,6,5,
{8}7,1,1,3,5,7,8,4,
{16}3/5,,6,5,7,,1,,1,,3,,5,,3,4,
{8}2,8,6,4,3,1b,1b,2/6,
{8}7,8h[8:1],5h[8:1],8,8,3/7,2,1h[8:1],
{8}4h[8:1],1,3,4,5,6,6,4,
{8}3/5,2,1,8,4/6,7,8,1,
{8}3/5,2,1,8,4/6,7,1>8[2:3]/8,,
{1}C1f,
{1},
{1}8h[2:3],
{1},
{1}8<1[2:3],
{1},
{2}1h[2:1],2h[2:1],
{2}3h[2:1],5,
{8}4h[4:1]/6h[4:1],,,4h[4:1]/6h[4:1],,,4/6,3,
{8}3h[4:1]/5h[4:1],,,3h[4:1]/5h[4:1],,,3/5,6,
{8}4/6,,7,6,,3,2,,
{8}2/4,5,6,6,3,5,1h[4:1],,
{1}8b,
{4}C1f,,,2/7,
{16}3,,7,6,5,,3,,7,6,5,,3,,3,,
{16}6,,2,3,4,,6,,2,3,4,,6,,6,,
{24}E2,,E8,,E3,,E7,,E4,,E6,,4,,,4,,,5,,,4,,,
{16}7,,3,4,5,,7,,3,4,5,,7,,7,,
{16}2,,6,5,4,,2,,6,5,4,,2,,2,,
{8}3h[8:1],7h[8:1],3h[8:1],7h[8:1],3h[8:1],7h[8:1],3,2,
{16}2,3,4,,1,,7,6,5,,8,,2,3,4,,
{16}1,,7,6,5,,8,,8,,4,3,2,,8,,
{16}5,6,7,,1,,4,3,2,,8,,8,,3,,
{16}3,,6,7,8,,5,,3,2,1,,4,,6,7,
{16}8,,5,,3,2,1,,5,,1,8,7,,4,,
{16}8,1,2,,5,,1,8,7,,4,,4b,,,,
{4}6-3[8:1],2<7[4:1],5h[2:1],,
{4}3-6[8:1],7>2[4:1],4h[2:1],,
{4}6-3[8:1],2q7[4:1],5h[2:1],,
{4}3-6[8:1],7p2[4:1],3h[16:13],,
{16},,,,,8b,,,,,,,,,,,
{1},
{1},
{1},
E
&inote_5=
(176){1},
{1},
{1},
{8}5h[1:1],,,4,,,4,4,
{8}3h[1:1],,,4,,,4,4,
{8}6h[8:11],,,5,,,5,5,
{8}4h[8:3],,,,,3/5,3/5,,
{8}7,5,6,3,3,5,5,1,
{8}2,5,4,6,3,3,8,7,
{8}3,5,4,6,7,2,3,6,
{24}4,,,4,,,5,,,3,,,7,,5,,6,,2,,4,,3,,
{1}5h[8:7]/7-4[2:1],
{1}3-6[2:1]/5h[8:7],
{1}5h[8:7]/7-3[2:1],
{12}2h[4:1]/5h[4:1],,,,,,3,7,5h[6:1],,6,4,
{8}5h[4:1],,4,4,6h[4:1],,5,5,
{8}7h[4:1],,6,6,8h[4:1],,1,1,
{4}1b/8b,1,2,2,
{24}3,,,,,,3,,,,,,3/7,,,5,4,6,5b,,,,,,
{8}7,7-5[8:1],,7-3[8:1],,4-7[8:1],,2-8[8:1],
{8},6-4[8:1],,2-6[8:1],,5h[4:1],,4,
{8},2-4[8:1],2-6[8:1],,,5,5,,
{8}7,7-5[8:1],,7-3[8:1],,4-1[8:1],,6,
{8},5,6,7>2[8:1],,3<6[8:1],,8<5[8:1],
{8},2,3,4>5[4:3],,C1f,,,
{8},,,,,1/8,2/7,,
{16}3,5,4,6,4,6,3,5,3,6,2,7,1,,,,
{8}2b,2-4[8:1],,2-6[8:1],,5-2[8:1],,7-1[8:1],
{8},3-5[8:1],,7-3[8:1],,4h[4:1],,5,
{8},6,5,7-3[8:1],4,4,,2,
{8}4,2-4[8:1],,2-6[8:1],,5-8[8:1],,3,
{8},4,3,2<7[8:1],,6>3[8:1],,1>4[8:1],
{8},7,6,5<4[4:3],,C1f,,,
{8},,,,,1/8,2/7,,
{16}3,5,4,6,4,5,3,4,3,5,2,6,8,,,,
{16}4b/7b,,3,4,3,,2/5,,6,5,6,,4/7,,6,,
{16}2/6,,7,8,7,,1/6,,2,1,2,,3/8,,2,,
{16}2/6,,3,4,2,,1/5,,6,5,7,,4/8,,3,,
{16}3/5,,2,1,3,,4/8,,7,8,6,,1/5,,2,,
{16}2/8,,7,3,6,4,5,,3,4,2,5,1,,7,8,
{16}7,,2,6,3,5,4,,6,5,7,4,8,,2,1,
{16}2,,5,4,6,5,7,,4,5,3,4,2,,1,,
{16}1/8,,7,2,7,,3,4,,6,5,,4/7,,,,
{16}2/5,,3,4,3,,1/6,,7,8,7,,7,5,6,4,
{16}5,,3,4,2,,1/5,,2,4,3,,5,4,5,4,
{16}5,,6,5,6,,3/8,,2,1,2,,2,4,3,5,
{16}4,,6,5,7,,4/8,,7,5,6,,4,5,4,5,
{16}3,4,2,4,1,,7,8,6,8,5,,1/6,,2/7,,
{8}3-8[8:1]/8,,6,6-3[8:1],,2,2h[4:1],,
{4}1<5[4:1],5>1[4:1],1<1[2:1],C1,
{32}1<5[32:7],,,,,,,,5,,,,,,,,4,3,2,1,8,7,6,5,1b,,,,,,,,
{8}2-4[8:1],4V28[4:1],2V86[4:1],8-6[8:1],,4-2[8:1]*-8[8:1],,4-6[8:1],
{8},4/6,,3/8-4[8:1],,2/8-2[8:1]*-6[8:1],,8,
{8},1/5,2,3/7V53[8:1],,1pp6[2:1],,8,
{8}8b,,,,,,7,5-8[8:1]/7-5[16:1],
{8},5x/7-3[8:1],,1/7x,,2-6[8:1],,2-4[16:1]/4x-1[8:1],
{8},2x/4,,8V64[8:1]*V24[8:1],,8,,2b/6b,
{8},8h[8:1],7h[8:1],6h[8:1],5h[8:1],4h[8:1],3h[8:1],2,
{48}1/8,,,,,,2,,4,,,,3,,,,,,4/5,,,,,,6,,,5,,,7,,,,,,4b/8b,,,,,,,,,,,,
{8}7<5[8:1],5<3[8:3],7>3[4:1],1>3[8:1],,5-1[8:1]*<7[8:1],,5>3[8:1],
{8},3/5,,1-5[8:1]/6,,1<7[8:1]*>3[8:1]/7,,1,
{8},4/8,7,2>6[8:1]/6,,8qq3[2:1],,1,
{8}1b,,,,,,2,2>4[16:1]/4-8[8:1],
{8},2-6[8:1]/4x,,2x/6,,7-3[8:1],,5x-1[8:1]/7<5[16:1],
{8},5/7x,,8<4[8:1]*>4[8:1],,8,,2b/6b,
{8},1h[8:1],2h[8:1],3,5h[8:1],6h[8:1],7-1[8:1],2-4[8:1],
{8}7-5[8:1],2-6[8:1],7-1[8:1],2-8[8:1],7-3[8:1],2,7,,
{2}1b/4b-1[2:7],8,
{2}7,6,
{2}5,4,
{2}3,2,
{2}1/5-8[4:13],8,
{2}7,6,
{384}B5,E6,,,,,,,,,,,,,,,,,,,,,,,,,,,,,,,,,,,,,,,,,,,,,,,,,,,,,,,,,,,,,,,,,,,,,,,,,,,,,,,,,,,,,,,,,,,,,,,,,,,,,,,,,,,,,,,,,,,,,,,,,,,,,,,,,,,,,,,,,,,,,,,,,,,,,,,,,,,,,,,,,,,,,,,,,,,,,,,,,,,,,,,,,,,,,,,E4,B3,,,,,,,,,,,,,,,,,,,,,,,,,,,,,,,,,,,,,,,,,,,,,,,,,,,,,,,,,,,,,,,,,,,,,,,,,,,,,,,,,,,,,,,,,,,,,,,,,,,,,,,,,,,,,,,,,,,,,,,,,,,,,,,,,,,,,,,,,,,,,,,,,,,,,,,,,,,,,,,,,,,,,,,,,,,,,,,,,,,,,,,,,,,,,,,
{384}B2,E2,,,,,,,,,,,,,,,,,,,,,,,,,,,,,,,,,,,,,,,,,,,,,,,,,,,,,,,,,,,,,,,,,,,,,,,,,,,,,,,,,,,,,,,,,,,,,,,,,,,,,,,,,,,,,,,,,,,,,,,,,,,,,,,,,,,,,,,,,,,,,,,,,,,,,,,,,,,,,,,,,,,,,,,,,,,,,,,,,,,,,,,,,,,,,,,5,,,,,,,,,,,,,,,,,,,,,,,,,,,,,,,,,,,,,,,,,,,,,,,,5,,,,,,,,,,,,,,,,,,,,,,,,,,,,,,,,,,,,,,,,,,,,,,,,4/6,,,,,,,,,,,,,,,,,,,,,,,,,,,,,,,,,,,,,,,,,,,,,,,,3/5,,,,,,,,,,,,,,,,,,,,,,,,,,,,,,,,,,,,,,,,,,,,,,,,
{8}2h[8:5]/4,,,4,,,4h[4:1],,
{32}1,8,7,6h[32:17],,,,,,,,,5,,,,,,,,5,,,,5h[4:1],,,,,,,,
{32}8,1,2,3h[32:17],,,,,,,,,4,,,,,,,,,,,,4h[4:1],,,,,,,,
{32}1,8,7,6h[32:19],,,,,,,,,5,,,,,,,,5,,,,5,,,,,,,,
{32}1/5,2/6,3/7,4h[32:29]/8h[32:29],,,,,,,,,,,,,,,,,,,,,,,,,,,,,
{32},3/7,2/6,1h[32:17]/5,,,,,,,,,,,,,,,,,8,,,,2/7,,,,,,,,
{16}8b,1,7,,2/6,,3,5,4,6,3,7,2,6,1,5,
{16}2,4,3,5,4,5,3,4,2,8,1,7,5,6,4,5,
{48}1,,,,1,,,,3,,,,8,,,,8,,,,6,,,,1,,,2,,,3,,,4,,,7,,,6,,,5,,,4,,,
{16}8b,7,1,,2/6,,7,5,6,3,4,2,7,5,7,5,
{16}7,6,7,8,7,1,6,2,5,2,4,2,3,2,1,2,
{16}8,4,8,4,6,2,6,2,5,3,6,4,5,,2/7,,
{16}3b,4,2,,1/5,,6,5,7,,4/8,,7,8,6,1,
{16}5,2,1,3,8,4,7,7h[8:1],,5,5h[8:1],,4,4h[8:1],,2,
{16}2,,1/2,,3,8,2,4,2,4,2,4,6,4,6,4,
{16}6b,4,1,7,2,6,3b,4,2,5,3,6,2,1,3,7,
{16}5,7,5,4,5,4,5,7,1b,3,1,3,1,8,1b,7,
{16}5,6,3,5,4,8,5,8,1,4,1,3,2,6,5,7,
{4}1b>7[2:1],,7>2[4:1],2<4[2:1],
{4}C1f,,,3/6,
{16}2b,7,3,6,4,5,1b,8,2,7,3,6,1b,8,1,8,
{96}2b,,,,3,,,,4,,,,8b,,,,7,,,,6,,,,1b,,,,2,,,,3,,,,7b,,,,6,,,,5,,,,2b,,,3,,,4,,,5,,,6,,,7,,,8,,,1,,,2b/7x,,,6,,,5,,,4,,,3,,,2,,,1,,,8,,,
{96}3b/7b,,2/6,,1/5,,4q8[8:1]/8q4[8:1],,,,,,,,,,,,,,,,,,,,,,,,4bp2[16:63]/8bp6[16:63],B1/C1f/B2/B3/B4/B5/B6/B7/B8,,,,,,,,,,,,,,,,,,,,,,,,,,,,,,,,,,,,,,,,,,,,,,,,,,,,,,,,,,,,,,,,,
{1},
{1},
{1},
{1},
{1},
{1},
E
