&title=BATTLE NO.1
&wholebpm=200
&artist=TANO*C Sound Team
&des=ゲキ*チュウマイ Fumen Team
&shortid=11206
&genre=ゲームバラエティ
&cabinet=DX
&version=maimai DX Splash
&chartconverter=Neskol
&lv_2=6
&des_2=
&lv_3=8
&des_3=
&lv_4=12
&des_4=Jack
&lv_5=14
&des_5=ゲキ*チュウマイ Fumen Team
&des_6=
&inote_2=
(200){1},
{1},
{1},
{4}1,1,1,,
{4}2,2,2,,
{4}3,3,3,,
{2}4x/5x,4x/5x,
{4}5,5,5,,
{4}6,6,6,,
{4}7,7,7,,
{1}1x/8x,
{1}7-3[4:3],
{1},
{1}2-6[4:3],
{1},
{1}7-3[4:3],
{1},
{2}2,2,
{1}1h[2:1],
{4}8,8,7,,
{4}6,6,5,,
{4}4,4,3,,
{4}2,2,1/8,,
{4}1,1,2,,
{4}3,3,4,,
{4}5,5,6,,
{4}7,7,1/8,,
{2}7x,6x,
{2}5x,4x,
{2}3x,2x,
{2}1x,8b,
{2}8x,1x,
{2}2x,3x,
{4}4x,,5x,5x,
{1}4x/5x,
{2}E5,E4,
{2}E3,E2,
{2}E1,E8,
{2}E7,E6,
{2}E5,B3/B4,
{2}B5/B6,B1/B2,
{2}B7/B8,C1f,
{1},
{4}1,1,2,2,
{4}3,3,4,4,
{1}5h[1:1],
{2}4,4,
{4}5,5,6,6,
{4}7,7,8,8,
{1}1h[1:1],
{1}8,
{1}C1xh[1:3],
{1},
{1},
{1},
{1}8,
{1}8,
{1}1,
{1}1b,
{4}8,8,7,7,
{4}6,6,5,5,
{4}4,4,3,3,
{4}2,2,1/8,,
{4}1,1,2,2,
{4}3,3,4,4,
{4}5,5,6,6,
{4}7,7,1/8,,
{1}7h[2:1]/8h[2:1],
{1}5h[2:1]/6h[2:1],
{1}3h[2:1]/4h[2:1],
{1}1h[2:1]/2h[2:1],
{2}1/2,1/2,
{2}3/4,3/4,
{2}5/6,5/6,
{2}7/8,7/8,
{4}1,1,1/8,,
{4}2,2,1/2,,
{4}3,3,3/4,,
{4}4,4,4/5,,
{4}6,6,5/6,,
{4}7,7,7/8,,
{4}8,8,1/8,,
{1}1b,
{1}2-6[4:3],
{1},
{4}7,7,8,8,
{4}1/8,1/8,1/8,,
{1}7-3[4:3],
{1},
{4}2,2,1,1,
{4}1/8,1/8,1/8,,
{1}2xh[2:1]/8xh[2:1],
{1}1xh[2:1]/8xh[2:1],
{1}8xh[2:1],
{1}7xh[2:1],
{2}6x,5x,
{4}4x,3x,2x,1x,
{4}8x,8x,1x,1x,
{4}1x/8x,1x/8x,2x/7x,,
{4}8,8,7,7,
{4}6,5,4,3,
{4}2,2,1,1,
{4}1/8,1/8,2/7,,
{4}1,1,2,2,
{4}3,4,5,6,
{4}7,8,1,2,
{4}3,4,4/5,3x/6x,
{1},
{1},
{1},
E
&inote_3=
(200){1},
{4}4,4,5,5,
{2}4/5,3x/6x,
{4}2,2,2/4,,
{4}3,3,3/4,,
{4}7,7,5/7,,
{4}6,6,5/6,,
{4}3,3,2/4,,
{4}6,6,5/7,,
{4}4,4,5,5,
{2}4/5,3x/6x,
{1}4-1[4:3],
{2},8,
{1}7-4[4:3],
{2},3,
{1}2-7[4:3],
{2},6,
{1}4-1[4:3]/5-8[4:3],
{2},2x/7x,
{4}3xh[2:1],,4,4,
{4}5,6,5/7,,
{4}6h[2:1],,5,5,
{4}4,3,1/2,,
{4}7h[2:1],,8,8,
{4}1,2,3/8,,
{4}1,1,8,8,
{2}2x/7x,4x/5x,
{1}6-1[2:1],
{1}2-5[2:1],
{1}6-2[2:1],
{4}1,1,2,2,
{1}3b>6[4:5],
{1},
{1}4h[2:1]/5h[2:1],
{2}4/5,3x/6x,
{4}2b/7b,2/7,3,4,
{4}5,6,4/7,,
{4}2/7,2/7,6,5,
{4}4,3,2/5,,
{4}2,1,3/8,3/8,
{4}7,8,1x/6x,,
{4}7,6,5,4,
{2}4h[4:1]/5h[4:1],3x/6x,
{4}3h[4:1],4,6h[4:1],5,
{4}2h[4:1],1,7h[4:1],8>4[4:3],
{1},
{4}5,5,4/5,,
{4}6h[4:1],5,3h[4:1],4,
{4}7h[4:1],8,2h[4:1],1<5[4:3],
{1},
{4}4,4,3x/5x,,
{2}E4,E3,
{1}E2,
{2}E6,E7,
{1}E8,
{4}E3,B3,B4,,
{4}E7,B6,B5,,
{1}C1hf[1:1],
{1},
{4}1/2,1/2,3/4,3/4,
{4}5/6,5/6,4/7,4/7,
{4}3/6,3/6,2/5,2/5,
{4}3/4,2/5,1x/6x,,
{4}1/2,3/8,4/7,,
{4}7/8,1/6,2/5,,
{4}4/6,4/6,3/5,3/5,
{4}4/5,3/6,2b/7b,,
{2}1h[2:1]/8,2h[2:1],
{4}3,3,3/4,,
{2}4/5h[2:1],6h[2:1],
{4}7,7,1x/8x,,
{2}2h[4:1]/4h[4:1],5h[4:1]/7h[4:1],
{2}4h[4:1]/5h[4:1],3h[4:1]/6h[4:1],
{1}C1hf[1:1],
{2},1x/8x,
{4}3,2/4,6,5/7,
{4}3,2/4,4x/5x,3x/6x,
{4}7,6/8,2,1/3,
{4}7,6/8,1x/5x,,
{4}3h[4:1],4,2/5,2/5,
{4}6h[4:1],5,4/7,4/7,
{8}8,8,8,,1,1,1,,
{4}1/8,2/7,3/6,4>1[1:1]/5<8[1:1],
{1},
{4},,2b/7b,2b/7b,
{8}3,3,3,,5,5,5,,
{8}4,4,4,,2/5,,,,
{1}1-5[4:3]/2-6[4:3],
{4},,4x/7x,4x/7x,
{8}8,8,8,,1,1,1,,
{8}1/8,1/8,1/8,,2x/7x,,,,
{1}2xh[2:1]/8xh[2:1],
{1}1xh[2:1]/8xh[2:1],
{1}8xh[2:1],
{1}7xh[2:1],
{4}6x,6,5x,5,
{4}4x,3x,2x,1x<4[4:3],
{1},
{4},2,2b/8b,,
{4}3/4,3/4,5/6,5/6,
{4}7/8,7/8,1b,1b,
{4}2/4,3,4/5,6,
{4}5x/7x,2x/4x,4x/5x,2b/7b,
{4}4/6,1x/8x,3/5,1x/8x,
{4}4/6,1x/2x,3/5,7x/8x,
{8}5/6,5/6,5/6,,3/4,3/4,3/4,,
{1}C1hf[4:3]/B2/B7,
{1},
{1},
{1},
E
&inote_4=
(200){1},
{4}3h[8:1],4h[8:1],5h[8:1],6h[8:1],
{8}5,5,4,4,6-3[8:1],,1x,,
{8}4b/5b,,4/5,,4/5,,4/5,4/5,
{8}4-2[8:1]/5,,5,,5,2,5,3,
{8}4/5,,5/6,,4,4,5,5,
{8}3h[4:1],,,2h[4:1]/4h[4:1],,,1b/5b,,
{8}4/8,,4/7,,4/6,,4/5,4/5,
{8}4/5,,1/2,3/8,,7/8,1/6,,
{8}3x/4x,4x/5x,5x/6x<3[2:1],4x/5x,,,,,
{4}E5,C1,E1,C1hf[4:1],
{1},
{1},
{2}4xh[4:1]/5xh[4:3],6h[4:3],
{2}7xh[4:3],8xh[4:3],
{2}1xh[4:3],2h[4:3],
{2}3xh[4:3],4h[2:1],
{8}5,,1/8,,4/5,4/5,3>6[8:3]/6,,
{2},5b-1[8:1],
{8}3x/7x,3x/7x,,3/4,,1/6,,5/6,
{8},3/8,,3/4,,1/7,1/7,1/7-5[8:1],
{8},3-5[8:1],,1-5[8:1],,3,,3,
{8}2/4,,6,5/7,,1/2,3b/8b,,
{8}2x/6x,2x/6x,,5/6,,3/8,,3/4,
{8},1/6,,5/6,,2/8,2/8,2/8,
{4}3h[4:1]/7,4h[4:1],5h[4:1],6h[4:1],
{4}C1xh[2:1],,,8b,
{16}2h[4:1],,,,4,,,3/6,,,2/4,,2x/4x,,,,
{16}7h[4:1],,,,5,,,3/6,,,5/7,,5x/7x,,,,
{16}4h[4:1],,,,5,,,2/7,,,4/5,,4x/5x-8[8:1],,,,
{8},,1,1,1x-4[8:1]/8x,,,,
{16}5h[4:1],,,,4,,,3/4,,,5/6,,,2/4,,,
{16}5/7,,,1/3,,,6/8,,,2/7,,,3,,3,,
{8}4,4,5,5,6-3[8:1],6,,,
{16}1x/2x,,,7x/8x,,,3x/4x,,,5x/6x,,,1b,,,,
{8}2>5[8:1]/8<5[8:1],,,,1,1,8,8,
{8}1>4[8:1]/7<4[8:1],,,,8,8,1,1,
{4}2h[8:1]/8h[8:1],2h[8:1]/4h[8:1],5h[8:1]/7h[8:1],1h[8:1]/7h[8:1],
{8}8,8,1,1,2-6[8:1]/8-4[8:1],,,,
{8}5,5,4q5[2:1],4,,,,,
{16}8,,7,,5/6,,,,3/4,,3h[16:3]/4,,,2h[16:3],,,
{8}1b,,5/7,,2/4,,8,8,
{4}1-5[8:1],7-3[8:1],2-5[8:1],8b,
{8}6/7,,4/5,,2/3,,1/8,1/8,
{8},4/5,4/5,,6,6,3>6[2:3],3,
{4}5,5,4,4,
{4}5,5,4,4/5,
{8}2/3,,1/8,,6/7,,4/5,4/5,
{8},1/8,1/8,,3,3,6<3[2:3],6,
{4}4,4,5,5,
{4}4,4,E5,E1,
{1}C1f/E3/E7,
{1},
{1},
{1},
{4}3h[1:2]/4,4,5,5,
{4}4,4,5,5,
{4}6h[4:1],5h[4:1],4h[4:1],3h[4:1],
{8}5,5,4,4,5-8[8:1],,1b,,
{4}2x/7x,B4/E4/B5/E6,C1/E3/E7,B1/E2/B8/E8,
{8}C1/E3/E7,,B4/E4/B5/E6,,C1/E3/E7,,1x/8x,1x/8x,
{4}2x/7x,E1/B7/E7/B8,C1/E2/E6,B3/E3/B4/E5,
{8}7x/8x,7x/8x,1x/6x,,1x/2x,1x/2x,3x/8x,,
{8}B4/B5/E5,,1x/8x,1x/8x,2x/7x,,C1/E4/E8,,
{8}B5/E5/B6/E7,,C1/E4/E8,,B1/E1/B2/E3,,5x/6x,5x/6x,
{8}4x/7x,,3x/4x,3x/4x,2x/5x,,C1/E1/E5,,
{4}2h[8:1]/7h[8:1],3h[8:1]/6h[8:1],4-8[8:1]/5-1[8:1],,
{4}2x/7xh[2:1],,6,5xh[2:1]/8x,
{4},6,3/4,5/6,
{4}3xh[2:1]/7x,,2,1xh[2:1]/4x,
{4},2,4/5,7/8,
{8}6-1[8:1],6,,,2-5[8:1],2,,,
{8}7-5[8:1],7,1-3[8:1],1,8-4[8:1],8,,,
{16}2xh[16:3],,,4xh[16:3],,,5xh[16:3],,,7xh[16:3],,,2x>7[2:1],,,,
{1}C1hf[2:1],
{16}1b,8b,1b,8b,1b,,,,2,,2,,4,,4,,
{8}5,5,7,7,6-1[8:1]/8x,,2x,,
{8}3x/4x,4x/5x,5x/6x,,7,7,5,5,
{8}4,4,2,2,1x/3-8[8:1],,7x,,
{8}5/6,5h[8:1]/6h[8:1],,1h[8:1]/8h[8:1],,3h[8:1]/4h[8:1],,1h[8:1]/8h[8:1],
{8},4h[8:1]/5h[8:1],,2h[8:1]/7h[8:1],,3x/6x,1b/8b,,
{8}1x,2x,3x,4x,5x,6x,2bqq5[4:3]/7bpp4[4:3],,
{1},
{1}C1xh[1:1]/B2/B3/B6/B7,
{4},,8b-4[8:1],8b,
{16}3h[16:3],,,4,3,,3,,2,,1,,3/8,,,,
{16}6h[16:3],,,5,6,,6,,7,,8,,1/6,,,,
{8}2,4,3,5,4,6,5,7,
{8}1x,2x/8x,3x/7x,,5-1[8:1],,4b,,
{16}2h[16:3],,,1,2,,2,,3,,4,,2/5,,,,
{16}7h[16:3],,,8,7,,7,,6,,5,,4/7,,,,
{1}C1f/B2/E2/B6/E6,
{4}4b/5b,,,B4/E4/B5/E6,
{8}8b,,1,,,2,,2,
{4}7b,2,3x-5[8:1],,
{8}4x/6b,,4x,,3x/5b,,5x,5x,
{8}4b,6x,3b,7x,2b,,1b,,
{16}1x,8x,1x,8x,1x,8x,1x,8x,1x,8x,1x,8x,1x,8x,1x,8x,
{4}1b,5bw1[8:1],,3b/7b,
{8}2/6,,1/3,1/3,,6/8,6/8,,
{16}1x,8x,1x,8x,1x,,,,4/5,,,,2/7,,,,
{4}4b-2[8:1]/5b,5b-7[8:1],4b-8[8:1],5b-1[8:1],
{4}4b>1[8:1],5b<8[8:1],4bw8[8:1],,
{8}2x/6x,2/6,5,4,3x/7x,3/7,2,1,
{8}4x/8x,4/8,7,6,1x/5x,1/5,4,3,
{4}2-4[8:1],8-6[8:1],1-5[8:1],8b,
{4}6b/7b,4b/5b,2b<3[4:3]/3b,C1f,
{1},
{1},
{1},
E
&inote_5=
(200){1},
{4}3/4,5/6,2/3,6/7,
{8}1/8,1/8,1/8,2/7,1s5[8:1]/8z4[8:1],,1b/8b,,
{8}2x/3x,,4x/5x,,6x/7x,,4x/5x,3,
{16}2x/8x,,,,3x/4x,,,,4x/5x,,6,,1x/7x,,2,3,
{8}4x/5x,,5x/7x,,3x/4x,2/5,1x/6x,,
{8}1-5[8:1]/2,,4,4-8[8:1],,5,5b,,
{16}6x/7x,,,,2x/3x,,,,4x/8x,,,,2x/6x,,2/6,3/7,
{8}4/8>3[8:1],,6,4<7[8:1],,2,2b,,
{24}4x/8x,,,3/7,,,2x/6x,,,1/5,,,2x/6x,,2/6,,2/6,,3x/7x,,3/7,,3/7,,
{32}4xh[16:11]/8xh[16:11],,,,,,,,,,,,,,,,,,,,,,,,E4/E8,B3/B7,B2/B6,E2/E6,,,,,
{8}1x-3[8:1]/5x-7[8:1],,,,4/8,,3/5-1[8:1],6,
{16}7,,,,4-8[8:1]/6,,3,,2,,,,B1/B7,B2/B6,B3/B5,,
{4}4x-2[8:1]*-6[8:1],4,5x-2[8:1]*-8[8:1],5,
{16}4xw8[8:1],,,,4,,,,2x/6x,,,3x/5x,,,4x/6x,,
{4}7-5[8:1]/8-4[8:1],7x/8x,1-5[8:1]/2-4[8:1],1x/2x,
{8}8-6[8:1],4x,8-2[8:1],4x,8-6[8:1],4x,8b,,
{24}1,2,3,4,5,6,7,8,1,2,3,4,5,6,7,8,1,2,3,4,5,6,7,8,
{4}1x,8w4[8:1],8x,2b/6b,
{8}1,2-6[8:1]/8,3,2/4,,1/7-3[8:1],6,5/7,
{8},1,2h[8:1],4h[8:1],6h[8:1],8,1/8,1/8,
{8}2,1/7-3[8:1],6,5/7x,,1/2,,5/6,
{16}3,4,3,2,3,,6,5,6,7,6,,E4,E6,E2,E8,
{16}4,,4,5,3b/6b,,,,1,,2-6[8:1]/8,,3,,2/4,,
{8},8,7h[8:1],5h[8:1],3h[8:1],1,1/8,1/8,
{16}7-4[8:1],,7,,2-5[8:1],,2,,8,,8,,7,2,6,3,
{16}5h[4:1],,,,4,,4/5,,,,3b/6b,2b/7b,1b-4[8:1]/8b-5[8:1],,,,
{16}1x/8x,,,,3h[8:1]/6h[8:1],,,4h[8:1]/7h[8:1],,,5/8,,1-5[8:1]/6,,2x,,
{16}1/7,,,,3h[8:1]/6h[8:1],,,2h[8:1]/5h[8:1],,,1/4,,3/8b-4[8:1],,7b,,
{16}2/8,,,,3h[8:1]/6h[8:1],,,4h[8:1]/7h[8:1],,,5/8,,1,,1,,
{8}2x/8x,2x/8x,3bw7[4:1]/7b,3b/7b,,,,,
{32}8x,1x,2x,3x,4xh[16:3],,,,5h[8:1],,,,,,5h[8:1]/7h[8:1],,,,,,4h[8:1]/5h[16:1],,,,,,2h[16:1]/4h[8:1],,,,,,
{16}4h[8:1]/5h[16:1],,,6h[8:1]/8h[16:1],,,4h[16:1]/5h[8:1],,,1h[16:1]/3h[8:1],,,8,,8,,
{16}3/7,,2/6,,1,,2,,6,5,7,3,4q6[16:7],2,6,4,
{4}5,,C1f/E3/E7,8x,
{8}2b-4[8:1]/7b,,6,6,5h[8:1]/7,7,4/6h[8:1],4,
{8}3h[8:1]/5,5,2/4-8[8:1],2,1,1,2/6,3x/5x,
{8}6,6,5,4/7,8,8-4[8:1],3,3h[4:1],
{8},5,1/2,7/8,5-1[8:1]/6>3[8:1],,5x/6x,,
{16}8,,1,,2/7,,3,4,3,,2/4-7[8:1],,,,1>4[8:1],,
{48},,,,,,8x,,7x,,6x,,5x,,,,,,,,,,,,3/4,,,,,,2b/5,,,,,,,,,4/7b,,,,,,,,,
{8}1b/8b,,2/4,3,5/7,6-1[8:1],4,3x,
{8},2-6[8:1],1,2,7-3[8:1],8,1x/7,,
{8}2b/4b,1,5/7,8,2/4,1,5/7,8,
{24}2-4[8:1],,,2,,,8-6[8:1],,,8,,,1,,,1,2,3,4/7h[8:9],,,,,,
{8}E7,E6,E8,C1,E4,E2,E5,E8,
{64},,,,,,,,6,5,,,,,,,,,,,,,,,4,3,,,,,,,,,,,,,,,1/2,,,,,,,,3/8,,,,,,,,,,,,,,,,
{8}5b/6b,7,3/4,2,5/6,7,3/4,2,
{24}7-5[8:1],,,7,,,1-3[8:1],,,1,,,8,,,8,7,6,1/5,,,,,,
{24}1/8,,,2,3,4,5,,,8,,,1/8,,,7,6,5,4,,,1,,,
{24},,,3/4,,,,,,5/6,,,,,,E8,B8,B1,E2,,,,,,
{32}6,5,4h[32:25],,,,,,,,,,,,,,,,,,,,,,,,,,3,4,5h[32:9],,
{32},,,,,,,,7,6,5h[32:5],,,,,,6,5,4h[32:5],,,,,,5,4,3h[32:5],,,,,,
{32}1,2,3h[32:13],,,,,,,,,,,,,,6,5,4h[32:9],,,,,,,,,,3,4,5,,
{64},,,,,,,1,2,,,,,,,,4,,,,,,,,5,,,,,,,,6,,,,,,,,5,,,,,,,,4,,,,,,,,,,,,,,,,
{4}2/4,4/7,3/5,5/7,
{4}2/5,4/7,1/5,3/8,
{8}2/6,4,3/7,5,2/6,4,3/7,5,
{32}2/6,,,,1/8,,,,1/8,,,,,,,,B1/E2/B8/E8,B2/B7,B3/B6,E4/E6,,,,,,,,,,,,,
{4}4b/8b-4[8:1],2b/8b,2b-6[8:1]/5b,2b/8b,
{8}4b/7b-4[8:1],,1b/7b,,2b/6b,,5b/7b,4b/6b,
{4}3b-8[8:1]/5b,1b/3b,4b/6b-8[8:1],5b/6b,
{8}2b/5b,2b/7b,3b/7b,3b/6b,1b/6b,1b/8b,C1f/8b,,
{8}2b/7b,,2b/8b,1b/7b,7b/8b-5[8:1],,6b/8b,,
{8}3b/4b-1[8:1],,2b/4b,,4b/6b,,5b/7b,2b/5b,
{16}2b/8b,,,,4b,5b,3b,,4b/6b,,,,1b,6b,4b,8b,
{4}C1hf[2:1],,,2b/7b,
{8}1/8<5[8:1],,1/8,,2,2,3,3,
{4}4/5<8[8:1],1/5,1/3,6/8,
{8}4>1[8:1]/5,,4/8,,7,7,6,6,
{8}4>1[8:1]/5,,4/8,,7,3,1/5,,
{24}1/2>5[8:1],,,1x/2x,,,1x/2x,8,7,6,,,1/2>5[8:1],,,1x/2x,,,1x/2x,8,7,6,,,
{16}2,,6,6,4,,5,5,2,4,3,5,4,,,,
{24}1b-5[8:1],8,7,6,,,1x,,,8b-4[8:1],1,2,3,,,8x,,,2,,,1/8,,,
{32}4,,5,,3,,6,,2,,7,,1,,8,,1w5[8:1],2,3,4,5,6,7,8,1x,,,,,,,,
{16}1,8,2,7,3>8[8:1],,3,,6<1[8:1],,6,,4p7[8:1],,4,,
{8}5q2[8:1],5,3,3,4b/6h[4:1],,1b,,
{16}7,E2,7,E3,7,E4,7,E1,7,C1,7,E5,7,,,,
{8}3h[16:1]/6,2/5h[16:1],3h[16:1]/6,4/7h[16:1],3h[16:1]/6,2/5h[16:1],3/6,,
{8}8h[8:1],C1f,7h[8:1],C1f,6h[8:1],C1f,5h[8:1],C1f,
{8}4h[8:1],C1f,3h[8:1],C1f,2h[8:1],C1f,1x,,
{8}E1/1x,E2/2x,E3/3x,E4/4x,E5/5x,E6/6x,E7/7b,,
{8}8-2[8:1],2v3[8:1],3-5[8:1],,,,8b,,
{8}2x-6[2:1],5,6,7,8,8,1,1,
{16}2x-6[8:1],,,,2x/6x,,,,B7/1-5[8:1]*-6[8:1],C1,B3,,1x,,,,
{8}2-5[8:1],5V38[4:1],2,8-4[8:1],,6x,6x,,
{8}7-4[8:1],4V61[4:1],7,1-5[8:1],,3,3b,,
{8}7-3[2:1],4,3,2,1,1,8,8,
{16}7-3[8:1],,,,3/7,,,,B2/8-3[8:1]*-5[8:1],C1,B6,,8x,,,,
{8}7-4[8:1],4V61[4:1],7,1-5[8:1],,3x,3xh[4:1],,
{16}5,,1v4[8:1]/7v4[8:1],2/6,3/5,,,,,,2b/6b,,,,,,
{4}C1f/B3/E3/B4/E4/B5/E5/B6/E6/E7,1,1/8,1x/8x,
{4}C1f/B3/E3/B4/E4/B5/B6/E6/E7,8,1,2x/3x,
{4}C1f/B5/B6/E6/B7/E7/B8/E8,1,2/8,6/7,
{16}B1/C1f/B2/E2/B3/B4/E4,,,,8,7,6,5,8x,,,,1b/8b,,,,
{4}C1f/B2/B3/B4/E4/B5,8,C1f/B4/B5/B6/B7,1,
{4}C1f/B7/B8/E8,C1f/B2/B3,C1f/E4,C1f,
{16}1,8,1,8,2,7,3,6,2,7,4,5,3,6,4,5,
{4}1b-4[8:1],1b<6[8:1],1b/5bw1[8:1],,
{8}1x-5[8:1]/8x,2,1/8-4[8:1],7,4/8,3,2/6,1,
{16}7/8,,7/8,1/6,2/5,,2/5,,1-5[8:1]/6-8[8:1],,,,1b/6b,,,,
{16}3x/7x,,5,4,5,,3/6,,1x/7x,,4,5,4,,,,
{32}8b,7x,6x,5x,4x,3x,2x,1x,8b,7x,6x,5x,4x,3x,2x,1x,8b-4[16:1],,,,,,,,8b,C1f,,,,,,,
{8}1x/6x,7/8,1/6,2b/5b,3x/8x,1/2,3/8,4b/7b,
{8}2x/5x,3/4,2/5,1b/6b,4x/7x,5/6,4/7,3b/8b,
{32}1x,,5,,1,,5,,2,,6,,2,,6,,3,,7,,3,,7,,4x,5,6,7,8,1,2,3,
{32}4b-8[8:1],,,,,,,,4b>1[8:1]*<7[8:1],B4,C1f,B8,,,,,4bw8[8:1],,,,,,,,4b,B4,C1f,B1/B7/B8,,,,,
{1},
{1},
{1},
E
