&title=Arty Party
&wholebpm=180
&artist=yaseta
&des=しちみりこりす
&shortid=11213
&genre=ゲームバラエティ
&cabinet=DX
&version=maimai DX Splash
&chartconverter=Neskol
&lv_2=4
&des_2=
&lv_3=8
&des_3=
&lv_4=11+
&des_4=サファ太
&lv_5=13+
&des_5=しちみりこりす
&des_6=
&inote_2=
(180){1},
{1},
{1}4,
{1}4,
{1}5,
{1}5,
{1}4,
{1}4/5,
{1}5,
{1}4x/5x,
{2}4,4,
{1}4,
{2}3,3,
{1}3,
{2}2,2,
{1}2,
{2}1,1,
{1}1/8,
{2}7,7,
{1}7,
{2}6,6,
{1}6,
{2}5,5,
{1}5,
{2}4,4,
{1}4x/5x,
{1}B5,
{1}B4,
{1}B6,
{1}C1,
{2}1,1,
{1}1,
{2}8,8,
{1}8b,
{1}1,
{1}1/2,
{1}3x,
{1}3/4,
{1}5,
{1}5/6,
{1}4xh[1:1]/5xh[1:1],
{1},
{1}B4,
{1}B6,
{1}B3,
{1}B5,
{1}B4,
{1}B7,
{1}B2,
{1}C1,
{1}8-5[4:3],
{1},
{1}1-4[4:3],
{1},
{1}5xh[1:1],
{1},
{1}4xh[1:1],
{1},
{1}4b/5b,
{1},
{4}8x,8,8,,
{4}7,7,7,,
{4}6,6,6,,
{4}5,5,4x/5x,,
{4}4,4,4,,
{4}3,3,3,,
{4}2,2,2,,
{1}1h[2:1]/8h[2:1],
{4}1,1,1,,
{4}2,2,2,,
{4}3,3,3,,
{4}4,4,4x/5x,,
{4}5,5,5,,
{4}6,6,6,,
{4}7,7,7,,
{4}8,8,1x/8x,,
{1}7h[2:1]/8h[2:1],
{1}5h[2:1]/6h[2:1],
{1}3h[2:1]/4h[2:1],
{1}1h[2:1]/2h[2:1],
{4}1/8,1/8,1/8,,
{4}2/7,2/7,2/7,,
{4}3/6,3/6,3/6,,
{4}4/5,4/5,4/5,4h[1:1]/5h[1:1],
{1},
{1},
{1},
E
&inote_3=
(180){1},
{1},
{1}3h[1:1],
{1}4h[1:1],
{1}5h[1:1],
{1}6,
{2}7,7/8,
{2}2,1/2,
{4}8,8,1,1,
{1}1-5[8:3]/8-4[8:3],
{4}3,3,3/4,,
{4}6,6,5/6,,
{4}3,3,3/4,,
{4}5,5,4/6,,
{4}7,7,7/8,,
{4}2,2,1/2,,
{4}7,7,7/8,,
{4}1/8,1/8,2x/7x,,
{2}3h[4:1]/4h[4:1],3/4,
{2}5h[4:1]/6h[4:1],5/6,
{2}3h[4:1]/4h[4:1],3/4,
{4}5/6,5/6,4/7,,
{4}8,8,7,7,
{4}6,6,5,5,
{2}4h[4:1]/5h[4:1],3h[4:1]/6h[4:1],
{4}2/7,2/7,2b/7b,,
{4}1,1,2,2,
{4}3,3,4,4,
{2}4h[4:1]/5h[4:1],3h[4:1]/6h[4:1],
{4}2x/7x,2x/7x,2x/7x,,
{4}3h[2:1],,4,3/4,
{4}6h[2:1],,5,5/6,
{4}3h[2:1],,4,3/4,
{4}4/5,4/5,3/6,,
{4}2,2,1,,
{4}7,7,8,,
{4}1x,1x,8x,8x,
{1}2x-5[8:3]/7x-4[8:3],
{4}3,3,4,,
{4}6,6,5,,
{4}4,4,5,5,
{4}4/5,4/5,3x/6x,,
{1}2-6[8:3],
{1}7-4[8:3],
{1}3-8[8:3],
{1}7-3[8:3],
{2}B2,B4/E4,
{2}B7,B5/E6,
{2}B2,B4/E4,
{2}B7/E7,B3/B4,
{2}5xh[4:1]/6xh[4:1],4/7,
{2}3xh[4:1]/4xh[4:1],2/5,
{2}1xh[4:1]/2xh[4:1],3/8,
{2}1xh[4:1]/8xh[4:1],2/7,
{8}3/6,,,6,6,,,7,
{8}7,,,8,8,,,1,
{4}1,1/8,1/2,1/8,
{4}7/8,1/8,2bV41[8:9]/7bV58[8:9],,
{1},
{1},
{4}2,2,1/2,1/2,
{4}3,4,5,6,
{4}7,7,7/8,7/8,
{4}6,4/5,3x/6x,,
{4}7,7,7/8,7/8,
{4}6,5,4,3,
{4}2,2,1/2,1/2,
{4}1/8,1/8,2x/7x,,
{4}2,1/2,7,7/8,
{4}6,5/6,4,3/5,
{4}2,1/2,7,7/8,
{4}1/8,1/8,2b/7b,,
{4}6,5/6,3,3/4,
{4}2,1/2,8,1/7,
{4}6,4/5,3/4,4/5,
{4}3/6,3/6,2b/7b,,
{8}3h[4:1]/4h[4:1],,,,3,3,3,,
{8}5h[4:1]/6h[4:1],,,,6,6,6,,
{8}7h[4:1]/8h[4:1],,,,7,7,7,,
{8}1h[4:1]/2h[4:1],,,,2,2,2,,
{8}1/8,,,7,7,,,6,
{8}6,,,5,5,,,4/5,
{4}4/5,3/6,2/7,1/8,
{8}1,1,8,8,1/8,1/8,,2/7,
{4},,,C1,
{1},
{1},
{1},
E
&inote_4=
(180){1},
{1},
{2}3/6h[1:2],5,
{4}4,4,5,,
{2}3h[2:3],4,
{4}5,5,4,,
{4}3,3,3/4,3/4,
{4}6,6,5/6,5/6,
{8}3,3,5,5,4,4,6,6,
{4}4-8[4:1]/5-1[4:1],,,2b/7b,
{8}3,3/4,,4/6,,5/6,,3/5,
{8},3/4,,5,4/5,,7b,,
{8}6,5/6,,3/5,,3/4,,4/6,
{8},5/6,,4,4/5,,2b,,
{8}3/4,3h[8:1]/4h[8:1],,4h[8:1]/6h[8:1],,5h[8:1]/6h[8:1],,3h[8:1]/5h[8:1],
{8},3h[8:1]/4h[8:1],,5,4/5,,7b,,
{8}5/6,5h[8:1]/6h[8:1],,3h[8:1]/5h[8:1],,3h[8:1]/4h[8:1],,4h[8:1]/6h[8:1],
{8},5h[8:1]/6h[8:1],,4,4/5,,2b/7b,,
{2}8<5[4:1],1>4[4:1],
{4}6h[4:3],5,7,5,
{2}4>1[4:1],5<8[4:1],
{4}2h[4:3],1,3,1,
{2}3<6[4:1],7p3[4:1],
{4}2q6[4:1],,8,8,
{2}2xh[4:1]/8,1xh[4:1]/7,
{2}8p5[2:1],1b,
{4}2/8,1/8,8,7,
{4}6,5,4,3,
{2}2xh[4:1],1xh[4:1],
{16}8,1,8,1,8,1,8,1,8,,,,2x/7x,,,,
{8}4,,3/5,,2,2,1/2,,
{8}8,,1/7,,6,6,5/6,,
{8}4,,3/5,,2/6,2/6,2/6<3[2:1],,
{4}4x,,,2b/7b,
{1}4h[2:1]/5h[16:9],
{8}4,4,5,5,4/5,,3/6,3/6,
{16},,2xh[8:1]/4xh[8:1],,,3xh[8:1]/5xh[8:1],,,4xh[8:1]/6xh[8:1],,,5x/7x,,,8x,,
{4}8xw4[4:1],,,2b/6b,
{4}3-6[4:1],,7h[4:1],5,
{4}4/6-3[4:1],,2h[4:1],4,
{4}3-6[4:1]/5,,7h[1:1],5,
{1}C1xh[2:1],
{4}6,E6/E7,,6,
{4}5,E5/E6,,5,
{4}4,E4/E5,,4,
{4}3,E3/E4,,3,
{4}4h[1:1],E5,,E4,
{4}5h[1:1],E5,,E6,
{4}E7,C1,E3,E1,
{4}C1,E5,E4/E6,,
{4}3/6>3[2:1],,2,2,
{4}3/6>3[2:1],,2,2,
{4}3/7p3[2:1],,1,1,
{4}3/7p3[2:1],,1,1,
{8}3xh[4:1]/4xh[4:1],,,4/5,4xh[4:1]/5xh[4:1],,,5/6,
{8}5xh[4:1]/6xh[4:1],,,4/5,4xh[4:1]/5xh[4:1],,,4/5,
{8}3,3,6,6,2,2,7,7,
{16}1/8,,1/8,,1/8,,1/8,,1x/8x,,,2x/7x,,,3xq6[8:5]/6x,,
{1},
{4}C1xh[2:1],,,1b/8b,
{4}2-4[8:1],1-5[8:1],2-4[8:1],8-6[8:1],
{8}1-5[8:1],,8,,7/8,1/6,2/5,,
{4}7-5[8:1],8-4[8:1],7-5[8:1],1-3[8:1],
{8}8-4[8:1],,1,,1/2,3/8,4/7,,
{4}3-1[8:1],4-8[8:1],3-1[8:1],5-7[8:1],
{8}4-8[8:1],,5,,5/6,4/7,3/8,,
{4}6-8[8:1],4-1[8:1],5-8[8:1],3-1[8:1],
{8}4,,5/6,,1/8,2/7,3b/6b,,
{4}3-5[8:1],6-2[8:1],3-5[8:1],7-1[8:1],
{8}2-6[8:1],,5,,7,6/8,1/5,,
{4}6-4[8:1],3-7[8:1],6-4[8:1],2-8[8:1],
{8}7-3[8:1],,4,,2,1/3,4/8,,
{4}1-6[8:1]/7,5-2[8:1],1-6[8:1],5-2[8:1],
{8}1-6[8:1],,5,,3,2/4,1/5,,
{4}2/8-3[8:1],4-7[8:1],8-3[8:1],4-7[8:1],
{8}8-3[8:1],,4,,5,5,3b/7b,,
{8}1h[4:1]/2h[4:1],,,1/2,3/8,,5/6,,
{8}7h[4:1]/8h[4:1],,,7/8,1/6,,3/4,,
{8}5h[4:1]/6h[4:1],,,5/6,4/7,,1/2,,
{8}1h[4:1]/8h[4:1],,,1/8,2b/7b,2b/7b,2b/7b,2b/7b,
{16}3,4,3,4,3b,,,,6,5,6,5,6b,,,,
{16}2,3,2,3,2b,,,,7,6,7,6,7b,,,,
{8}4,3,6,7,3,2,5,6,
{16}1,7,1,7,1,7,1,7,8,,8w4[8:1],,,,,,
{4},,,7b,
{1},
{1},
{1},
E
&inote_5=
(180){1},
{8}5,6,4,3,6,5,3,4,
{8}6h[8:7],5,,5,,5,,5,
{16}3h[8:5],,4,,,,4,,,,4,,3x,4x,3x,,
{8}6h[8:7],5,,5,,5,,5,
{16}3h[8:5],,4,,,,4,,,,4,,3x,4x,3x,,
{4}2h[2:1]/5,4,6h[2:1],5,
{4}3h[2:1],4,7h[2:1],5,
{8}3,3,4,4,5,5,6,6,
{16}2,4,3,5,4,6,5,7,1x,,1x,,2x/7x,,,,
{8}1-5[8:1],1,8-6[8:1],8,1-5[8:1],1,8-6[8:1],8,
{8}1-5[8:1],1,8,8,1/7,2/6,3/5,,
{8}8-4[8:1],8,1-3[8:1],1,8-4[8:1],8,1-3[8:1],1,
{8}8-4[8:1],8,1,1,2/8,3/7,4/6,,
{8}4-8[8:1],4,5-7[8:1],5,4-8[8:1],4,5-7[8:1],5,
{8}4-8[8:1],4,5,5,4/6,3/7,2/8,,
{8}5-1[8:1],5,4-2[8:1],4,5-1[8:1],5,4-2[8:1],4,
{8}5-7[8:1],5,1,1,1/8,1/8,2/7,,
{16}2/4,,3,,4/5,,6,,5/7,,6,,4,5,4,,
{16}2/5,,3,,6,5,6,5,6,,,,5/7,,,,
{16}1/3,,2,,1/8,,7,,6/8,,7,,1,8,1,,
{16}3/8,,2,,7,8,7,8,7,,,,3x/6x,,,,
{4}2b/5h[4:3],1b,8b,7b,
{4}1h[4:3]/6b,5b,4b,3b,
{4}B1/C1/B2/B4/E4/B5/B8,8x,B6/E6/B7/E8,1x>8[2:1],
{2}8,C1f,
{4}2,1,8,7,
{4}6,5,4,3,
{2}B1/C1/B2/B4/E4/B5/B8,B6/E6/B7/E8,
{16}1,7,1,7,1-5[8:1],7,1,7,1,,,,3/7,,,,
{8}3,4,,3/5,2>5[8:1]/4,,2/5,,
{8}6,5,,4/6,5/7<4[8:1],,4/7,,
{8}3,4,,3/5,2>5[8:1]/4,,2/5,,
{16}6,5,6,5,7-3[8:1],5,7,5,7,,,,1/5,,,,
{16}4h[2:1]/6,,,,,,,,6,5,,,,,,,
{16}3/5,,2/6,,7>6[4:1],1,7,1,,,,,E2,E3,E4,,
{16},,1b/8b,,,5b/7b,,,1b/8b,,,2b/4b,,,1b/8b,,
{16},,3x/7x,,2<3[4:1],8,2,8,,,,,E8,E7,E6,,
{16}1-4[8:1],,,,6,,,,5/6h[16:3],,,8,7,,1,,
{16}2/8-5[8:1],,,,3,,,,3h[16:3]/4,,,1,2,,8,,
{16}1-4[8:1]/7,,,,6,,,,5/6h[16:3],,,8,7,,1,,
{4}2/8-4[8:1],3>5[16:5],C1f,,
{16}6,,6,,5x,,6h[16:3],,,4,,3,3x,,5,,
{16}3,,3,,4x,,3h[16:3],,,5,,6,6x,,4,,
{16}7,,7,,6x,,7h[16:3],,,5,,4,4x,,6,,
{16}2,,2,,3x,,2h[16:3],,,4,,5,5x,,3,,
{16}6,,6,,5x,,6-1[8:1],,,3,,2,2x,,8,,
{16}3,,3,,4x,,3-8[8:1],,,5,,6,6x,,1,,
{16}7,,7,,1x,,8-5[8:1],,,2,,3,3x,,6,,
{16}2,,2,,8x,,8h[16:3],,,1,,2/7,2x/7x,,,,
{8}6-3[8:1],6,1,1,2-7[8:1],2,5,5,
{8}6-3[8:1],6,1,1,2-7[8:1],2,5,5,
{8}6-1[8:1],6,2-5[8:1],2,8-6[8:1],8,1-3[8:1],1,
{8}5-8[8:1],5,4-1[8:1],4,8,8,2x/7x,,
{8}3x/8x,,,3/4,1x/6x,,,5/6,
{8}3x/8x,,,4/5,2x/7x,,,3,
{8}2x/4x,6,5x/7x,3,1x/4x,6,5x/8x,4,
{16}3x/5x,,3/5,,4x/6x,,4/6,,2b/5b,,,4b/7b,,,1bq4[4:3]/8bp5[4:3],,
{1},
{4}C1hf[4:3],,,1b,
{16}2/8,,1,,7/8,,2,2,8h[8:1],,3,,2/4,,1,1,
{16}7h[8:1],,5,,4/8,,3,3,4,,1,,5/6,,8,,
{16}3/7,,1,,2/5,,6,6,4h[8:1],,8,,5/7,,6,6,
{8}2,3/4,5,4/6,7,5/6,4,3/5,
{16}1/6,,2,,3/8,,7,7,1h[8:1],,6,,5/7,,8,8,
{16}2h[8:1],,4,,1/5,,6,6,5,,8,,3/4,,1,,
{16}2/6,,8,,4/7,,3,3,5h[8:1],,1,,2/4,,3,3,
{8}2/4,3/5,4/6,5/7,1,2/8,3b/7b,,
{16}2/4,,1,,7h[8:1]/8,,2,2,2,,4,,3/5h[8:1],,1,1,
{16}1,,6,,5/7h[8:1],,3,3,3,,8,,2/4,,1,,
{16}5/7,,1,,2h[8:1]/8,,7,7,7,,4,,3h[8:1]/5,,6,6,
{8}6,5/7,4/6,3/5,1/4,2/5,3/6,4/7,
{16}2/8,,7,,1/6h[8:1],,2,2,2,,4,,3/5h[8:1],,1,1,
{16}1,,6,,5/7h[8:1],,3,3,3,,8,,2/4,,1,,
{16}7/8,,5/6,,3/4,,2b,1b,2b,,3/4,,5/6,,7b,8b,
{16}7b,,5/6,,3/4,,1b,1b,1b,,2/8,,3b/7b,,,,
{16}4-2[8:1]*-6[8:1],,,,,,,,3,,5,5,4,,6,6,
{16}5-3[8:1]*-7[8:1],,,,,,,,6,,4,4,5,,3,3,
{16}4-2[8:1]*-6[8:1],,,,,,,,3,,5,5,4,,6,6,
{8}5-3[8:1]*-7[8:1],,,,4/5,4/5,4/5,4/5,
{16}3,3,3,3,3,,2x/4x,,5,5,5,5,5,,4x/6x,,
{16}1,1,1,1,1,,2x/8x,,7,7,7,7,7,,6x/8x,,
{16}1,1,1,1,2,2,2,2,1,1,1,1,8,8,8,8,
{16}1,1,1,1,1,1,1,1,1,,2/8w4[16:1],,,,8,,
{4},,,7b,
{1},
{1},
{1},
E
