&title=≠彡"/了→
&wholebpm=222
&artist=水野健治
&des=レよ†ょ/∪ヽ”┠ (十,3、了ナニ
&shortid=11221
&genre=maimai
&cabinet=DX
&version=maimai DX Splash
&chartconverter=Neskol
&lv_2=5
&des_2=
&lv_3=9
&des_3=
&lv_4=12+
&des_4=はっぴー
&lv_5=14
&des_5=レよ†ょ/∪ヽ”┠ (十,3、了ナニ
&des_6=
&inote_2=
(222){1},
{1},
{1},
{1},
{1},
{1},
{1}1,
{1}2,
{1}3,
{1}4/5,
{1}5,
{1}6,
{1}7,
{1}8x,
{2},7/8,
{2},5/6,
{2},3/4,
{2},1/2,
{2},1-5[4:3],
{1},
{2},8-4[4:3],
{1},
{2},3,
{2}3,3/4,
{2},6,
{2}6,5/6,
{2},7-3[4:3],
{1},
{2},2-6[4:3],
{1},
{2},7,
{2}7,7/8,
{2},2,
{2}2,1/2,
{2},8h[1:1],
{1},
{2},1h[1:1],
{1},
{2},1h[1:1]/8h[1:1],
{1},
{2},2x/7x,
{2},3x/6x,
{4},,5,5,
{2}5,6,
{4},,7,7,
{2}7,8,
{4},,1,1,
{2}1,2,
{4},,3,3,
{2}3,4,
{2},E5,
{2},E4/E6,
{2},E3/E7,
{2},C1,
{2},B2/B7,
{2},E2/E8,
{2},C1xh[1:1],
{1},
{2},8,
{2},1,
{2},2,
{2},3,
{2},4,
{2},5,
{2},4/5,
{2}4/5,4/5,
{2},4,
{2}4,3,
{2}3,2,
{2}2,1,
{2},8,
{2}8,7,
{2}7,6,
{2}6,5,
{2},E4/E6,
{2},C1hf[1:1],
{1},
{4},,8b,8,
{4}8,,7,7,
{4}7,,6,6,
{2}6,4/5,
{4}4/5,,4,4,
{4}4,,3,3,
{4}3,,2,2,
{4}2,,1,1,
{4}1x/8x,,1,1,
{4}1,,2,2,
{4}2,,3,3,
{2}3/4,4/5,
{4}4/5,,5,5,
{4}5,,6,6,
{4}6,,7,7,
{4}7/8,,8,8,
{2}1x/8x,7h[2:1],
{2},7,
{2}7,8h[2:1],
{2},8,
{2}8,1h[2:1],
{2},1,
{2}1,2h[2:1],
{2},2,
{2}2,3h[2:1]/4h[2:1],
{2},3x/4x,
{2}3x/4x,5h[2:1]/6h[2:1],
{2},5x/6x,
{4}5x/6x,,7,7,
{4},,8,8,
{4},,1,1,
{4},,2,2,
{4},,1,1,
{4}2,,3,3,
{4}4,,5,5,
{4}6,,7,7,
{2}1/8,7,
{2}6,5,
{2}4,3,
{2}2,1b,
{4},,1,1,
{4}2,2,3,3,
{4}4,,5,5,
{4}6,6,7,7,
{4}1/8,,7,7,
{4}6,6,5,5,
{4}4,,3,3,
{4}2,2,1x/8x,,
{4}1x/8x,,8,8,
{4}7,7,6,6,
{4}5,5,4,4,
{4}3,3,2,2,
{4}1,1,8,8,
{1}1h[1:1],
{1}8b,
{1}7b,
{1},
{1},
{1},
E
&inote_3=
(222){1},
{1},
{1}3h[1:1],
{1}4h[1:1],
{1}5xh[1:1],
{2}4,4/5,
{1}5b-8[2:1],
{1}1-4[2:1],
{1}5-8[2:1],
{2}1,2x/8x,
{1}1>4[2:1],
{1}5<8[2:1],
{2}1h[2:1],8h[2:1],
{2}1,1/8,
{4}2x/7x,,1,1,
{4}2,2,3,3,
{4}4/5,4/5,6,6,
{4}7,7,1/8,,
{2}2x/7x,3h[2:1],
{2}4,5,
{2}6,6h[2:1],
{2}5,5/6,
{4}4/7,,6,5,
{4}4,3,1/2,,
{4}3/8,,3,4,
{4}5,6,7/8,,
{2}1x/6x,6h[2:1],
{2}5,4,
{2}4/5,3h[2:1],
{2}4,2,
{4}1/8,,7/8,7/8,
{4}1/6,,1/2,1/2,
{2}3/8,1xh[4:1]/2xh[4:1],
{2}1xh[4:1]/8xh[4:1],7xh[4:1]/8xh[4:1],
{2}1b/6b,7qq4[4:5],
{1},
{2},3qq8[4:5],
{1},
{2},7pp4[4:5],
{1},
{4},,3,3,
{4}4,4,4h[2:1]/5h[2:1],,
{8},,,,6,6,6,,
{8}5/7,,4/6,,3,3,3,,
{8}2/4,,3/5,,6,6,6,,
{8}4,4,4,,4/5,,3/6,,
{2}2x/7x,2h[2:1],
{2}3h[2:1],4,
{2}4/5,6h[2:1],
{2}7h[2:1],8,
{2}1/8,7h[2:1],
{2}6h[2:1],5h[2:1],
{2}4h[2:1],3h[2:1],
{2}2h[2:1],1,
{2}1/8,2V48[4:5]/7V51[4:5],
{1},
{2},2b/7b,
{1},
{2},B4,
{2},B2/E3,
{2},B5,
{2},B7/E7,
{2},B6,
{2}B5,B4,
{2},B3,
{2}B4,B5,
{2},7x-4[4:3]/8x-3[4:3],
{1},
{2},1x-6[4:3]/2x-5[4:3],
{1},
{2},4h[2:1]/7h[2:1],
{4},,6,6,
{2}5/6,2h[2:1]/5h[2:1],
{4},,3,3,
{2}3/4,5xh[2:1]/7xh[2:1],
{2},3xh[2:1]/4xh[2:1],
{2},C1f,
{4},,1b/8b,1/8,
{4}2/7,2/7,3,4,
{4}5/6,5/6,7,7/8,
{4}2,1/2,8,1/8,
{4}2x/7x,,6,5/6,
{4}4/7,5/6,3,3/4,
{8}2/5,,3/4,,5,5,5,,
{8}4,4,4,,4/5,,3/6,,
{4}2b/7b,,2h[4:1],1,
{4}7h[4:1],8,2h[4:1],4,
{4}7h[4:1],5,4/6,4/6,
{4}3/5,3/5,4/6,3/7,
{4}2x/8x,,2h[4:1],4,
{4}7h[4:1],5,2h[4:1],1,
{4}7h[4:1],8,1,2,
{4}3/4,3/4,5/6,4/7,
{2}3x/8x,1h[2:1]/2h[2:1],
{4},,3,4,
{2}5/6,7h[2:1]/8h[2:1],
{4},,6,5,
{4}3/4,,2h[2:1],1,
{4}1,,7h[2:1],8,
{4}8,,1h[2:1],8,
{4}8,,2/7,2/7,
{8}2/7,,,,4x/5x,,6,6,
{8}5,,4/7,,6,6,5,,
{8}4/7,,,,4x/5x,,3,3,
{8}4,,2/5,,3,3,4,,
{8}2/5,,,,1/8,,7,7,
{8}8,,1/6,,7,7,8,,
{2}1x/6x,2h[2:1]/7h[2:1],
{2},4x/5x,
{4},,2/4,2/4,
{4}3/5,3/5,4/6,4/6,
{4}5/7,5/7,4x/8x,4x/8x,
{4}3/7,3/7,2/6,2/6,
{2}1b/5b,7h[4:1]/8h[4:1],
{2}1h[4:1]/2h[4:1],3h[4:1]/4h[4:1],
{2}5h[4:1]/6h[4:1],4bq1[4:3]/5bp8[4:3],
{1},
{8},,,,1x/8x,,2,2,
{8},3/4,3/4,,4/5,,6,6,
{8},7/8,7/8,,1x/2x,,3/8,3/8,
{8},2/7,2/7,,1x/6x,,2x/5x,,
{4}3b/4b,,6,5/7,
{4}3,2/4,7,6/8,
{4}2,1/3,8,1/7,
{4}2/6,3/5,4/6,4/6,
{4}2b/8b,,5/6,7,
{4}3/4,2,5/7,8,
{8}2/4,,1,,7/8,7/8,7/8,,
{8}5/6,5/6,5/6,,3/4,3/4,3/4,,
{8}1/2,1/2,1/2,,3/8,3/8,3/8,,
{8}1/6,1/6,1/6,,2x/7x,,,,
{1}C1f/B3/B4/B5/B6,
{1}7b,
{1},
{1},
{1},
E
&inote_4=
(222){1},
{1},
{1}4h[2:3],
{1}5h[2:3],
{1}3h[4:5],
{2}6h[2:1],1b,
{8}8h[4:1],,1,1,,6,6,5,
{8}7h[4:1],,1,1,,3,3,4,
{8}2h[4:1],,8,8,,6,6,4,
{1}5-2[4:1]*-8[4:1],
{8}1h[4:1],,7,7,4,5,3,3,
{8}8h[4:1],,2,2,5,4,6,6,
{8}1>4[4:1],,,,5,5,,7h[4:1],
{8},5,5,8,1,,1>4[4:1]/8<5[4:1],,
{4},,4/5,B1/B8,
{4}3/5,B7/E8,4/6,B2/E2,
{4}4/5,E4/E6,4/5,3/6,
{4}2/7,1s5[2:1]/8,,,
{2},6h[1:1],
{4}5,,3h[1:1],5,
{4}5,5,6h[1:1],,
{2}5,3h[2:1],
{8}4,,,,7,7,5,5,
{8}6,4h[4:1],,5,5,3,4,2h[4:1],
{8},3h[4:1],,4,4,5,3,3,
{8}4,1h[4:1],,8,8,1,1,7-4[4:1],
{2},3h[1:1],
{4}4,,6h[1:1],4,
{4}4,4,3h[1:1],,
{4}4,5,6h[2:1],,
{12}5,,,,,,7h[6:1],,5,5,,,
{12}2h[6:1],,4,4,,,6h[6:1],,8,8,,,
{12}3h[6:1],,1,1,,,8-5[4:1],,,,,,
{2}1-4[4:1],8b,
{8},,,,4h[4:1]/6h[4:1],,,3h[4:1]/5h[4:1],
{8},,4/6,,3/7,,8,8,
{8}1,1,2/6,,3h[4:1]/5h[4:1],,,4h[4:1]/6h[4:1],
{8},,3/5,,2/6,,1,1,
{8}8,8,3/7,,4h[4:1]/6h[4:1],,,3h[4:1]/5h[4:1],
{8},,4/6,4h[4:1]/6h[4:1],,,,1x/8x,
{8},2x/7x,2x/7x,,3h[4:1]/5h[4:1],,,4h[4:1]/6h[4:1],
{4},3/5p4[2:1],,,
{16},,,,,,,,3,4,3,4,3,4,3,4,
{16}3,4,3,4,3,,,,6,5,6,5,6,5,6,5,
{16}6,5,6,5,6,,,,7,8,7,8,7,8,7,8,
{16}7,8,7,8,7,,,,2,1,2,1,2,1,2,1,
{16}2,1,2,1,2,,,,3-6[4:1],,,,,,,,
{2}7-2[4:1],3-6[4:1],
{4}7-2[4:1],,3h[4:1],5,
{4}6h[4:1],4,2/5,4/7,
{4}2/5,4/7,2h[2:1]/6,,
{2}4h[2:1],5h[2:1],
{2}7h[2:1],2h[2:1],
{4}5,6,4qq5[2:1],,
{2},6h[2:1],
{2}8h[2:1],1h[2:1],
{2}3h[2:1],5h[1:1],
{2},2b,
{2},8<2[4:5],
{2}1,1,
{2}1,1>7[4:5],
{2}8,8,
{2}8,8<2[4:5],
{2}1,1,
{2}1,1>7[4:5],
{2}8,8,
{4}8,,E7,E6,
{8}E5,,E4,,2,2,5,5,
{8}3,3,4,,E3,,E4,,
{8}E5,,E6,,7,7,4,4,
{8}6,6,5,,5xh[4:1]/6xh[4:1],,,4xh[4:1]/7xh[4:1],
{8},,3x/8x,3x/8xh[4:1],,5,,4,
{8}4,5,3,,3xh[4:1]/4xh[4:1],,,2xh[4:1]/5xh[4:1],
{8},,1x/6x,1xh[4:1]/6x,,4,,5,
{8}5,4,6,,7V53[2:1],,,,
{2},2V46[2:1],
{2},C1f,
{8},,,,7/8,,3/5,4>1[4:1]/6,
{8},5x,5x,,8,,3/5,4>1[4:1]/6,
{8},5x,5x,,8-4[4:1],,,,
{8}1-5[4:1],,,,7,,1/8,1/8,
{8}2x/7x,,,,1/2,,4/6,3/5<8[4:1],
{8},4x,4x,,1,,4/6,3/5<8[4:1],
{8},4x,4x,,1-5[4:1],,,,
{8}8-4[4:1],,,,1,1,8,,
{4}4/5,2b/7b,8h[2:1],6,
{4}1h[2:1],3,6h[2:1],8,
{4}3h[4:1],1<5[8:3],,,
{8},,3,3,4,,2/5,,
{12}6,5,6,5,,,3h[2:1],,,1,,,
{4}6h[2:1],8,1h[2:1],3,
{4}8h[4:1],4-1[4:1],,,
{8},6,6,5,7,1,8-4[4:1],,
{4},,3,2/5,
{8}1,1,8,,5b/7b,,4b/5b,,
{8}2b/4b,,1b/8b,,6,,4/7,4/7,
{16},,2/5,,2/5,,,,1,8,1,8,1,8,1,,
{8},2/7,2/7,,6h[1:1],,,,
{2}E5,3h[1:1],
{2}B4/B5,6h[1:1],
{2}B4/B5/E5,3h[2:1],
{8}E1,,,,4h[4:1]/7h[4:1],,,3h[4:1]/8h[4:1],
{8},,4,4,5,3,4,2,
{8}8x,8x,1x/8x,,2h[4:1]/5h[4:1],,,1h[4:1]/6h[4:1],
{8},,7h[4:1]/8h[4:1],,,6,6,5,
{8}7,4,5,3,3h[4:1],,6,6pp3[8:7],
{1},
{8}2,,2,,6h[4:1],,4,4h[4:1],
{8},8,8h[4:1],,1,,4x/5x,,
{4}3x/6x,2x/7x,1x/8x,6/7,
{4}4/5,2/3,1/8,6/7,
{12}4/5,,,2/3,,,1x/8x,1x/8x,1x/8x,1x/8x,,,
{4}4/5,2/7,1/8,2/3,
{12}4/5,,,6/7,,,1/8,,,3,4,3,
{12}4,,,6,5,6,5,,,4,5,4,
{12}5,4,5,4,5,4,5,,2/4,,1/8,,
{6}5/7,4/5,2/4,1/8,,,
{8}E4/E6,,,,3,3,2/4,2/4-8[4:1],
{8},3,3,,1,1,8,2-5[4:1],
{8},7,7,,6,6,5/7,5-1[4:1]/7,
{8},6,6,,7-3[4:1],,,,
{8},,,,3,3,4,2,
{8},1/5,1/5,,6,6,5,7,
{8},4/8,4/8,,3,3,6,6,
{8}1,1,8,8,4,4,5,,
{4}3/6,2/7,1-5[8:1],8-6[8:1],
{4}2-4[8:1],1,8-4[8:1],1-3[8:1],
{8}7-5[8:1],,8,,2,2,7,7,
{16}1,8,1,8,1,8,1,8,2,7,2,7,2,7,2,7,
{16}3,6,3,6,3,6,3,6,4,5,4,5,4,5,4,5,
{16}4x,3x,2x,1x,8x,7x,6x,5x,4xh[2:1],,,,,,,,
{1}C1f,
{1}7b,
{1},
{1},
{1},
E
&inote_5=
(222){1},
{1},
{2}3h[1:1]/5,E5,
{2}7h[1:1],C1,
{1}1s5[2:1],
{4}6h[2:1],,3,4/5,
{16}2b/7b,,6,5,6,,4/7,,3,,8,,1,,6,,
{16}2/5,,3,4,3,,2/5,,6,,1,,8,,3,,
{16}4/7,,6,5,6,,4/7,,3,,8,,1,,6,,
{16}2,4,2,,7,5,7,,1/6,,,,,,,,
{8}3-8[8:1],3,7-4[8:1],7,3,,B3/E3/B4,,
{8}6-1[8:1],6,2-5[8:1],2,6,,B5/B6/E7,,
{8}3>8[8:1],3,7<4[8:1],7,3,3,8,8,
{16}1,,1,,6,,6,,2,8,2,8,2,8,2,8,
{32}2,3,4,5,6,7,8,1,2,3,4,5,6,7,8,1,2b,,,,,,,,3/4,,,,,,,,
{8}5-7[8:1],5,1,2,8-4[8:1],8,3,2,
{8}5-7[8:1],5,1,,4/8,4,4/7,4,
{16}4/6,,4,,4/5,,,,B4,B5,B3,B6,E3,E7,E2,E8,
{2}C1/E1,5/6,
{4}B1/E1/B2/E3,,3,4,
{2}E1/B7/E7/B8,5/6,
{2}B1/E1/B2/E3,4/5,
{8}B3/E3/B6/E7,,,,2-4[8:1],1,2,7-5[8:1],
{8}8,7,,2,2q6[8:1]/5,6,7,8h[4:1],
{8},1,,2/7,6-8[8:1],5,6,3-1[8:1],
{8}4,3,,7,1/7,6,5,3/4,
{8},2/7,,,5/6,,,,
{4}B1/E1/B2/E3,,3,4,
{2}E1/B7/E7/B8,5/6,
{2}B1/E1/B2/E3,4/5,
{12}1/8,,,,,,2b,4,3,7,5,6,
{12}2,4,2,7,5,7,3,4,2,6,5,7,
{12}3,1,3,6,8,6,1w5[8:1],,,,,,
{2}8w4[8:1],B1/C1f/E1/B2/E2/B6/B7/E7/B8/E8,
{8},,,,2h[4:1]/4,,1,3h[4:1]/8,
{16},,4,,2h[4:1]/5,,,,1,,,,8,7,6,5,
{16}2,3,4,5,8,,,,5/7h[4:1],,,,8,,1/6h[4:1],,
{16},,5,,4/7h[4:1],,,,8,,,,1,2,3,4,
{16}7,6,5,4,1,,,,2-5[8:1]/8,,,,5,,6-1[8:1],,
{8},2,3,4-8[8:1],,5,6,1/7,
{8},2/8,,6,5/7,,3,2/4,
{8},5,4q5[4:3],5p4[8:5],,,,,
{16},,,,,,,,3,4,3,4,2,5,2,5,
{16}1,6,1,6,8,7,8,7,5,6,5,6,4,7,4,7,
{16}3,8,3,8,2,1,2,1,3,4,3,4,2,5,2,5,
{48}1,,,6,,,1,,,6,,,8,,,7,,,8,,,7,,,1b,,2,,3,,4,,5,,6,,7,,8,,1,,6b,,5,,4,,
{24}3,2,1,8,7,6,5,,,,,,3h[8:3],,,,,,4,,,4-6[8:1],,,
{8},2,,1,1/7h[4:1],,5,5-2[8:1],
{8},6-1[8:1],,1,,2,4,3,
{8}6,5,7,1V35[4:1],,5,,7,
{8}7,5,6,4,5h[2:1],,E6/E7,,
{4}4h[2:1],E3/E4,6h[2:1],E7/E8,
{4}3h[2:1],E2/E3,8h[2:1],1,
{8}2,,3,4,2,,3/6,,
{12}4,5,4,5,,,6h[2:1],,,B7,,,
{4}8h[2:1],B1,2h[2:1],B3,
{4}4h[2:1],B5,C1f,,
{2},2b,
{2},5>7[4:5]/7h[2:1],
{2},6,
{2}5,2h[2:1]/4<2[4:5],
{2},3,
{2}4,5>7[4:5]/7h[2:1],
{2},6,
{2}5,2h[2:1]/4<2[4:5],
{2},3,
{8}4,,,,5h[4:1]/6h[4:1],,,4h[4:1]/5h[4:1],
{8},,3/4,,E2,E5,E3,E6,
{8}E4,E7,C1,,5h[4:1]/6h[4:1],,,4h[4:1]/5h[4:1],
{8},,3/4,,E2,E5,E3,E6,
{8}E4,E7,C1,,1/8,,3/6,3/6,
{8},7,5,6<1[4:1],,1q6[4:1],,4,
{8},3,3/8,,4/5,,2/7,2/7,
{8},3,4,2p5[4:1],,5>2[4:1],,8,
{24},,,6,,,1/6,,,,,,8,,2,,7,,3,,6,,4,,
{12}E6,E5,E8,E3,,,1,7,2,6,3,5,
{12}E4,E5,E2,E7,,,C1hf[2:1]/B2/B7,,,,,,
{8},,,,1/7,8>4[8:1],2,8,
{24},,,7,8,1,2,3,4,5,,,8,,,1<5[8:1],,,7,,,1,,,
{24},,,2,1,8,7,6,5,4,,,1-4[8:1]*-6[8:1],,,,,,1,,,,,,
{8}5-2[8:1]*-8[8:1],,5,,1/7,,4/5,3/6,
{8}C1f/B3/B7,,1b,,2/8,1<5[8:1],7,1,
{24},,,2,1,8,7,6,5,4,,,1,,,8>4[8:1],,,2,,,8,,,
{48},,,,,,7,,8,,1,,2,,3,,4,,5,,,,,,8,,,,,,3,,,4,,,2,,,,,,6,,,5,,,
{16}7,,1,8,1,8,1,8,1,2,3,4,7,6,5,4,
{16}2,3,4,5,6,7,8,1,2/7-4[8:1],,,,8,,,,
{4}2-5[8:1]/6,1,3/6-1[8:1],5,
{4}3-8[8:1]/7,4<3[2:1],C1f,,
{8},,2,2,8h[12:5],,4h[6:1],,
{12}3/7,2/6,1/5,4/8,,,5/6-3[8:1],,,1,,,
{4}2-7[8:1]/8,5,6>3[8:1]/8,1,
{4}2<7[8:1]/7,4>5[2:1],C1f,,
{8}3,2,1,8h[8:5],,1,1h[4:1],,
{24},2/7,3/6,4/5,,,2b/7b,,,,,,5-7[8:1],,,5,,,3,,,,,,
{16}2,,2,,3/5,,,,6,5,6,5,6,,3,4,
{16}3,4,3,,2/5,,,,4-2[8:1],,4,,6,,,,
{16}7,,7,,4/6,,,,3,4,3,,6,5,6,,
{4}3h[4:1],8,4/7>3[2:1],,
{2}B6,2>6[2:1]/7,
{2}B2,4/7p2[2:1],
{2}C1,1h[4:1]/8h[4:1],
{16}1/8,,7,2,6,3,5,4,5h[8:3],,,,6,,6h[4:1],,
{8},,B7/E7,B3/E3,B5/E6,B2/E2,B8/E8,B4/E4,
{8},6,6,,3-8[8:1],3,5,6-1[8:1],
{8}6,4,3-8[8:1],3,5,6<3[8:3]*q3[8:3],6,,
{4},,3/4,2/5,
{16}4/6,,4/6,,,,2/5,,,,3/4,,,5,5,,
{16},,2/7,,1,8,1,8,1,,,,5/6,,,4,
{8}4,3/5,2,1s5[2:1],,8b,,,
{4},,5b/6b,1b/8b,
{4}3b/4b,1b/8b,4b/5b,6b/7b,
{12}1b/8b,,,2b/3b,,,4b,4b,5b,5b,,,
{16}2b/7b,,3b/6b,,4b/5b,,,,8b,1b,8b,1b,8b,,,2b/7b,
{24}2b/7b,,,3b/6b,,,4b/5b,,,,,,2b/7b,,,,,,1b/2b,,1b/2b,,1b/2b,,
{12}1b/2b,,,7b/8b,7b/8b,7b/8b,7b/8b,,,2b/4b,2b/4b,2b/4b,
{12}2b/4b,,,5b/7b,5b/7b,5b/7b,5b/7b,,4b/6b,,3b/5b,,
{6}6b/7b,2b/3b,1b/8b,E5,,,
{16},,,,,,,,3/5,,6,5,6,5,6,,
{16}7/8,1,2,3,4/5,6,7,8,1/2,,3,4,3,4,3,,
{16}1/2,8,7,6,4/5,3,2,1,7/8,,6,5,6,5,6,,
{32}3,,4,,3,,4,,3,,,,1/2,,,,7,6,5,4,3,2,1,8,7,6,5,4,3,2,1,8,
{8}7b,,,,1/2-5[8:1],,2,8-4[8:1],
{8},1/8,,2,2V86[4:1],,6V42[4:1],,
{8}2,,6,,7/8-4[8:1],,5,5-1[8:1],
{8},3h[4:1],,2>7[4:1],2,,,,
{4}1/8,,2/4,1/8,
{4}5/7,4/5,2/3,1/8,
{16}6/7,,,,4/5,,,,3,4,3,4,2,5,2,5,
{16}4,7,4,7,5,6,5,6,4,5,4,5,3,4,3,4,
{48}1,,,8,,,1,,,8,,,2,,,7,,,2,,,7,,,2b,,3,,4,,5,,6,,7,,8,,1,,2,,3,,4,,5,,
{96}1b,,,,8,,,,7,,,,6,,,,5,,,,4,,,,3,,,,2,,,,1,,,,8,,,,7,,,,6,,,,3b,,,4,,,5,,,6,,,7,,,8,,,1,,,2,,,3-7[8:1],,,4,,,5,,,6,,,7,,,8,,,1,,,2,,,
{1}C1f/3b,
{1}E7/E8/7b,
{1},
{1},
{1},
E
