&title=絶対にチョコミントを食べるアオイチャン
&wholebpm=140
&artist=GYARI
&des=はっぴー
&shortid=11192
&genre=niconicoボーカロイド
&cabinet=DX
&version=maimai DX Splash
&chartconverter=Neskol
&lv_2=2
&des_2=
&lv_3=6
&des_3=
&lv_4=9+
&des_4=サファ太
&lv_5=12+
&des_5=はっぴー
&des_6=
&inote_2=
(140){1},
{1},
{1},
{1},
{1},
{1},
{1}8-5[4:3],
{1},
{1}1-4[4:3],
{1},
{1}8-5[4:3],
{1},
{1}1x,
{1}1-4[4:3],
{1},
{2}5,5,
{1}5,
{2}4,4,
{1}4h[1:1]/5h[1:1],
{2},3,
{2}3,3x,
{2},2,
{2}2,2x,
{2},1,
{2}1,1x,
{2},8,
{2}8,1x/8x,
{2},B2,
{2},B3,
{2},B4,
{2},B5,
{2},B6,
{2},B7,
{2},1h[1:1]/8h[1:1],
{1},
{2},B7/B8,
{2},B5/B6,
{2},B3/B4,
{2},B1/B2,
{2},C1hf[8:15],
{1},
{1},
{1},
{2},1h[2:1],
{4},,2,2,
{2}2,3h[2:1],
{4},,4,4,
{2}4/5,5h[2:1],
{4},,6,6,
{2}6,7,
{2}7,8,
{2}8,1h[2:1]/8h[2:1],
{2},8-5[4:3],
{1},
{2},1-4[4:3],
{1},
{1},
{2},8,
{2}8,7,
{2}7,6,
{2}6,5,
{2}5,4,
{2}4,3,
{2}3,2,
{2}2,1x/8x,
{2},1,
{2}1,2,
{2}2,3,
{2}3,4h[2:1]/5h[2:1],
{2},B4/B5,
{2},B3/B6,
{2},B2/B7,
{2},C1hf[8:15],
{1},
{1},
{4},,8b,8,
{4}8,,7,7,
{4}7x/8x,,6b,6,
{4}6,,5,4,
{4}5x,,4b,4,
{4}4,,3,3,
{2}3x/4x,2-6[4:3],
{1},
{2},7-3[4:3],
{1},
{2},B4/B5,
{2},B3/B6,
{2},C1f,
{1},
{1},
{1},
E
&inote_3=
(140){1},
{1},
{1},
{1},
{1},
{1},
{1}7pp3[1:1],
{1},
{1}2qq6[1:1],
{1},
{1}7qq3[1:1],
{1},
{1}2>5[8:3],
{1}6<1[8:3],
{1}1x/2x,
{4}2x,2,1/2,,
{4}7,7,7/8,,
{4}2,2,1/2,,
{4}8,1,2-5[8:3]/7-4[8:3],,
{2},3xh[2:1],
{2}4,6h[2:1],
{2}5,3h[2:1],
{4}4,,5,5,
{2}4/6,7xh[2:1],
{2}8,2h[2:1],
{2}1,7h[2:1],
{4}8,,1,8,
{2}2/7,3x<6[8:3],
{2},7<4[8:3],
{2},3>8[8:3],
{2},7>2[8:3],
{2},3-8[8:3],
{2},7-3[8:3],
{2},2-6[8:3],
{2},8-5[8:3],
{4},,3,3,
{4}4,,6,6,
{4}5,,3,3,
{4}4,,5,5,
{4}4/6,,7,7,
{4}8,,2,2,
{1}1>6[1:1],
{1},
{4},,7,7,
{4}7/8,7b/8b,6,5,
{4}3/4,,2,2,
{4}1/2,1b/2b,3,4,
{4}5/6,,6,6,
{4}5/6,5b/6b,7,8,
{4}1,2,1/8,,
{4}2/7,,3x/6x,3x/6x,
{1}5x<1[8:7],
{4},,2,2,
{4}1/2,,7,7,
{4}7/8,,2,2,
{4}1/2,,8,8,
{4}1,1,1/8,2x/7x,
{2},B3,
{2},B4,
{2},B5,
{2},B6,
{2},B7,
{2},B8,
{2},B1,
{2},C1,
{2},6x>3[8:3],
{2},2>5[8:3],
{2},6<1[8:3],
{2},2<7[8:3],
{4},,6,6,
{4}5,,4/5,4/5,
{1}3xh[1:1]/6xh[1:1],
{8},,,B4/B5,,,,,
{8},,,B3/B6,,,,,
{8},,,C1xh[2:1],,,,,
{4},,1,1/2,
{4}7,7b/8b,6,6,
{4}5/7,,7,7/8,
{4}2,1b/2b,3,3,
{4}2/4,,3,3/4,
{4}6,5b/6b,7,8,
{4}1,2,1-5[8:3]/8-4[8:3],,
{2},3/6,
{2}2/7,1-4[8:3]/8-5[8:3],
{2},3/6,
{2}2/7,1>4[8:3]/8<5[8:3],
{2},3x/6x,
{2}2x/7x,1pp4[1:1]/8qq5[1:1],
{1},
{1},
{1},
E
&inote_4=
(140){1},
{1},
{8}6h[2:1],,,5,5,,,,
{8}3h[2:1],,,4,4b,,,,
{8}6h[2:1],,,5,5,,,,
{8}4h[2:1],,,5,5,,4/5pp8[1:1],,
{1}3h[1:1],
{8},,3b,3b,,3x/4x,3x/4xpp7[1:1],,
{1}2h[1:1],
{8},,2b,2b,,4x/6x,4xqq1[1:1]/6x,,
{1}7h[1:1],
{8},,7b,7b,,8,8<5[4:1],,
{4},1>4[4:1],,8qq3[2:1],
{4},,1x,1x,
{2}3xh[16:15]/8b,C1hf[16:7],
{4},,,2x/7x,
{4}3h[4:1],4,6h[4:1],5,
{8}2h[4:1],,4,,1/2,,8x,8x,
{16},,1/7,,1/7,,,,2x/4x,,,4x/5x,,,5x/7x,,
{8}5x/7x,,,,4/5,,6,6,
{4}5,5/6,7,5/6>3[4:1],
{8},,2x,,2/4,,3,3,
{4}4,3/5,6,5/6>3[4:1],
{8},,2x,,2/4,,3,3,
{4}4,3/5,4/6,5/7p3[4:1],
{4},2x,E2,E8,
{4}E6,E4,C1f,,
{8},1x/8x,1x/8x,1x/8x,,,3h[2:3]/6,,
{8},4,4,,,,2,,
{8},4,4,,4/5,,6h[2:3],,
{8},5,5,,,,7,,
{8},5,5,,4/5,,2h[2:3]/4,,
{8},3,3,,,,1,,
{8},3,3,,3/4,,5,,
{16}4x/6x,,,3x/5x,,,2x/6x,,,,4/5,,4/5,,,,
{16}3h[16:3],,,4h[16:3],,,2,,,,1,,1,,,,
{16}2h[16:3],,,4h[16:3],,,3,,,,5,,5,,,,
{8}6,6,,5/7,,8,8,,
{16}7h[16:3],,,5h[16:3],,,6,,,,3/5,,3/5,,,,
{16}1x,,,2x/8x,,,3x/7x,,,,3h[16:3],,,5h[16:3],,,
{16}4h[16:3],,,6,,,5/7,,,,6h[16:3],,,4h[16:3],,,
{16}5h[16:3],,,3>6[16:9],,,,,,,,,,,,,
{8},,,3x/6x,,1,1,8,
{16},,2/7,,2/7,,,,3x/5x,,,4x/7x,,,2x/5x-8[8:1],,
{8},,1b,,3,3,2/4,,
{16}6,,6,,5/7,,,,2x/5x,,,4x/6x,,,3x-8[8:1]/5x,,
{4},7b,5/6,3/4,
{16}2,,2,,1,,,,4x/7x,,,3x/5x,,,4x/6x-1[8:1],,
{8},,2b,,3,3,2/4,,
{8}6,6,5/7,,4/6h[4:1],,1,,
{4}3h[4:1]/5,8,5/7,6,
{8}2/4,,3,,5,5,4,4,
{8}5,,3b/6b,2b/7b,1bp8[8:11]/8b<1[8:11],,,,
{1},
{4},,1/2h[4:1],4,
{8}7h[4:1]/8,,5,,4xh[4:1]/6xh[4:1],,,3xh[4:1]/5xh[4:1],
{8},,4xh[4:1]/7xh[4:1],,,2x/5x,,1,
{8}1,8,8,2x,,,3h[2:3],,
{8},4,4,,,,5,,
{8},4,4,,4/5,,6h[2:3],,
{8},5,5,,,,4,,
{8},5,5,,3/5,,2h[2:3],,
{8},4,4,,,,3,,
{8},4,4,,5,,6,,
{1}5/6v3[8:3],
{16}3h[16:3],,,4h[16:3],,,2x,,,,1,,1,,,,
{16}2h[16:3],,,4h[16:3],,,3,,,,5,,5,,,,
{8}6,6,5,7,,8,8,,
{16}1x,,,2x/8x,,,3x/7x,,,,4/5,,4/5,,,,
{16}3x/4x,,,5x/6x,,,4x/7x,,,,6h[16:3],,,5h[16:3],,,
{16}4h[16:3],,,3,,,3/4,,,,3h[16:3],,,4h[16:3],,,
{16}5h[16:3],,,6<4[16:11],,,,,,,,,,,,,
{16},,,,,,3x/6x,,,,4/7h[16:3],,,6h[16:3],,,
{16}5h[16:3],,,4,,,3x/4x,,,,2h[16:3]/5,,,3h[16:3],,,
{16}4h[16:3],,,5,,,5x/6x,,,,4,,4,,5,,
{16},,1/8,,2b/7b,,,,5xh[8:1]/6xh[8:1],,,3xh[8:1]/4xh[8:1],,,2b-6[8:1]/5b,,
{8},,8b,,7,8,1/6,,
{16}2/7,,,,4/5,,,,5xh[8:1]/7xh[8:1],,,3xh[8:1]/4xh[8:1],,,2b-6[8:1]/5b,,
{4},8b,1/2,3/4,
{16}6,,5,,4/7,,,,3xh[8:1]/5xh[8:1],,,4xh[8:1]/6xh[8:1],,,1b/8bw4[8:1],,
{4},,2x/6x,2x/6x,
{8}4,5,4,,5/7h[4:1],,8,,
{4}1/2h[4:1],4,5<8[4:1],,
{4}1>4[4:1],,6,5/7,
{4}1,2/8,3>8[4:1],,
{4}7<4[4:1],,2,2/4,
{8}6,5/6,,4/7,,2/6,2/6,,
{8}1b/8b,1b/8b,2b/7b,3b/6b,4b/5b,,C1f/B2/B3/E3/B6/B7/E7,,
{1},
{1},
{1},
E
&inote_5=
(140){1},
{24},,,,,,,,,,,,,,,,,,,,,E4,B4,B5,
{4}E6,8<5[4:1],,,
{2},4b-1[8:1],
{8}8<5[4:1],,,,,,1b,2b,
{16}3b,,4b,,,,,,,,6,5,7V58[8:7],,7,,
{16}1b,,E3,,,E2,,,E1,,,B3,,,C1f,,
{16},,,,1b,,1b,,,,6,5,7qq4[8:7],,7,,
{16}1b,,E3,,,E2,,,E1,,,B3,,,C1f,,
{16},,,,1b,,1b,,,,6,5,7V58[4:3],,7,,
{16}1b,,E3,,,E2,,,E1,,,B3,,,C1f,,
{8},,1b,1b,,5,5-8[8:1],4,
{8}4,,,7,4,4qq4[8:3],5,5h[8:5],
{4},,4,3/6xh[4:3],
{4}C1,,5x-1[8:1],5x>6[8:3],
{16},,,,,,,,,,,,6,5,,4/7,
{16},,3,,2/4,,6,5,7,,3,4,2,,1,8h[16:3],
{16},,1,,,3,4,,2h[4:1]/5h[4:1],,,,,,6<3[4:1],5,
{16},,,,,,,,1x,,,3bqq5[16:9]/7b,,,,,
{8},,,,8x,8,7,6,
{8}4/5,,3/6>3[8:1],2,1-4[8:1],,1p5[8:1],,
{16},,E2,E3,E4,,,,1,,1,,2,,3,,
{8}4/5,,3<6[8:1]/6,7,8-5[8:1],,8q4[8:1],,
{16},,E8,E7,E6,,,,8,,8,,7,,6,,
{8}4/5,,3/6>3[8:1],2,1-4[8:1],,1p5[8:1],,
{16},,E2,E3,E4,,,,1,,1,,2,,3,,
{16}4,,5pp5[4:1],,,,5qq5[4:1],,,,,,,,,E1,
{8},3>6[8:3],4,5h[8:5],,,,,
{16}4h[16:3],,,3h[16:3],,,2<7[8:1],,,,6>3[8:1],,,,2q6[8:1],,
{8},8<3[8:3],,1,,E2,E1,,
{16}3/5h[16:3],,,6h[16:3],,,7>2[8:1],,,,3<6[8:1],,,,7p3[8:1],,
{8},1>6[8:3],,8,,E8,E1,,
{16}4h[16:3]/6,,,3h[16:3],,,2<7[8:1],,,,6>3[8:1],,,,2q6[8:1],,
{8},7,,1h[4:1]/8h[4:1],,,1b/8b,,
{32}B7,B6,E6,,,,B2,B3,E4,,,,C1f,,,,,,,,8x,,,,8x,,,,,,,,
{16}1h[8:1]/6h[8:1],,,2h[8:1]/7h[8:1],,,3/8h[4:1],,,,6,,5,,,,
{16}4h[8:1]/7h[8:1],,,3h[8:1]/6h[8:1],,,2h[4:1]/5,,,,4,,5,,6<1[8:1],,
{8},3<6[8:1],,8>3[8:1],,5,5,,
{16}4h[8:1]/7h[8:1],,,3h[8:1]/6h[8:1],,,2h[4:1]/5,,,,8,,8,,,,
{16}1b/7b,,,4b/5b,,,2b/6b,,,,4h[8:1]/7h[8:1],,,3h[8:1]/5h[8:1],,,
{16}5h[8:1]/7h[8:1],,,2h[8:1]/4h[8:1],,,3/7,,,,2h[8:1]/8h[8:1],,,1h[8:1]/6h[8:1],,,
{16}5h[8:1]/7h[8:1],,,2h[8:1]/4h[8:1],,,1/8<1[8:3],,,,,,,,,,
{8},,,3b,,2b,2b,2b,
{16},,1,8,1,,2/7,,4/6,,3,4,,6,5,,
{8}3/4-8[8:1],,2b/4x,1s5[8:3],,6,6,6h[4:1],
{16},,1,1,8,,2/7,,3/5,,6,5,,3,4,,
{8}5-1[8:1]/6,,5x/7b,8qq5[8:3],,3,3,3h[4:1],
{16},,8,8,1,,2/7,,4/6,,3,4,,6,5,,
{8}3/4-8[8:1],,2b/4x,1h[4:1],,8,8<5[8:1],,
{8}1>4[8:1],,8,,E5,E6,E7,E8,
{8}E1,E2,E3,4h[4:1]/5h[4:1],,,4>1[8:1],,
{8}5<8[8:1],,4,,E3,E4,E6,E7,
{16}C1f,,,,1b/8b,,1b/8b,,2b/7b,,6,5,,5,,8,
{16},8,,2,4,,3/5,,2/6,,3,4,,4,,1,
{16},1,,7,5,,4/6,,3/7,,6,5,,5,,8,
{16},8,,2,4,,3/5,,2/6-1[8:1],,,,4,,3-8[8:1],,
{8},7,6-2[8:1],,3,4h[4:1],,8,
{8}8,1,3,6h[4:7],,,,,
{32}E1,B8,,,,,B2,E3,,,,,B4,E5,,,,,,,,,,,,,,,,,,,
{8},5,4,3h[4:7],,,,,
{32}E1,B1,,,,,B7,E7,,,,,B5,E5,,,,,,,,,,,,,,,,,,,
{8},4,5,7h[4:7],,,,,
{32}E2,B2,,,,,B7,B6,,,,,B3,E4,,,,,,,,,,,,,,,,,,,
{8},5,4,2h[4:5],,,,,
{32}E8,B7,,,,,B2,B3,,,,,B6,E6,,,,,,,8,,,,8,,,,,,,,
{16}4/5,,,3/6,,,2h[8:3]/7h[8:3],,,,,,,,,,
{24}4x,5x,4x,5x,4x,5x,4x,5x,4x,5x,4x,5x,3x,6x,3x,6x,3x,6x,3x,6x,3x,6x,3x,6x,
{24}4x,5x,4x,5x,4x,5x,4x,5x,4x,5x,4x,5x,3x,6x,3x,6x,3x,6x,3x,6x,3x,6x,3x,6x,
{24}4x,5x,4x,5x,4x,5x,4x,5x,4x,5x,4x,5x,4x,,,3/6,,,3/6,,,,,,
{32}B7,B6,E6,,,,B2,B3,E4,,,,E1,C1f,E5,,,,,,8,,,,8,,,,2,,1,,
{16}2,,3,4,,4,2h[4:1],,,,3,,1,,7,8,
{16}7,,6,5,,5-1[16:3],7-3[8:1],,,,,,,,,,
{48}1x/8x,,,,,,,,,2x/7x,,,,,,,,,8x,,7x,,6x,,1x,,2x,,3x,,8x,,7x,,6x,,1x,,2x,,3x,,8x,,7x,,6x,,
{24}1x,2x,3x,8x,7x,6x,5x,,,2x,3x,4x,7x,6x,5x,2x,3x,4x,7x,6x,5x,2x,3x,4x,
{24}7x,6x,5x,2x,3x,4x,5x,,,2/7,,,,,,1/2,,,3/8,,,4/7,,,
{16}5-1[8:1]/6,,,,5x/8b,,,,1/7,,6,5,,3,4,,
{32}2-6[16:1]/5,,,,,,,,2b/8b,C1f,,,1h[4:1],,,,,,,,2v7[8:1],,,,2,,,,6h[4:1],,,,
{16},,1,,1,,2/7,,1/8,,6,5,,3,4,,
{32}2-6[16:1]/5,,,,,,,,2b/8b,C1f,,,1h[4:1],,,,,,,,2q7[8:1],,,,2,,,,6h[4:1],,,,
{16},,1,,1,,8,,C1f/B6/B7/E7,,,C1f/B2/B3/E3,,,C1f/B4/B5/E5,,
{32},,,,,,,E1,B1,C1f,B5,E5,8xh[4:1],,,,,,,,3>8[4:1],,,,3p7[8:1],,,,,,,,
{8},,8,7,5>1[4:1]/6,,,,
{2}4<8[4:1],5>1[4:1],
{2}4<8[4:1],1h[2:1],
{8}3,4,2/4<8[4:1],,,,5>1[4:1],,
{4},4q5[8:3],,,
{8}1,1,8,8,1-5[8:1],,7-3[8:1],,
{32}1b,,,,1b,,,,2/6,,,,3,,5,,4w8[16:1],,,,,,,,4x,C1f,,,,,,,
{1},
{1},
{1},
E
