&title=絡繰りドール
&wholebpm=160
&artist=SOUND HOLIC feat. Nana Takahashi
&des=サファ太
&shortid=11201
&genre=東方Project
&cabinet=DX
&version=maimai DX Splash
&chartconverter=Neskol
&lv_2=3
&des_2=
&lv_3=6
&des_3=
&lv_4=9
&des_4=小鳥遊さん
&lv_5=12+
&des_5=サファ太
&des_6=
&inote_2=
(160){1},
{1},
{1},
{1},
{1},
{1}4,
{1},
{1}5,
{1},
{1}4,
{1}4,
{1}5,
{1}5b,
{2}6,6,
{1}6,
{2}7,7,
{1}7,
{2}8,8,
{1}8,
{2}1,1,
{1}1,
{2}2,2,
{1}2,
{1}1/2,
{1}7/8,
(152){1}1-5[4:3],
{1},
{1}8-4[4:3],
{1},
{1}3,
{1}4,
{1}5,
{1}4/5,
(160){1}5h[1:1],
{1},
{2}4,4,
{1}3,
{2}2,2,
{1}1,
{2}8,8,
{1}1x/8x,
{1}B7,
{1}B6,
{1}B5,
{1}B4,
{1}B3,
{1}B2,
{1}B1/B8,
{1}C1hf[1:1],
{1},
{4}1,1,1,,
{4}2,2,2,,
{4}3,3,3,,
{2}4/5,4x/5x,
{2}5,5/6,
{2}4,3/4,
{2}4/5,4/5,
{1}4h[2:1]/5h[2:1],
{4}6,6,6,,
{4}7,7,7,,
{4}8,8,8,,
{2}1/8,1x/8x,
{4}1,1,1,,
{4}8,8,8,,
{1}1h[1:1]/8h[1:1],
{1},
{1}1b/8b,
{2}7,7,
{2}6,6,
{2}5,5,
{2}4,4,
{2}3,3,
{2}2,2,
{2}1,1,
{2}8,1/8,
{4}2,2,1/2,,
{4}3,3,3/4,,
{4}6,6,5/6,,
{4}7,7,7/8,,
{1}1h[2:1]/8h[2:1],
{4}1,1,8,8,
{1}2b/7b,
{1},
{1},
{1},
E
&inote_3=
(160){1},
{1}6h[1:2],
{1},
{1}5h[1:2],
{1},
{1}4h[1:2],
{1},
{1}3h[1:1],
{1},
{1}2h[1:1],
{1}1h[1:1],
{1}8h[1:1],
{1}7,
{4}6,6,5,5,
{4}4,4,3/5,,
{4}2,2,1,1,
{4}8,8,1/7,,
{4}6,6,5,5,
{4}4,4,3/5,,
{4}2,2,1,1,
{4}8,8,1/7,,
{4}6,6,7,7,
{4}8,8,1,1,
{4}2,2,3,3,
{4}4,4,3b/5b,,
(152){1}B4,
{1}B3,
{1}B2,
{1}B1,
{1}B8,
{1}B7,
{1}B6,
{1}C1,
(160){4}2h[4:1],1,1,,
{4}7h[4:1],8,8,,
{4}2h[4:1],1,1,,
{4}8,8,1/7,,
{4}6h[4:1],5,5,,
{4}3h[4:1],4,4,,
{4}6h[4:1],5,5,,
{4}4/5,4/5,3/6,,
{4}7x/8x,7x/8x,7x/8x,,
{1}6x-1[8:3],
{4}1x/2x,1x/2x,1x/2x,,
{1}2x-5[8:3],
{4}5x/6x,5x/6x,5x/6x,,
{1}6x-3[8:3],
{1}2-5[8:3],
{4}6,6,7,7,
{4}1x/8x,1x/8x,2b/7b,,
{4}1,2,1/2,1/2,
{4}3,4,3/5,,
{4}6,6,5/6,5/6,
{4}7,8,1/8,,
{4}7,7,7/8,7/8,
{4}6,5,4/6,,
{4}3,3,3/4,3/4,
{4}2,1/8,2/7,,
{4}2,1/2,2,1/2,
{4}3,4,3/5,,
{4}6,5/6,6,5/6,
{4}7,8,1/7,,
{4}8,7/8,7,7/8,
{4}6,5,4/6,,
{4}3,3/4,3,3/4,
{4}2,1/8,2V41[8:7]/7V58[8:7],,
{1},
{4}2h[2:1],,1,1,
{4}8,8,1/7,,
{4}7h[2:1],,8,8,
{4}1,1,2/8,,
{4}3h[2:1],,4,4,
{4}5,5,4/6,,
{4}6h[2:1],,5,5,
{4}4/5,4/5,3/6,,
{4}4,4,3,3,
{4}2,2,1,1,
{4}8,8,7,7,
{4}6,6,5,5,
{1}4-8[2:1]/5-1[2:1],
{4},2x/7x,2x/7x,3x/6x,
{1}3x/6x,
{1},
{1},
{1},
E
&inote_4=
(160){1},
{1}4>5[4:5]/5,
{4},,,4/5,
{1}4/5<4[4:5],
{4},,,4/5,
{4}3h[2:3]/6,6,5,5,
{4}4,4,4,4/5,
{4}5/6h[2:3],5,4,4,
{4}3,3,3,4/5,
{4}3h[1:1],4,5,4,
{4}6h[4:3],5,4,5,
{4}4/5,3/6,2/7,1v4[2:1]/8v5[2:1],
{4},,,2b/7b,
{4}4-2[4:1]/5,,1,1/2,
{4}3-5[4:1]/8,,6,5/6,
{4}4/5-7[4:1],,8,7/8,
{4}1/6-4[4:1],,3,3/4,
{4}4-2[4:1]/5,,1,1/2,
{4}3-5[4:1]/8,,6,5/6,
{4}4/5-7[4:1],,8,7/8,
{4}1/6-4[4:1],,3,3/4,
{8}2,2,4,,3/5,,2/6,,
{8}7,7,5,,4/6,,3/7,,
{8}2,2,4,,7,7,5,,
{8}4x/5x,4x/5x,4xw8[4:1]/5x,,,,,,
(152){1}2b/6b,
{2}E5,E4,
{2}C1,E4,
{2}E5,E6,
{2}5h[2:3],B6/B7,
{2}B4/B5,B2/B3,
{2}4h[2:3],B2/B3,
{2}B4/B5,B6/B7,
(160){8}3,3,4,,4/5,,5/7,,
{4}6h[4:1],5-1[4:1],,,
{4}2h[4:1],1,7h[4:1],6,
{4}3h[4:1],4,5/6,4/7,
{8}6,6,5,,4/5,,2/4,,
{4}3h[4:1],4-8[4:1],,,
{4}7h[4:1],8,2h[4:1],3,
{4}6h[4:1],5>1[2:1],,,
{8}8x,,5x/6x,,2xh[8:3]/5x,,,1,
{4}1,7/8,5h[4:1]/6h[4:1],,
{8}1x/2x,,3x/4x,,4x/7xh[8:3],,,8,
{4}8,1/2,3h[4:1]/4h[4:1],,
{8}5x/6x,,3x/4x,,2xh[8:3]/7x,,,1,
{4}1,3/4,5/6,8<5[4:1],
{4},1>4[4:1],,5pp1[4:3]*qq1[4:3],
{1},
{16}2x/4x,,,5x/7x,,,1x/8x,,2b/7b,,,,,,,,
{2}1x/2x-5[4:1],7-4[4:1],
{8}2<7[4:1],,,,6,6,5<4[1:1],,
{1},
{4}C1f,,1/8,2/7,
{2}6<1[4:1],3<6[4:1],
{8}8h[8:3],,,1,1,,2/7,,
{8}4/5,,3,3/4,,6,5/6pp3[2:1],,
{4},,,1b/5b,
{2}7x-4[4:1]/8x,2-5[4:1],
{8}7>2[4:1],,,,3,3,4>5[4:3],,
{1},
{16},,1x/8x,,2b/7b,,,,5x/7x,,,2x/4x,,,1x/8x,,
{8}1/8,,7,5/7,,2,2/4,,
{16}1h[4:1]/8h[4:1],,,,,,,,2h[16:3],,,3h[16:3],,,4,,
{2}4-8[4:1]/5,7<2[2:1],
{16},,,,,,1x,,8xh[16:3],,,7h[16:3],,,6,,
{1}5w1[2:1],
{8}7/8-3[4:1],,,,4,4,3/4,,
{8}5-2[4:1]/6,,,,1,1,3/8,,
{8}1-6[4:1]/2,,,,5,5,5/6,,
{8}3/4-7[4:1],,,,8,8,1/6,,
{8}7/8>3[4:1],,,,4,4,3/4,,
{8}5>2[4:1]/6,,,,1,1,3/8,,
{8}1<6[4:1]/2,,,,5,5,5/6,,
{8}3/4<7[4:1],,,,8,8,1/6,,
{8}2,2,4,4,5,,5/6,,
{8}7,7,5,5,4,,3/4,,
{8}2,2,4,4,5,5,7,,
{8}1,1,8,8,1x/8x,1x/8x,1x/8x,,
{1}C1xh[4:3]/B2/B3/B6/B7,
{8},,1x/8x,1x/8x,2x/7x,2x/7x,1x-5[8:1]/8x-4[8:1],1x/8x,
{1},
{1},
{1},
E
&inote_5=
(160){1},
{1}4v6[8:3]/5xh[4:5],
{4}6,6,5,4,
{1}4h[4:5]/5v3[8:3],
{4}3,3,4,5,
{1}5v7[8:3]/6h[4:5],
{4}7,7,5,4,
{1}3h[4:5]/4v2[8:3],
{4}2,2,4,5,
{4}5/6xh[2:1],,7,B2/E2,
{4}3h[2:1]/4,,2,B7/E8,
{4}4/6h[4:1],5,3h[4:1]/5,4,
{4}4/5h[2:1],,1-5[8:1],1b,
{8}4xh[4:1]/7,7,6,5,3/4xh[4:1],3,2,1,
{8}1xh[4:1]/8,8,7,6,4-8[8:1]/5x,6,7,,
{8}2/5xh[4:1],2,3,4,5xh[4:1]/6,6,7,8,
{8}1xh[4:1]/2,2,3,4,5>2[8:1]/6x,7,8,,
{8}1xh[4:1]/6x,6,7,8,1xh[4:1]/2,2,3,4,
{8}5/6xh[4:1],5,4,3,2-5[8:1]/5x,6,8,,
{8}4/6x,5,4,2,3x/5,4,5,7,
{8}1x<6[8:1],1,5-8[8:1],5,4x,3,1/2,,
{8}3x/5,4,5,7,4/6x,5,4,2,
{8}8x>3[8:1],8,4-1[8:1],4,5x,6,7/8,,
{8}2x/4,3,5,4,4/5x,3/6,2/7,2/7,
{32}1x,,8,,1,,8,,1,,8,,1,,8,,1x,2,3,4,5,6,7,8,1b,,,,,,,,
(152){1}C1xh[2:3],
{1},
{32}E3,B3,,,,,,,,,,,,,,,E7,B6,,,,,,,,,,,,,,,
{32}B3,E4,,,,,,,,,,,,,,,B6,E6,,,,,,,,,,,,,,,
{2}4h[2:1]/5,3h[2:1],
{4}B3/E3,B5/E5,B7/E7,,
{1}4h[1:1]/5h[2:1],
{1}5p4[2:1],
(160){8}3h[4:1]/5,,4-6[8:1],,2,2,3,,
{8}4/6h[4:1],,5-3[8:1],,7,7,6,,
{4}4h[2:1]/5,B3,5h[2:1],B6,
{4}4h[2:1],E5,C1,1/8,
{8}6,5,4/7,,3,4,2-6[8:1]/5,,
{8}6-2[8:1],,7,,3b/8b,,,2-5[8:1],
{8},6,6h[4:1],,5>2[8:1],5,7,,
{8}E8,B3/E4,B5/E6,E2,C1f,,,,
{8}3-5[8:1]/8,,3/7-3[8:1],,C1f/7b,,,1,
{8}1,2/4,5>1[4:1],6,7,,,,
{8}1/6-4[8:1],,2-6[8:1]/6,,C1f/2b,,,8,
{8}8,5/7,4,3,2/4,,4/5,,
{8}3<6[8:1]/6,,3/8v3[8:1],,C1f/8b,,,2,
{8}2,3/4,5,6,4/7,8,1/8,,
{12}2-4[8:1]/4-6[8:1],,,,,,7x,5x,6x,3x,4x,2x,
{8}8h[2:1],,1>5[4:1],,,,,6,
{16}5h[8:1]/7h[8:1],,,2h[8:1]/4h[8:1],,,5/6,,3b/8b,,,,,,,,
{16}6,5,7,,3/8,,2,1,,3,4,,1/8,,7,5,
{16}6,4,5,,1/6,,7,8,,4,5,,1/2,,2,4,
{16}3,5,4,,3/8,,6,5,,1,8,,3/4,,6,5,
{16}7,,3,4,2,,8,1,8,,2,7,3,6,4,5,
{8}4>1[8:1],5,4/6,6,7<4[8:1],8,1/7,1,
{8}2<7[8:1],3,2/4,4,5h[4:1],,1b,,
{8}4-8[8:1]/6,5,3/4,2-6[8:1],1,2/8,7<2[4:1],,
{16}4b/7b,,,,,,,,1/8,,,4/6,4/6,,3,5,
{16}2,1,2,,3/8,,6,5,,2,1,,3/4,,7,5,
{16}6,5,7,,1/6,,3,4,,7,8,,1/2,,7,5,
{16}6,,2,4,3,,5,4,5,,1,8,2,7,3,6,
{16}4/5,,2b/7b,,2b/7b,,,,3xh[8:1]/5xh[8:1],,,4xh[8:1]/6xh[8:1],,,3x/7x,,
{16}2/6,,7,8,7,,3/5,,2,1,2,,4/6<4[4:1],,,,
{16}1b,,,,,,,,7h[8:1]/8h[8:1],,,1h[8:1]/2h[8:1],,,3/8,,
{8}4-8[8:1],4,5-1[8:1],5,3<6[8:1],3,7,7,
{32}1b,,8,,2,,8,,1b,,7,,2,,8,,1b,2,3,4,5,6,7,8,1b,2,3,4,5,6,7,8,
{1}C1f/1bw5[2:1],
{8}6x-4[8:1],6,1,2,3x-6[8:1],3,6,7,
{8}8x,8,5/7,6,4/5x-1[8:1],3,2/5,,
{8}2x,8,1/7,6h[4:1],5x,4,2/8,3h[4:1],
{8}4x,5,1/7,6,3/5x,2,4/8,,
{8}3b-5[8:1],3,8,7,6x-3[8:1],6,3,2,
{8}1x,1,2/4,3,4x-8[8:1]/5,6,4/7,,
{8}7x,1,2/8,3h[4:1],4x,5,1/7,6h[4:1],
{8}5x,4,2/8,3,4x/6,7,1/5,,
{8}6x-4[8:1],6,4,3,2x-6[8:1],2,6,7,
{8}8x-2[8:1],8,2,3,4x-8[8:1],4,8b,,
{8}6x,5/7,3,2/4,1x/8,2/7,6,5,
{16}3x,4,3,4,2,5,2,5,3x,6,3,6,4,7,4,7,
{32}3x,,8,,3,,8,,2,,1,,2,,1,,2x,3,4,5,6,7,8,1,2/6,,,,,,,,
{8}4/5,,3b/5b,4b/6b,2b/5b,4b/7b,1b-5[8:1]/8b-4[8:1],3b/6b,
{1}1b/8b,
{1},
{1},
{1},
E
